#VERSION:0.83;
#TITLE:Don't believe the hype;
#SUBTITLE:;
#ARTIST:DJ Mass MAD Izm* feat.H14(LEONAIR);
#TITLETRANSLIT:;
#SUBTITLETRANSLIT:;
#ARTISTTRANSLIT:;
#GENRE:MIXTURE;
#CREDIT:;
#MUSIC:Don't believe the hype.ogg;
#BANNER:Don't believe the hype.png;
#BACKGROUND:Don't believe the hype-bg.png;
#CDTITLE:./CDTitles/bm IIDX 29 CastHour.png;
#SAMPLESTART:96.955;
#SAMPLELENGTH:15.000;
#SELECTABLE:YES;
#OFFSET:0.152;
#BPMS:0.000=210.000;
#STOPS:68.000=0.571;
#TIMESIGNATURES:68.000=2=4,
70.000=4=4
;
#BGCHANGES:;
#FGCHANGES:;

//--------------- dance-single - forcednature ----------------
#NOTEDATA:;
#STEPSTYPE:dance-single;
#DESCRIPTION:forcednature;
#DIFFICULTY:Beginner;
#METER:4;
#RADARVALUES:0,0,0,0,0;
#CREDIT:forcednature;
#NOTES:
0000
0000
0000
0000
,
0000
0000
0000
0000
,
0000
0000
0000
0000
,
0000
0000
0000
0000
,
0000
0000
0000
0000
,
0000
0000
0000
0000
,
0000
0000
0000
0000
,
0000
0000
0000
0000
,
0000
0000
0000
0000
,
1001
0000
0000
0000
,
0000
0000
0000
0000
,
0001
0000
0000
0000
,
1000
0000
0000
0000
,
0001
0000
0000
0000
,
1000
0000
0000
0000
,
0001
0000
1000
0000
,
0001
0000
1000
0000
,
0000
0000
1001
0000
,
0000
0000
0001
0000
,
0000
0000
0100
0000
,
0000
0000
0000
0000
,
0000
0000
0010
0000
,
0010
0000
0010
0000
,
0000
0000
1000
0000
,
0000
0000
0000
0000
,
0000
0000
0001
0000
,
0001
0000
0010
0000
,
0000
0000
0001
0000
,
0000
0000
1000
0000
,
0000
0000
0100
0000
,
0100
0000
1000
0000
,
0000
0000
0001
0000
,
0000
0000
0100
0000
,
0000
0000
1001
0000
,
0000
0000
0000
0000
,
0000
0000
1000
0000
,
1000
0000
0001
0000
,
0001
0000
0100
0000
,
0000
0000
0000
0000
,
0000
0000
0001
0000
,
0001
0000
0010
0000
,
0000
0000
1001
0000
,
0000
0000
0000
0000
,
0000
0000
1000
0000
,
1000
0000
0100
0000
,
0100
0000
0010
0000
,
0000
0000
0000
0000
,
0000
0000
0001
0000
,
0001
0000
0100
0000
,
0000
0000
0002
0000
,
0000
0000
0000
0000
,
0000
0000
0000
0000
,
0000
0000
0003
0000
,
0000
0000
0020
0000
,
0000
0000
0000
0000
,
0000
0000
0000
0000
,
0000
0000
0030
0000
,
0000
0000
0200
0000
,
0000
0000
0000
0000
,
0000
0000
0000
0000
,
0000
0000
0300
0000
,
0000
0000
2000
0000
,
0000
0000
0000
0000
,
0000
0000
0000
0000
,
0000
0000
3000
0000
,
0000
0000
0001
0000
,
0000
0000
0001
0000
,
0000
0000
0100
0000
,
0000
0000
0100
0000
,
0000
0000
0010
0000
,
0000
0000
0010
0000
,
0000
0000
1000
0000
,
0000
0000
0001
0000
,
0001
0000
0001
0000
,
0000
0000
0010
0000
,
0010
0000
0010
0000
,
0000
0000
0100
0000
,
0100
0000
0100
0000
,
0000
0000
1000
0000
,
1000
0000
1000
0000
,
0000
0000
0001
0000
,
0001
0000
0100
0000
,
0000
0000
0010
0000
,
0000
0000
0110
0000
,
0000
0000
0000
0000
,
0000
0000
1001
0000
,
0000
0000
1000
0000
,
0100
0000
1000
0000
,
0000
0000
0001
0000
,
0010
0000
0001
0000
,
0001
0000
0100
0000
,
0100
0000
0010
0000
,
0000
0000
1000
0000
,
0001
0000
1000
0000
,
0000
0000
1000
0000
,
0000
0000
0100
0000
,
0000
0000
0100
0000
,
0000
0000
0010
0000
,
0010
0000
0001
0000
,
0000
0000
0100
0000
,
0000
0000
0010
0000
,
0000
0000
1001
0000
,
0000
0000
0110
0000
,
0000
0000
1000
0000
,
1000
0000
0001
0000
,
0001
0000
0100
0000
,
0100
0000
0010
0000
,
0010
0000
1000
0000
,
0001
0000
1000
0000
,
0001
0001
0000
0000
;

//--------------- dance-single - forcednature ----------------
#NOTEDATA:;
#STEPSTYPE:dance-single;
#DESCRIPTION:forcednature;
#DIFFICULTY:Easy;
#METER:8;
#RADARVALUES:0,0,0,0,0;
#CREDIT:forcednature;
#NOTES:
0000
0000
0000
0000
,
0000
0000
0000
0000
,
0000
0000
0000
0000
,
0000
0000
0000
0000
,
0000
0000
0000
0000
,
0000
0000
0000
0000
,
0000
0000
0000
0000
,
0000
0000
0000
0000
,
0000
0000
0000
0000
,
0000
1000
0100
0000
,
1000
0001
0000
0010
,
0001
0000
1000
0001
,
0000
0001
0100
0000
,
0010
0100
0000
0010
,
1000
0000
0010
0100
,
0000
0001
0001
1000
,
1000
0010
0100
0010
,
0000
0000
1001
0000
,
1000
0000
0100
1000
,
0100
0000
0010
0000
,
0001
0000
0010
0001
,
0010
0000
0001
0000
,
0001
0000
0100
0000
,
0010
0000
0220
0000
,
0330
0000
1000
0000
,
0001
0000
1000
0000
,
0100
0000
1000
1000
,
1000
0000
0001
0000
,
0100
0000
0001
0001
,
0001
0000
0010
0000
,
0110
0000
0100
0000
,
0110
0000
2002
0000
,
3003
0000
1000
0001
,
0100
0010
0000
1000
,
0000
1000
0000
1000
,
1000
1000
1000
0000
,
1000
0000
1000
1000
,
1000
0000
0100
0100
,
0100
0000
0100
0100
,
0100
0000
0100
0100
,
0100
0000
0220
0000
,
0330
0000
0010
0000
,
0010
0010
0010
0010
,
0010
0000
0010
0010
,
0000
0010
0010
0010
,
0010
0000
0001
0001
,
0001
0001
0001
0000
,
0001
0001
0001
0000
,
0001
0001
0001
0001
,
0001
0000
2001
0000
,
0000
0000
0010
0000
,
0010
0000
0001
0000
,
0001
0000
0100
0000
,
3000
0000
1002
0000
,
0000
0000
0010
0000
,
0010
0000
1000
0000
,
1000
0000
0100
0000
,
0003
0000
2001
0000
,
0000
0000
0100
0000
,
0100
0000
0001
0000
,
0001
0000
0010
0000
,
3000
0000
1002
0000
,
0000
0000
0100
0000
,
0100
0000
1000
0000
,
1000
0000
0013
0010
,
0100
0100
2000
0000
,
0000
3000
0020
0000
,
0000
0030
0200
0000
,
0000
0300
0002
0000
,
0000
0003
2000
0000
,
0000
3000
0200
0000
,
0000
0300
0020
0000
,
0000
0030
0001
0000
,
1001
0000
1000
0000
,
0010
0000
0100
0010
,
0100
0000
0001
0000
,
0010
0000
0100
0010
,
0100
0000
1000
0000
,
0001
0000
0100
0010
,
0100
0000
0001
0000
,
1000
0000
0100
0010
,
0100
0000
1000
1000
,
0000
0000
0001
0001
,
0000
0000
1001
1001
,
0000
0000
0100
0000
,
0110
0000
1001
0000
,
0001
0000
0010
0100
,
1000
0001
0010
0000
,
0001
0000
1000
0010
,
0100
0001
1000
1000
,
0100
0000
0010
0010
,
0001
0000
1001
0000
,
0000
0000
0001
0100
,
0010
1000
0001
0000
,
0010
0000
0100
1000
,
0010
0000
1000
0000
,
0001
0000
0100
0010
,
0110
0000
1001
0000
,
0110
0000
1000
0001
,
0010
0100
1000
0000
,
0010
0010
0100
0010
,
1000
0001
0000
1000
,
0100
0000
0010
0100
,
0000
1000
0001
0000
,
0010
0001
0000
1000
,
1001
0000
0001
1001
,
0000
0010
0110
0000
,
0100
0110
0000
0001
,
0100
0010
1000
1001
,
1001
1001
0000
0000
;

//--------------- dance-single - forcednature ----------------
#NOTEDATA:;
#STEPSTYPE:dance-single;
#DESCRIPTION:forcednature;
#DIFFICULTY:Medium;
#METER:11;
#RADARVALUES:0,0,0,0,0;
#CREDIT:forcednature;
#NOTES:
0000
0000
0000
0000
,
0000
0000
0000
0000
,
0000
0000
0000
0000
,
0000
0000
0000
0000
,
0000
0000
0000
0000
,
0000
0000
0000
0000
,
0000
0000
0000
0000
,
0000
0000
0000
0000
,
0000
0000
0000
0000
,
1001
1000
0200
0300
,
1000
0020
0030
0001
,
0200
0300
0001
0020
,
0030
1000
0200
0300
,
1000
0020
0030
0001
,
0200
0300
0001
0020
,
0030
0100
0110
0010
,
0110
0000
1000
0001
1000
0001
1000
0001
,
0000
0000
1000
0100
,
1100
0000
0000
0000
0001
0000
0010
0001
,
0010
0001
0100
0001
,
0101
0000
0000
0000
1000
0000
0010
1000
,
0010
0100
0002
0010
,
0023
0100
0230
1000
,
1300
0001
2002
0000
,
3003
0000
1000
0000
0010
0000
0100
0001
,
0100
0000
0000
0000
0001
0000
1000
0001
,
0000
0001
1000
0000
0010
0000
0100
0000
,
0110
0000
0000
0000
1000
0000
0001
1000
,
0000
1000
0001
0000
0010
0000
0100
0000
,
0110
0000
1100
0000
,
0011
0000
0101
0000
,
1010
0000
1000
1000
,
0001
0001
0100
0010
,
0110
0000
1001
0000
0000
0000
1000
0100
,
0000
1000
0100
0000
1000
0000
0001
0000
,
0010
0001
0000
0000
1000
0000
0100
0000
,
1000
0001
0010
0001
,
1000
0000
0100
0010
,
0100
1000
0100
0000
0010
0000
0001
0000
,
1000
0100
1000
0001
,
0010
0100
0010
0000
0000
0000
0001
0000
,
1001
0000
1000
0000
0001
0000
0100
0001
,
0000
1000
0010
0000
1000
0001
0100
0000
,
0001
0000
1000
0000
0010
0100
0010
0000
,
1000
0001
0100
0000
0010
0100
0010
0000
,
1000
0000
0001
0000
0100
0000
0010
1000
,
0000
0001
0100
0000
0001
1000
0010
0000
,
1000
0000
0001
0000
0100
0000
0010
0100
,
0010
1000
0000
0001
,
2002
3003
2000
0000
,
0100
0000
0100
0000
,
0001
0000
0001
0000
,
0010
0000
0010
0000
,
3001
0000
0002
0000
,
0100
0000
0100
0000
,
1000
0000
1000
0000
,
0010
0000
0010
0000
,
1003
0000
2000
0000
,
0010
0000
0010
0000
,
0001
0000
0001
0000
,
0100
0000
0100
0000
,
3001
0000
0002
0000
,
0010
0000
0010
0000
,
1000
0000
1000
0000
,
0103
0000
0000
0000
0001
1000
0001
0000
,
1000
0001
1000
0000
0020
0000
0000
0000
,
0000
0130
0002
0000
,
0000
0003
0020
0000
,
0000
0130
2000
0000
,
0000
3000
0002
0000
,
0000
0103
0020
0000
,
0000
0030
2000
0000
,
0000
3100
0010
0000
,
0110
0000
1000
0100
,
1000
0010
0100
0110
,
0010
1001
0001
0100
,
0001
0010
0100
0110
,
0010
1001
1000
0100
,
0010
0100
1000
1001
,
0010
0110
0001
0100
,
0010
0000
0100
0000
0001
1000
0001
0000
,
1000
0001
1000
0001
0020
0000
0000
0000
,
0030
0100
0020
0000
,
0030
0100
0220
0000
,
0000
0000
0330
0000
1000
0100
1000
0000
,
0001
0100
0001
0000
1000
0000
0010
0000
,
1010
0000
1000
0000
0001
0000
0010
0100
,
0010
0001
0100
0001
,
0101
0000
0010
0000
1000
0000
0001
1000
,
0001
0010
0200
1000
,
0320
0001
0230
1000
,
0320
0031
2002
0000
,
3003
0000
1000
0000
0010
0000
0100
0010
,
0100
0001
0011
1000
,
1100
0000
0001
0000
0100
0010
0100
0000
,
1001
0000
0101
1000
,
1010
0000
0001
0000
0100
0010
0100
0000
,
2002
0000
3003
0000
1000
0100
1000
0000
,
0001
0100
0001
0000
0010
0000
0110
0000
,
0100
0110
2002
0000
,
3003
0000
0001
0000
0100
0010
0100
0000
,
0010
1000
0001
0000
1000
0000
1100
0000
,
0011
0001
0101
1010
,
1000
0011
0101
0001
,
1010
1100
0010
1001
,
0110
0100
0110
1001
,
0010
1100
0101
0010
,
0101
1100
0010
1001
,
0110
0000
1001
0000
0110
0000
0010
0100
,
0010
0100
0010
0100
0000
0000
0000
0000
;

//--------------- dance-single - forcednature ----------------
#NOTEDATA:;
#STEPSTYPE:dance-single;
#DESCRIPTION:forcednature;
#DIFFICULTY:Hard;
#METER:14;
#RADARVALUES:0,0,0,0,0;
#CREDIT:forcednature;
#NOTES:
0000
0000
0000
0000
,
0000
0000
0000
0000
,
0000
0000
0000
0000
,
0000
0000
0000
0000
,
0000
0000
0000
0000
,
0000
0000
0000
0000
,
0000
0000
0000
0000
,
0000
0000
0000
0000
,
1000
0001
1000
0001
0100
0010
0100
0010
,
0100
0001
0002
0003
,
1000
2000
3000
0001
,
0200
0300
1000
0200
,
0300
0001
0020
0030
,
1000
0020
0030
0001
,
2000
3000
0010
0200
,
0300
0101
0011
1100
,
1010
0000
0010
0100
0010
0100
0010
0100
,
0000
0000
0000
0000
1001
0000
1000
0001
,
0010
0001
1000
0000
0100
1000
0010
1000
,
0100
0000
1000
0001
0010
0000
0001
1000
,
0010
1000
0001
0000
0100
0001
0010
0001
,
0100
0001
0011
0110
,
1100
0000
1001
0000
0001
0100
0010
0000
,
1000
0100
0010
0000
2002
0000
3003
0000
,
0001
0010
0100
1000
0100
0000
1000
0010
,
0100
0001
0100
0000
0010
1000
0100
1000
,
0000
0001
0010
0000
0100
0000
1100
0000
,
2020
0000
3030
0000
0001
0100
0010
0100
,
0000
0001
0010
0000
0001
1000
0010
0000
,
0220
0330
0102
0013
,
2100
0000
3010
0000
0001
0010
0100
0000
,
1000
0010
0100
0000
0102
0000
0100
0000
,
1000
0000
0013
0000
0001
1000
0100
1000
,
0001
0001
0010
0000
0100
1000
0100
0001
,
0000
0100
1000
0001
0010
0000
0001
1000
,
0100
0001
0000
0100
1000
0001
0010
1000
,
0010
0001
1000
0000
0100
0001
0100
1000
,
0001
0010
0001
0000
0010
1000
0010
0001
,
1000
0100
0000
1000
0001
0010
1000
0010
,
0001
1000
0000
0100
0001
0100
1000
0001
,
0010
0001
1000
0000
0100
0010
0100
0000
,
0110
0000
1001
0000
0001
0100
1000
0100
,
0000
0001
1000
0010
0001
0000
0010
1000
,
0001
0100
1000
0000
0100
0001
1000
0010
,
1000
0001
0100
0001
1000
0010
0001
0010
,
1000
0001
0100
0000
1000
0100
0001
0100
,
0010
1000
0001
0100
0001
1000
0010
0001
,
0010
1000
0001
0000
0100
1000
0100
0001
,
0000
1000
0010
0000
0100
0010
0100
0000
,
0110
0000
2001
0000
,
0100
0000
0001
0000
,
0010
0000
0001
0000
,
0100
0000
0001
0000
,
3010
0000
1002
0000
,
0100
0000
1000
0000
,
0010
0000
1000
0000
,
0100
0000
1000
0000
,
0013
0000
0210
0000
,
1000
0000
0010
0000
,
0001
0000
0010
0000
,
1000
0000
0010
0000
,
0301
0000
0120
0000
,
0001
0000
0100
0000
,
1000
0000
0100
0000
,
0031
0000
0000
0000
1000
0001
1000
0001
,
0100
0010
0100
0100
0002
0000
0000
0000
,
0000
0010
0023
0000
,
0000
0000
0130
1000
0002
0000
0000
0000
,
0000
0100
0203
0000
,
0310
1000
0010
0000
2000
0000
0000
0000
,
0000
0100
3200
0000
,
0000
0000
0310
0001
2000
0000
0000
0000
,
0000
0000
3020
0000
0130
0100
0001
0001
,
0100
0100
0010
0010
1000
0000
1000
0100
,
0001
0000
0001
0100
2000
0000
0010
0000
,
3002
0000
0013
0000
0001
0000
0001
0100
,
1000
0000
1000
0100
0002
0000
0010
0000
,
2003
0000
3010
0000
1000
0000
1000
0100
,
0001
0000
0001
0100
2000
0000
0010
0000
,
3002
0000
0013
0000
0001
0100
0010
0200
,
0000
0310
1000
0000
0001
0001
0010
0010
,
0100
0100
1000
1000
0001
0100
0010
0200
,
0000
0000
0301
0000
1000
0100
0010
0200
,
0000
0000
1300
0000
0010
0010
0100
0220
,
0000
0000
0330
0000
1000
1000
0001
0001
,
0100
0010
0100
0010
0110
0000
0100
0001
,
0010
0100
1000
0000
0100
0001
0100
1000
,
0001
0010
1000
0000
0110
0000
0100
1000
,
0010
0100
0001
0000
0100
1000
0100
0001
,
1000
0010
0001
0000
0011
0000
1010
0000
,
0110
0000
1001
0000
0001
0010
0100
1000
,
0010
0100
0001
0000
2000
0100
3100
0000
,
0001
0010
1000
0000
0010
0001
0100
0001
,
1000
0100
1000
0010
0100
0000
0100
1000
,
0100
0001
1000
0000
1010
0000
1100
0000
,
1002
0000
0013
0000
0100
0000
0100
0001
,
0100
1000
0001
0000
0010
0100
1000
0000
,
0021
0001
0031
0000
1000
0010
0001
0000
,
0010
1000
0100
0000
0010
0001
0100
1000
,
0100
0001
2010
3100
,
0001
0010
1000
0000
0010
0001
0100
0001
,
1000
1000
0010
0000
0110
0000
0001
0100
,
1000
0100
0001
0000
1000
0100
0001
0100
,
1000
0000
0001
0010
1000
0010
0001
0000
,
1000
0010
0001
0010
1000
0000
0100
0001
,
1000
0010
0001
0000
0100
1000
0001
0010
,
1000
0000
0100
0001
0100
1000
0010
0000
,
0100
1000
0100
0001
0010
0000
0001
1000
,
0010
0100
0001
1000
1001
0000
1000
0100
,
0001
0100
0010
0110
0000
0000
0000
0000
;

//--------------- dance-double - forcednature ----------------
#NOTEDATA:;
#STEPSTYPE:dance-double;
#DESCRIPTION:forcednature;
#DIFFICULTY:Easy;
#METER:8;
#RADARVALUES:0,0,0,0,0;
#CREDIT:forcednature;
#NOTES:
00000000
00000000
00000000
00000000
,
00000000
00000000
00000000
00000000
,
00000000
00000000
00000000
00000000
,
00000000
00000000
00000000
00000000
,
00000000
00000000
00000000
00000000
,
00000000
00000000
00000000
00000000
,
00000000
00000000
00000000
00000000
,
00000000
00000000
00000000
00000000
,
00000000
00000000
00000000
00000000
,
00000000
00001000
00001000
00000000
,
00010000
00010000
00000000
00001000
,
00010000
00000000
00010000
00001000
,
00000000
01000000
01000000
00000000
,
00010000
00010000
00000000
10000000
,
00100000
00000000
00100000
10000000
,
00000000
00010000
00010000
10000000
,
10000000
00010000
10000000
00010000
,
00000000
00000000
10010000
00000000
,
10000000
00000000
01000000
00100000
,
01000000
00000000
00100000
00000000
,
00010000
00000000
00100000
00010000
,
00100000
00000000
00001000
00000000
,
00001000
00000000
00010000
00000000
,
00001000
00000000
00022000
00000000
,
00033000
00000000
00010000
00000000
,
00001000
00000000
00010000
00000000
,
00000100
00000000
00001000
00000100
,
00001000
00000000
00000001
00000000
,
00000010
00000000
00000100
00000010
,
00000100
00000000
00001000
00000000
,
00001001
00000000
00000001
00000000
,
00001001
00000000
00000220
00000000
,
00000330
00000000
00000001
00000000
,
00001000
00000100
00000000
00010000
,
00000000
00010000
00000000
00010000
,
00010000
00010000
00000000
00001000
,
00000000
00001000
00000000
00001000
,
00001000
00001000
00000000
01000000
,
00000000
01000000
00000000
01000000
,
01000000
01000000
00000000
00010000
,
00010000
00010000
00000000
10000000
,
00010000
10000000
00000000
01000000
,
00000000
01000000
00000000
01000000
,
01000000
01000000
00000000
00010000
,
00000000
00010000
00000000
00010000
,
00010000
00010000
00000000
00001000
,
00000000
00001000
00000000
00001000
,
00001000
00001000
00000000
00010000
,
00010000
00010000
00000000
00001000
,
00010000
00000000
00000200
00000000
,
00000000
00000000
00001000
00000000
,
00001000
00000000
00010000
00000000
,
00010000
00000000
00001000
00000000
,
00000300
00000000
00020000
00000000
,
00000000
00000000
00001000
00000000
,
00001000
00000000
00000010
00000000
,
00000010
00000000
00001000
00000000
,
00030000
00000000
00002000
00000000
,
00000000
00000000
00010000
00000000
,
00010000
00000000
01000000
00000000
,
01000000
00000000
00010000
00000000
,
00003000
00000000
02000000
00000000
,
00000000
00000000
00010000
00000000
,
00010000
00000000
00001000
00000000
,
00001000
00000000
03010000
10000000
,
00010000
10000000
00020000
00000000
,
00030000
00000000
00200000
00000000
,
00000000
00300000
00002000
00000000
,
00003000
00000000
00020000
00000000
,
00000000
00030000
00000200
00000000
,
00000300
00000000
00002000
00000000
,
00000000
00003000
00000002
00000000
,
00000003
00000000
00000100
00000000
,
00000110
00000000
00000001
00000000
,
00000010
00000000
00000100
00000010
,
00000100
00000000
00001000
00000000
,
00000100
00000000
00010000
00001000
,
00010000
00000000
00001000
00000000
,
00100000
00000000
00010000
00100000
,
00010000
00000000
10000000
00000000
,
00100000
00000000
01000000
00100000
,
01000000
00000000
00010000
00010000
,
00000000
00000000
10000000
10000000
,
00000000
00000000
10010000
10010000
,
00000000
00000000
01000000
00000000
,
01100000
00000000
00010000
00000000
,
00100000
00000000
00001000
00010000
,
00001000
00010000
00001000
00000000
,
00010000
00000000
00000100
00001000
,
00000100
00001000
00000100
00000000
,
00000010
00000000
00000001
00000000
,
00001000
00000000
00002002
00000000
,
00003003
00000000
00001000
00000100
,
00001000
00000100
00010000
00000000
,
00001000
00000000
00010000
00001000
,
00011000
00000000
01000000
00000000
,
00010000
00000000
10000000
00010000
,
10010000
00000000
00010000
00000000
,
01000000
00000000
00001000
00010000
,
00001000
00010000
00022000
00000000
,
00033000
00000000
00001000
00010000
,
00000100
00001000
00000000
00000100
,
00000100
00000000
00001000
00001000
,
00000000
00000100
00010000
00000000
,
00001000
00100000
00000000
00010000
,
00010000
00000000
10000000
10000000
,
00000000
00100000
01000000
00000000
,
01000000
00100000
00000000
00010000
,
10000000
01000000
10000000
00100000
,
01000000
01100000
00000000
00000000
;

//--------------- dance-double - forcednature ----------------
#NOTEDATA:;
#STEPSTYPE:dance-double;
#DESCRIPTION:forcednature;
#DIFFICULTY:Medium;
#METER:11;
#RADARVALUES:0,0,0,0,0;
#CREDIT:forcednature;
#NOTES:
00000000
00000000
00000000
00000000
,
00000000
00000000
00000000
00000000
,
00000000
00000000
00000000
00000000
,
00000000
00000000
00000000
00000000
,
00000000
00000000
00000000
00000000
,
00000000
00000000
00000000
00000000
,
00000000
00000000
00000000
00000000
,
00000000
00000000
00000000
00000000
,
00000000
00000000
00000000
00000000
,
00011000
00001000
02000000
03000000
,
00010000
02000000
03000000
00100000
,
20000000
30000000
00010000
20000000
,
30000000
01000000
00020000
00030000
,
00001000
00020000
00030000
00001000
,
00000020
00000030
00000001
00000020
,
00000030
00000001
00000100
00001000
,
00010000
00000000
00001000
00010000
00001000
00010000
00001000
00010000
,
00000000
00000000
00011000
00001000
,
01000000
00000000
00010000
00000000
00100000
01000000
00100000
00000000
,
01000000
10000000
00010000
01000000
,
00010000
00000000
00100000
00000000
00001000
00010000
00001000
00000000
,
00010000
00000100
00002000
00000010
,
00003020
00010000
00020030
00001000
,
00032000
01003000
02020000
03030000
,
00010000
00000000
00100000
00000000
01000000
10000000
01000000
00000000
,
00100000
00010000
00100000
00000000
00001000
00000000
00010000
00001000
,
00000000
00001000
00010000
00000000
00000100
00000000
00001000
00000000
,
00001001
00000000
00000000
00000000
00000001
00000000
00000100
00000010
,
00000000
00000010
00000100
00000000
00000001
00000000
00001000
00000000
,
00000100
00001000
00000100
00000000
00020200
00000000
00030300
00000000
,
00202000
00303000
00020020
00030030
,
02002000
03003000
00001000
00001000
,
00010000
00000000
00010000
00000000
00001000
00010000
00001000
00000000
,
02000000
03020000
10030000
01000000
,
00100000
00010000
01000000
00100000
,
00010000
00000000
00001000
00000000
00100000
00010000
00100000
00000000
,
00001000
00010000
00001000
00000000
01000000
00010000
01000000
00000000
,
00001000
00001000
00100000
00010000
,
00001000
00000100
00010000
00001000
,
00000100
00000000
00000010
00000000
00001000
00000100
00001000
00000000
,
00000001
00000100
00000001
00000000
00000020
00000000
00000100
00000000
,
00000130
00001001
00000001
00000100
,
00000010
00001000
00000100
00000010
,
00001000
00000000
00010000
00000000
00000010
00001000
00000010
00000000
,
00010000
00001000
00010000
00000000
00000100
00001000
00000100
00000000
,
00010000
00010000
00000010
00001000
,
00010000
01000000
00001000
00010000
,
01000000
00000000
00100000
00000000
00010000
01000000
00010000
00000000
,
10000000
01000000
10000000
00000000
00010000
00000000
00100000
00000000
,
00001000
00000000
00012000
00000000
,
01000000
00000000
00010000
00000000
,
00100000
00000000
00010000
00000000
,
01000000
00000000
00010000
00000000
,
00103000
00000000
00021000
00000000
,
00000100
00000000
00001000
00000000
,
00000010
00000000
00001000
00000000
,
00000100
00000000
00001000
00000000
,
00030010
00000000
00012000
00000000
,
01000000
00000000
00010000
00000000
,
00100000
00000000
00010000
00000000
,
01000000
00000000
00010000
00000000
,
00103000
00000000
00021000
00000000
,
00000100
00000000
00001000
00000000
,
00000010
00000000
00001000
00000000
,
00030100
00000000
00000000
00000000
00010000
00001000
00010000
00001000
,
00100000
00010000
00100000
00000000
01000000
00000000
00000000
01000000
,
00000000
00000000
10000000
00000000
00010000
00000000
00000000
00220000
,
00000000
00000000
00330000
00000000
00001000
00000000
00000000
00001000
,
00000000
00000000
00010000
00000000
00000010
00000000
00000000
00002020
,
00000000
00000000
00003030
00000000
00000001
00000000
00000000
00001000
,
00000000
00000000
00000001
00000000
00000100
00000000
00000000
00000220
,
00000000
00000000
00000330
00000000
00000010
00000000
00000000
00000010
,
00000000
00001000
00002200
00003300
,
00022000
00033000
00100000
00010000
,
01000000
00010000
00110000
00110000
,
11000000
11000000
00010000
01000000
,
00001000
00010000
00011000
00011000
,
00010100
00010100
00000100
00001000
,
00000010
00000100
00000110
00000110
,
00001001
00001001
00001000
00000100
,
00010000
00000000
00001000
00000000
00100000
00010000
00100000
00010000
,
00100000
01000000
00100000
00000000
02200000
00000000
00000000
00000000
,
03300000
00000000
00022000
00000000
,
00033000
00000000
00000220
00000000
,
00000330
00000000
00000000
00000000
00000001
00001000
00000001
00001000
,
00000010
00000100
00000010
00000000
00001000
00000000
00000001
00000000
,
00000010
00000000
00000100
00000000
00001000
00000100
00010000
00000000
,
00001000
00100000
00010000
00100000
,
00001000
00000000
00010000
00000000
00001000
01000000
00010000
00000000
,
10000000
01000000
00200000
00001000
,
00302000
00010000
00023000
00000100
,
00030200
00001300
00002002
00003003
,
00000001
00000000
00000100
00000000
00000010
00001000
00000010
00000000
,
00000100
00000001
00000100
00000000
00000010
00000000
00001000
00000000
,
00000100
00000010
00001000
00010000
,
00011000
00000000
00100000
00010000
,
01000000
00100000
00010000
00001000
,
00022000
00000000
00033000
00000000
00010000
00000100
00010000
00000000
,
00001000
00010000
00001000
00000000
00100000
00000000
00010000
00000000
,
01000000
00100000
20020000
30030000
,
10000000
00000000
01000000
00000000
00100000
00010000
00100000
00000000
,
00001000
00010000
00001000
00000000
00011000
00000000
00000100
00001000
,
00000100
00000000
00010000
00000000
00001000
00100000
00010000
00000000
,
00100000
00000000
00001000
00010000
00001000
00000000
01000000
00000000
,
00010000
10000000
00100000
00000000
01000000
00000000
00010000
10000000
,
00010000
00000000
00100000
00000000
00001000
00010000
00000100
00000000
,
00001000
00000000
00000001
00000010
00000001
00000000
00000100
00000000
,
00000010
00001000
00000001
00000000
00000200
00000000
00002300
00000000
,
00023000
00000000
00230000
00000000
01300000
00000000
00010000
10000000
,
00010000
10000000
00010000
10000000
00000000
00000000
00000000
00000000
;

//--------------- dance-double - forcednature ----------------
#NOTEDATA:;
#STEPSTYPE:dance-double;
#DESCRIPTION:forcednature;
#DIFFICULTY:Hard;
#METER:14;
#RADARVALUES:0,0,0,0,0;
#CREDIT:forcednature;
#NOTES:
00000000
00000000
00000000
00000000
,
00000000
00000000
00000000
00000000
,
00000000
00000000
00000000
00000000
,
00000000
00000000
00000000
00000000
,
00000000
00000000
00000000
00000000
,
00000000
00000000
00000000
00000000
,
00000000
00000000
00000000
00000000
,
00000000
00000000
00000000
00000000
,
00001000
00010000
00001000
00010000
00000100
00001000
00000100
00000010
,
00000001
00001000
00002000
00003000
,
00000100
00000200
00000300
00010000
,
00002000
00003000
00001000
00020000
,
00030000
00100000
00200000
00300000
,
10000000
20000000
30000000
01000000
,
00200000
00300000
00100000
02000000
,
03000000
01100000
00110000
00101000
,
00011000
00000000
00001000
00010000
00001000
00010000
00001000
00010000
,
00000000
00000000
00000000
00000000
00011000
00000000
00010000
00000100
,
00001000
00000100
00000010
00000000
00000100
00001000
00000001
00001000
,
00000100
00000000
00010000
00001000
00100000
00000000
00001000
00010000
,
00000010
00010000
00001000
00000000
01000000
00010000
10000000
00100000
,
10000000
01000000
01100000
00110000
,
00101000
00000000
00011000
00000000
00010000
00000100
00001000
00000000
,
00000100
00000010
00000100
00000000
00000220
00000000
00000330
00000000
,
00000010
00000001
00001000
00000001
00000100
00000000
00000010
00001000
,
00000001
00000100
00000010
00000000
00001000
00000100
00010000
00001000
,
00000000
00100000
00010000
00000000
01000000
00000000
01100000
00000000
,
20020000
00000000
30030000
00000000
00010000
01000000
00001000
00010000
,
00000000
00000010
00001000
00000000
00000001
00001000
00000100
00000000
,
00000220
00000330
00020100
00031000
,
00102000
00000000
00013000
00000000
00001000
00010000
00001000
00000000
,
01000000
00010000
10000000
00000000
20010000
00000000
00010000
00000000
,
00100000
00000000
30100000
00000000
10000000
01000000
10000000
01000000
,
00100000
00100000
00010000
00000000
10000000
01000000
00010000
01000000
,
00000000
00010000
00001000
00100000
00001000
00000000
00010000
00000100
,
00001000
00000100
00000000
00000001
00000100
00001000
00000100
00010000
,
00001000
00100000
00001000
00010000
01000000
00100000
01000000
00010000
,
00001000
00100000
00010000
00100000
00001000
00000000
00010000
00000100
,
00001000
00000001
00000000
00000010
00001000
00000010
00000001
00001000
,
00000100
00000001
00000000
00000100
00001000
00000100
00010000
00001000
,
00100000
00001000
00010000
00000000
01000000
00100000
01000000
00100000
,
01000000
00000000
10010000
00000000
00010000
01000000
10000000
01000000
,
00000000
00010000
10000000
00100000
00010000
00000000
00001000
00010000
,
00001000
00000100
00000000
00000001
00001000
00000010
00000001
00000010
,
00001000
00000001
00000100
00001000
00010000
00000010
00001000
00000010
,
00010000
00001000
01000000
00001000
00010000
00000000
00100000
10000000
,
00010000
10000000
00100000
00010000
00001000
01000000
00010000
01000000
,
00001000
00010000
00000010
00001000
00000001
00000100
00001000
00010000
,
00001000
00000100
00000001
00000000
00000100
00000010
00000100
00000010
,
00001000
00000000
00002001
00000000
,
00000100
00000000
00000001
00000000
,
00000010
00000000
00000001
00000000
,
00000100
00000000
00000001
00000000
,
00000010
00000000
00023000
00000000
,
01000000
00000000
10000000
00000000
,
00100000
00000000
10000000
00000000
,
01000000
00000000
10000000
00000000
,
00100000
00000000
00032000
00000000
,
00000100
00000000
00000001
00000000
,
00000010
00000000
00000001
00000000
,
00000100
00000000
00000001
00000000
,
00000010
00000000
00023000
00000000
,
01000000
00000000
10000000
00000000
,
00100000
00000000
10000000
00000000
,
01000000
00000000
00000000
00030000
10000000
00010000
10000000
00010000
,
00100000
00001000
00010000
00000100
00002000
00000000
00000000
00000000
,
00000000
00000001
00003002
00000000
,
00000000
00000000
00000103
00000010
00002000
00000000
00000000
00000000
,
00000000
00000100
00003200
00000000
,
00010300
00001000
00010000
00000000
00002000
00000000
00000000
00000000
,
00000000
01000000
02003000
00000000
,
00000000
00000000
03010000
10000000
00200000
00000000
00000000
00000000
,
00000000
00000000
00300000
00000000
10000000
00010000
10000000
00010000
,
01000000
00100000
01000000
00100000
10000000
00000000
00010000
01000000
,
10000000
00000000
10000000
01000000
00020000
00000000
00230000
00000000
,
00302000
00000000
00003020
00000000
00000031
00000000
00001000
00000100
,
00000001
00000000
00000001
00000100
00002000
00000000
00003020
00000000
,
00020030
00000000
00230000
00000000
10300000
00000000
00010000
01000000
,
10000000
00000000
10000000
01000000
00020000
00000000
00230000
00000000
,
00302000
00000000
00003020
00000000
00000031
00000000
00001000
00000100
,
00000001
00000000
00000100
00000000
00001000
00000010
00010000
00001000
,
01000000
00010000
10000000
00100000
10000000
01000000
00100000
02000000
,
00000000
00000000
03000000
00000000
00100000
00001000
00010000
00002000
,
00000000
00000000
00003000
00000000
00000100
00000010
00000100
00000020
,
00000000
00000000
00000030
00000000
00001000
00000001
00001000
00000001
,
00000010
00000100
00000010
00000100
00001000
00000000
00000010
00001000
,
00000010
00010000
00001000
00000000
00100000
00010000
00100000
00001000
,
00010000
00000000
01000000
10000000
00010000
00000000
00100000
01000000
,
00010000
00001000
00100000
00000000
00001000
00010000
00000100
00010000
,
00001000
00000010
00000011
00000101
,
00000110
00000000
00001010
00000000
00001000
00000001
00000100
00001000
,
00010000
00001000
00010000
00000000
00100000
10000000
01000000
00000000
,
00100000
00010000
01000000
00000000
00100000
10000000
00010000
10000000
,
01000000
00010000
00001000
00000000
00110000
00000000
00100000
00001000
,
00010000
00000100
00001000
00000010
00000100
00000000
00001000
00000000
,
00022000
00000000
00033000
00000000
00001010
00000000
00000010
00010000
,
00001000
01000000
00010000
00100000
01000000
00000000
00010000
00000000
,
00022000
00000000
00033000
00000000
00001000
00000010
00000001
00000000
,
00000010
00001000
00010000
00000000
00001000
00100000
00010000
00100000
,
00001000
00010000
00012000
01003000
,
00001000
00010000
00100000
00000000
01000000
00010000
10000000
00100000
,
01000000
01000000
00010000
00000000
10010000
00000000
10000000
01000000
,
00010000
01000000
10000000
00000000
01000000
00010000
00001000
00010000
,
01000000
00000000
00010000
00001000
00000010
00001000
00010000
00000000
,
00001000
00000010
00000001
00000000
00001001
00000000
00000001
00000100
,
00001000
00000100
00000001
00000000
00000100
00001000
00010000
00001000
,
00000100
00000000
00001000
00010000
00100000
00010000
00001000
00000000
,
00010000
00100000
10000000
00100000
00010000
00000000
00100000
10000000
,
01000000
10000000
00100000
10000000
01000000
00010000
00001000
00001000
,
00010000
00010000
00001000
00011000
00000000
00000000
00000000
00000000
;
