#TITLE:Dinosaur Laser Fight;
#SUBTITLE:;
#ARTIST:Ninja Sex Party;
#TITLETRANSLIT:;
#SUBTITLETRANSLIT:;
#ARTISTTRANSLIT:;
#GENRE:;
#CREDIT:;
#MUSIC:Dinosaur Laser Fight.ogg;
#BANNER:Dinosaur Laser Fight.png;
#BACKGROUND:Dinosaur Laser Fight-bg.png;
#CDTITLE:;
#SAMPLESTART:60.800;
#SAMPLELENGTH:10.000;
#SELECTABLE:YES;
#OFFSET:0.000;
#BPMS:0.000=150.000
,102.000=300.000
,126.000=150.000
,191.000=75.000
,199.000=150.000
,277.000=300.000
;
#STOPS:4.000=0.800
,126.000=0.800
,157.500=0.400
;
#DISPLAYBPM:150.000;
#BGCHANGES:0.000=Dinosaur Laser Fight.avi=1.000=1=0=0=StretchNoLoop==CrossFade==;
#FGCHANGES:;

//--------------- dance-single - KAYSTAR ----------------
#NOTES:
     dance-single:
     KAYSTAR:
     Beginner:
     3:
     0,0,0,0,0:
0000
0000
0000
0000
,
0000
0000
1000
0000
,
1000
0000
0000
0100
,
0100
0000
0001
0000
,
0001
0000
0000
0100
,
0100
0000
1000
0000
,
1000
0000
0010
0000
,
0010
0000
0100
0000
,
0001
0001
0000
0000
,
0000
0000
1000
0000
,
1000
0000
0000
0010
,
0010
0000
0001
0000
,
0001
0000
0000
0010
,
0010
0000
1000
0000
,
1000
0000
0100
0000
,
0100
0000
0010
0000
,
0010
0000
0000
0001
,
0001
0000
0000
0100
,
0100
0000
0000
0010
,
0010
0000
0000
1000
,
0000
1000
0000
0001
,
0000
0001
0000
0010
,
0010
0000
0000
0100
,
0100
0000
2000
0000
,
3000
0000
0002
0000
,
0003
0000
0000
0000
,
0000
0000
0000
0000
,
0000
0000
0000
0000
,
0000
0000
0000
0000
,
0000
0000
0000
0000
,
0000
0000
0000
0000
,
0000
0000
0000
0000
,
1000
0000
0010
0010
,
0000
1000
1000
0000
,
0001
0000
0010
0010
,
0000
0001
0001
0000
,
0100
0000
0100
0000
,
0010
0000
0010
0000
,
1000
0000
1000
0000
,
0100
0100
0000
0000
,
1000
1000
0000
0000
,
0001
0001
0000
0100
,
0000
0100
0000
0010
,
0000
0010
0000
0000
,
1000
1000
0000
0000
,
0001
0001
0000
0010
,
0000
0010
0000
0100
,
0000
0100
0000
2000
,
0000
3000
0000
0020
,
0000
0030
0000
0200
,
0000
0300
0000
0001
,
0000
0001
0000
0020
,
0000
0030
0000
0200
,
0000
0300
0000
1000
,
0000
1000
0000
0000
,
0100
0100
0000
0010
,
0000
0010
0000
0000
,
0001
0001
0000
0100
,
0000
0100
0000
0000
,
0010
0010
0000
2000
,
0000
0000
3000
0000
,
0100
0100
0000
1000
,
0000
0010
0000
0100
,
0000
0001
0001
0000
,
0000
0010
0000
0100
,
0000
1000
1000
0000
,
0010
0010
0000
0100
,
0000
0001
0001
0000
,
0010
0010
0000
0002
,
0000
0000
0000
0000
,
0000
0003
0000
0000
;

//--------------- dance-single - KAYSTAR ----------------
#NOTES:
     dance-single:
     KAYSTAR:
     Easy:
     6:
     0,0,0,0,0:
0000
0000
0000
0000
,
0000
0000
1000
0001
,
1000
0100
0000
0001
,
0001
0000
0100
1000
,
0001
0100
0000
1000
,
1000
0000
0100
0010
,
1000
0000
0100
0010
,
0001
0000
0100
0010
,
0100
0110
0000
0000
,
0000
0000
0001
1000
,
0100
0001
0000
0100
,
1000
0010
1000
0001
,
0100
1000
0000
0100
,
0010
1000
0001
0010
,
0100
0000
1000
0010
,
0100
0000
1000
0100
,
0001
0000
0010
0010
,
0010
0000
0001
0100
,
0010
1000
0001
0010
,
0100
1000
0010
0000
,
0100
0001
0100
0000
,
0010
0000
1000
0100
,
0010
0001
1000
0010
,
0100
0001
0010
0000
,
0110
0000
0100
1000
,
0001
0000
0000
0000
,
0000
0000
0000
0000
,
0000
0000
0000
0000
,
0000
0000
0000
0000
,
0000
0000
0000
0000
,
0000
0000
0000
0000
,
0000
0000
0000
0000
,
1000
0001
0010
0100
,
0000
0100
0010
0001
,
0000
1000
0010
0100
,
0000
0100
0010
1000
,
0000
0001
0010
0100
,
0000
0100
1000
0001
,
0000
0001
0100
0010
,
0000
0000
0000
1000
,
0100
0010
0001
0100
,
1000
0100
0010
1000
,
0000
0100
0100
1000
,
0000
0001
0000
0010
,
0001
0100
0010
1000
,
0100
0001
0100
1000
,
0000
0010
0010
0100
,
0000
0001
0000
0020
,
0000
0000
0100
0230
,
0000
0000
0000
1300
,
0000
1000
0000
0001
,
0000
0001
0000
0100
,
0000
0110
0000
0010
,
1000
0100
0010
0002
,
0000
0003
0000
0100
,
0001
0010
0100
2000
,
0000
3000
0000
0010
,
1000
0001
0010
0200
,
0000
0300
0000
1000
,
0100
0001
0100
1000
,
0000
0000
0000
0000
,
0010
0010
0010
0000
,
0100
0001
0010
0100
,
1000
0010
0010
0000
,
1000
0100
0010
0001
,
0100
1000
0100
0001
,
0000
1000
0010
1000
,
0100
0001
0100
1000
,
0000
0001
0010
0001
,
0100
0000
0000
0000
;

//--------------- dance-single - KAYSTAR ----------------
#NOTES:
     dance-single:
     KAYSTAR:
     Medium:
     9:
     0,0,0,0,0:
0000
0000
0000
0000
,
0000
0000
0000
0000
1000
0000
1000
0100
,
0000
0100
0010
0000
0001
0000
0100
0000
,
0001
1000
0001
0000
0100
0000
0100
0010
,
0000
0010
1000
0000
0100
0000
1000
0000
,
0001
1000
0001
0000
0200
0000
0010
0000
,
0301
1000
0200
0010
,
1300
0000
0001
1000
0001
0000
0100
0010
,
0000
0010
1000
0000
0000
0000
0100
0000
,
0010
0001
2000
0100
,
0001
0000
3010
0000
0000
0100
0001
0100
,
0001
1001
0002
0100
,
1000
0000
0013
0000
0000
0100
1000
0100
,
1000
0010
0200
0001
,
0310
0000
1000
0010
2000
0000
0100
0000
,
3001
0000
0010
0001
0020
0000
0100
0000
,
0031
0000
1000
0100
1000
0000
0010
0000
,
0010
0000
2001
0100
,
3002
0010
0203
0010
,
0302
0000
0010
0000
1003
0000
0100
1000
,
0100
0000
1001
0000
1000
0001
0100
0001
,
0000
0010
0000
1002
0000
0000
0100
0000
,
2003
0010
3200
0010
,
2300
0000
0010
0000
3001
0000
1000
0100
,
0010
0100
1000
0000
0001
0100
0001
2000
,
0000
3020
0000
0130
0000
0000
0000
0000
,
0000
0000
0000
0000
,
0000
0000
0000
0000
,
0000
0000
0000
0000
,
0000
0000
0000
0000
,
0000
0000
0000
0000
,
0000
0000
0000
0000
,
0001
1000
0002
0000
0010
0000
0103
0000
,
0001
0000
0010
0100
0010
0000
0100
0000
,
1000
0001
2000
0000
0010
0000
3100
0000
,
1000
0000
0010
0100
0010
0000
0100
0001
,
0200
0000
0010
0000
0301
0000
1000
0100
,
2000
0000
0001
0000
3100
0000
1000
0100
,
0020
1000
0100
0031
,
0000
0000
0000
2001
,
0100
3002
0100
0023
,
1000
0032
0100
1003
,
0010
1000
0010
0000
1001
0000
1000
0100
,
1000
0001
0000
0010
0000
1002
0000
0000
,
0100
2003
0100
3020
,
0001
2030
0100
3001
,
0100
0010
1000
0010
0100
0000
0001
1000
,
0100
1000
0000
0010
0000
2001
0000
0000
,
0000
0000
0010
3020
,
0000
0000
0100
0130
,
0001
1000
0100
0001
,
0100
1000
0010
0100
,
0001
0100
0010
0100
0001
0000
1000
0000
,
0001
0010
0100
0010
0001
0000
1000
0000
,
1000
0010
0000
0010
0100
0000
0001
0000
,
0100
0010
0100
0000
0001
0000
0010
0000
,
0010
0100
0000
0100
1000
0000
0010
0000
,
0100
0001
0100
0000
0010
0000
1000
0000
,
1000
0001
0000
0001
0010
0000
0001
0000
,
2000
3200
0320
0032
,
0003
0000
0000
0000
,
1000
0010
1000
0000
0001
0000
0102
0000
,
1000
0000
0013
0000
1001
0000
1000
0100
,
1000
0000
0010
0100
0001
0000
2010
0000
,
0001
0000
3100
0000
1001
0000
0001
0010
,
0200
0001
0010
1300
,
0001
0000
0010
0001
0100
0000
0010
0000
,
0200
1000
0010
0301
,
1000
0000
0010
1000
0100
0000
1000
0001
,
1000
0001
0000
0000
0000
0000
0000
0000
;

//--------------- dance-single - KAYSTAR ----------------
#NOTES:
     dance-single:
     KAYSTAR:
     Hard:
     12:
     0,0,0,0,0:
0000
0000
0000
0000
,
0000
0000
0000
0000
1200
0000
0310
0200
,
0000
0301
0100
0000
1000
0001
0100
0010
,
1000
0100
0010
0001
0200
0000
0310
0200
,
0000
1300
0100
0000
0001
0010
0100
1000
,
0001
0100
0010
0100
0002
0000
0013
0002
,
0000
0103
0010
1000
2000
0000
3100
2000
,
0000
3010
0100
0001
0020
0000
1030
0020
,
0000
0130
MMMM
0000
0000
1000
0010
0100
,
0001
0010
0001
0001
1000
0100
0001
0100
,
1000
0000
1100
0000
1000
0001
0010
1000
,
0010
0001
0100
0010
1000
0001
0100
1000
,
0100
0000
0101
0000
1000
0010
0001
0010
,
1000
0100
0010
0001
0200
0000
1300
0200
,
0000
0301
0100
0010
2000
0000
3100
2000
,
0000
3010
1000
0100
0020
0000
1030
0020
,
0000
0031
0010
0001
0100
0000
MMMM
0000
,
MMMM
0000
1000
1200
,
0301
0100
1000
0000
0010
0000
0201
0000
,
1300
0100
0001
0001
0100
0000
0010
1000
,
0100
1000
0001
0000
0010
1000
0010
0001
,
0100
0001
1000
1000
0100
0000
0021
0000
,
1030
0010
0001
0000
0100
0000
1020
0000
,
0031
0010
1000
1000
0100
0000
1000
0010
,
0110
0100
0001
0000
0010
1000
0010
0001
,
0100
0010
0000
MMMM
0000
0000
0000
0000
,
0000
0000
0000
0000
,
0000
MMMM
MMMM
MMMM
MMMM
MMMM
MMMM
0000
,
0000
0000
0000
0000
0000
0000
0000
MMMM
,
0000
MMMM
0000
0000
0000
0000
0000
MMMM
0000
0000
MMMM
0000
0000
0000
0000
0000
,
0000
0000
0000
MMMM
MMMM
MMMM
MMMM
0000
,
0000
0000
0000
0000
,
1000
0010
1000
0100
1100
0000
0101
0000
,
0100
1000
0100
0001
0010
0100
1000
1000
,
0001
0010
0001
0100
0101
0000
1100
0000
,
0100
0001
0100
1000
0001
0100
0010
1000
,
0200
0000
0301
0200
0000
1300
0001
0100
,
0200
0000
1300
0200
0000
0301
1000
0100
,
0020
0000
1030
0020
0000
0031
0100
0010
,
1000
0001
1000
0001
0000
0000
1000
0100
,
1000
0010
0001
0010
1000
0000
0001
0100
,
0001
0010
1000
0010
0001
0001
1000
0000
,
0010
1000
0100
0000
1001
0000
0001
0010
,
0001
0200
0000
1300
0100
0100
0001
1000
,
0100
0001
1000
0010
0001
0000
0001
1000
,
0010
0001
1000
0100
0001
0001
1000
0000
,
0010
0100
0101
0001
1000
0000
0100
0001
,
0100
1000
0010
0100
0001
1000
0200
0000
,
0000
2300
0001
3020
,
0000
0230
0001
0310
,
1001
0000
1000
0001
0010
0000
0001
1000
,
0100
0020
0000
1030
0010
0001
0100
0000
,
0010
1000
1001
0001
0100
0000
1000
0100
,
0001
0010
0100
0001
0100
1000
0002
0000
,
0013
0002
0000
0103
0101
0000
1000
0001
,
0010
1000
0010
0001
0100
0010
2000
0000
,
3100
2000
0000
3010
1010
0000
0001
1000
,
0010
0001
0010
0100
0001
1000
0200
0000
,
0301
0200
0000
0310
0110
0000
1001
0000
,
0001
1000
0010
0001
1000
0100
0001
0000
,
0000
0000
MMMM
MMMM
0000
MMMM
0000
0001
,
0010
0001
1000
0010
1000
1000
0001
0010
,
0100
0010
0001
0100
1000
0001
1000
0100
,
0001
1000
0010
0100
0001
0001
1000
0100
,
0010
0100
1000
0010
0001
1000
0001
0010
,
1000
0000
0001
0100
1000
0010
0001
0000
,
0100
0100
0001
1000
0010
1000
0100
0100
,
1000
0000
0001
0010
1000
0100
0001
0000
,
0100
0100
0001
1000
0010
1000
0100
0100
,
1000
0001
0000
0000
0000
0000
0000
0000
,
0000
MMMM
0000
0000
;
