#VERSION:0.83;
#TITLE:Coca Cola;
#SUBTITLE:;
#ARTIST:ctrl + me;
#TITLETRANSLIT:;
#SUBTITLETRANSLIT:;
#ARTISTTRANSLIT:;
#GENRE:;
#ORIGIN:;
#CREDIT:;
#BANNER:Coca Cola-bn.png;
#BACKGROUND:Coca Cola-bg.png;
#PREVIEWVID:;
#JACKET:Coca Cola-jk.png;
#CDIMAGE:;
#DISCIMAGE:;
#LYRICSPATH:;
#CDTITLE:;
#MUSIC:Coca Cola.ogg;
#OFFSET:0.000000;
#SAMPLESTART:29.542877;
#SAMPLELENGTH:16.600000;
#SELECTABLE:YES;
#BPMS:0.000=130.000;
#STOPS:;
#DELAYS:;
#WARPS:;
#TIMESIGNATURES:0.000=4=4;
#TICKCOUNTS:0.000=4;
#COMBOS:0.000=1;
#SPEEDS:0.000=1.000=0.000=0;
#SCROLLS:0.000=1.000;
#FAKES:;
#LABELS:0.000=Song Start;
#BGCHANGES:;
#KEYSOUNDS:;
#ATTACKS:
;

//---------------dance-single - ----------------
#NOTEDATA:;
#CHARTNAME:;
#STEPSTYPE:dance-single;
#DESCRIPTION:;
#CHARTSTYLE:;
#DIFFICULTY:Beginner;
#METER:3;
#RADARVALUES:0.098597,0.132253,0.000000,0.075844,0.000000,91.000000,91.000000,0.000000,10.000000,0.000000,0.000000,0.000000,0.000000,0.000000,0.098597,0.132253,0.000000,0.075844,0.000000,91.000000,91.000000,0.000000,10.000000,0.000000,0.000000,0.000000,0.000000,0.000000;
#CREDIT:Embrace;
#NOTES:
// measure 0
0000
0000
0000
0000
,  // measure 1
0000
0000
0000
0000
,  // measure 2
0000
0000
0000
0000
,  // measure 3
0000
0000
0000
0000
,  // measure 4
1000
0000
0000
0000
,  // measure 5
0000
0000
0000
0000
,  // measure 6
0001
0000
0000
0000
,  // measure 7
0000
0000
0000
0000
,  // measure 8
1000
0000
0000
0000
,  // measure 9
0010
0000
0100
0000
,  // measure 10
0010
0000
0000
0000
,  // measure 11
1000
0000
0001
0000
,  // measure 12
1000
0000
0000
0000
,  // measure 13
0001
0000
0010
0000
,  // measure 14
0100
0000
0000
0000
,  // measure 15
0010
0000
0001
0000
,  // measure 16
1000
0000
0000
0000
,  // measure 17
0001
0000
0000
0000
,  // measure 18
1000
1000
0000
0000
,  // measure 19
0001
0000
0000
0000
,  // measure 20
0100
0000
0010
0000
,  // measure 21
0100
0000
0000
0000
,  // measure 22
0001
0000
1000
0000
,  // measure 23
0001
0000
0000
0000
,  // measure 24
0010
0010
0000
0000
,  // measure 25
0001
0000
1000
0000
,  // measure 26
0200
0000
0300
0000
,  // measure 27
0010
0000
0001
0000
,  // measure 28
2000
0000
3000
0000
,  // measure 29
0010
0000
0100
0000
,  // measure 30
0002
0000
0003
0000
,  // measure 31
0000
0000
0000
0000
,  // measure 32
0000
0000
0000
0000
,  // measure 33
0000
0000
0000
0000
,  // measure 34
1000
0000
0000
0000
,  // measure 35
0001
0000
0010
0000
,  // measure 36
0100
0000
0000
0000
,  // measure 37
1000
0000
0001
0000
,  // measure 38
0100
0000
0000
0000
,  // measure 39
0010
0000
1000
0000
,  // measure 40
0001
0000
0000
0000
,  // measure 41
0010
0000
0001
0000
,  // measure 42
0200
0000
0300
0000
,  // measure 43
0010
0000
1000
0000
,  // measure 44
0002
0000
0003
0000
,  // measure 45
1000
0000
0100
0000
,  // measure 46
0020
0000
0030
0000
,  // measure 47
0100
0000
1000
0000
,  // measure 48
0002
0000
0003
0000
,  // measure 49
0100
0000
0010
0000
,  // measure 50
1000
0000
1000
0000
,  // measure 51
0001
0000
0100
0000
,  // measure 52
0001
0000
0001
0000
,  // measure 53
1000
0000
0010
0000
,  // measure 54
1000
0000
1000
0000
,  // measure 55
0001
0000
0010
0000
,  // measure 56
0001
0000
0001
0000
,  // measure 57
2000
0000
3000
0000
,  // measure 58
0001
0000
0000
0000
,  // measure 59
1000
0000
0000
0000
,  // measure 60
0010
0000
0000
0000
,  // measure 61
0100
0000
0000
0000
,  // measure 62
0001
0000
0010
0000
,  // measure 63
0001
0000
0010
0000
,  // measure 64
0100
0000
1000
0000
,  // measure 65
0001
0000
0100
0000
,  // measure 66
0020
0000
0000
0000
,  // measure 67
0030
0000
0000
0000
,  // measure 68
0200
0000
0000
0000
,  // measure 69
0300
0000
0001
0001
;

//---------------dance-single - ----------------
#NOTEDATA:;
#CHARTNAME:;
#STEPSTYPE:dance-single;
#DESCRIPTION:;
#CHARTSTYLE:;
#DIFFICULTY:Easy;
#METER:5;
#RADARVALUES:0.195027,0.238481,0.098597,0.204778,0.000000,180.000000,167.000000,13.000000,27.000000,0.000000,0.000000,0.000000,0.000000,0.000000,0.195027,0.238481,0.098597,0.204778,0.000000,180.000000,167.000000,13.000000,27.000000,0.000000,0.000000,0.000000,0.000000,0.000000;
#CREDIT:Embrace;
#NOTES:
0000
0000
0000
0000
,
0000
0000
0000
0000
,
0000
0000
0000
0000
,
0000
0000
0000
0000
,
2000
3010
0000
0100
,
0000
0001
1000
0001
,
0000
0010
0000
0100
,
0000
2000
0002
3003
,
1001
0001
0100
0001
,
0000
2000
0200
3300
,
0010
0001
1000
0010
,
0000
0200
0002
0303
,
1000
0001
0010
0100
,
1000
0002
0020
0033
,
0100
1000
0010
0100
,
0000
0000
0000
0000
,
0002
0003
1000
1000
,
0001
1000
0200
0300
,
0010
0010
0010
0000
0001
0000
0000
0000
,
1000
0010
0100
0000
,
0001
0000
1100
0000
,
1010
0000
0001
0010
,
0100
0000
0101
0000
,
0011
0000
0010
0100
,
2000
3000
0001
0000
,
1000
0010
0200
0300
,
0002
0000
1003
0000
,
0020
0000
0100
0000
,
2030
0000
3001
0000
,
0020
0000
0100
0000
,
0032
0000
1003
0000
,
0020
0000
0030
0000
,
2000
0000
0000
3000
,
0001
0000
0010
0000
,
0002
0000
1003
0000
,
0010
0100
0010
0000
,
2000
0000
3001
0000
,
0010
0100
1000
0000
,
0002
0000
1003
0000
,
0010
0100
0001
0000
,
2000
0000
3100
0000
,
0010
0001
0100
0000
,
0010
1000
0001
0001
,
0000
0010
0100
0000
,
1000
0001
0100
0100
,
0000
0010
1000
0000
,
0001
0010
0100
1000
,
0000
0001
0001
0000
,
1000
0010
0100
0001
,
0000
1000
1000
0000
,
0011
0000
0101
0000
,
0010
1000
0100
0000
,
1100
0000
1010
0000
,
0100
0001
0010
0000
,
1001
0000
0110
0000
,
0001
0010
0100
0000
,
1001
0000
0110
0000
,
1000
0010
0100
0000
,
0001
0010
0000
0000
,
0100
0020
0000
0030
,
0001
0100
0000
0000
,
0010
1000
0000
0000
,
0100
1000
0000
0010
,
0100
0010
0000
0100
,
0001
1000
0000
0001
,
0010
0001
0000
1000
,
0020
0000
0000
0030
,
0100
0000
0001
0000
,
2000
0000
0000
3000
,
0100
0000
0000
0000
0010
0000
0001
1000
;

//---------------dance-single - ----------------
#NOTEDATA:;
#CHARTNAME:;
#STEPSTYPE:dance-single;
#DESCRIPTION:;
#CHARTSTYLE:;
#DIFFICULTY:Medium;
#METER:9;
#RADARVALUES:0.368384,0.423967,0.128934,0.151688,0.003792,340.000000,323.000000,17.000000,20.000000,0.000000,0.000000,0.000000,0.000000,0.000000,0.368384,0.423967,0.128934,0.151688,0.003792,340.000000,323.000000,17.000000,20.000000,0.000000,0.000000,0.000000,0.000000,0.000000;
#CREDIT:Embrace;
#NOTES:
0000
0000
0000
0000
,
0000
0000
0000
0000
,
0000
0000
0000
0000
,
0000
0000
0000
0000
,
0002
0000
0003
0000
1000
0000
0000
1000
,
0000
0001
0010
0001
0010
0001
0000
0000
,
1000
0000
0000
0000
0000
0000
0000
1000
,
0000
0001
0100
0001
0100
0001
0000
0000
,
1002
0000
1003
0000
0100
0000
0010
0001
,
0000
1000
0100
1000
0100
1000
0000
0000
,
0001
0000
0010
0000
0100
0000
1000
0001
,
0000
1000
0010
1000
0010
1000
0000
1000
,
0002
0000
0103
0000
0010
1000
0001
0010
,
0000
0100
0010
0100
0010
0001
0000
1000
,
0020
0000
0130
0000
0010
1000
0001
0100
,
0000
0000
0000
0000
,
2100
0000
0001
0000
3001
0000
0100
0010
,
0100
0000
0001
1000
0000
0100
0000
0010
,
0100
1000
0010
0000
0101
0000
1000
0001
,
1000
0000
0100
0000
0010
0001
0010
0001
,
1000
0001
0000
1001
0000
0110
0000
1001
,
0000
0000
1000
0000
0100
0010
0001
0000
,
1000
0010
0000
0110
0000
1001
0000
0110
,
0000
0000
1000
0000
0100
0010
0100
0000
,
1000
0001
0100
0000
0010
1000
0010
0000
,
0200
0000
0000
0310
0000
1000
0000
0001
,
0010
0001
0010
0001
1000
0000
0010
0200
,
0000
0301
0000
1000
0000
0100
1000
0000
,
0100
0010
0100
0010
0001
0000
1000
0020
,
0000
0130
0000
0010
0000
1000
0001
0000
,
0100
0010
0100
0010
1000
0000
0001
0020
,
0000
0030
0000
0000
,
0002
0000
0000
0003
,
1000
0001
0000
0010
0000
0001
1000
0000
,
0020
1000
1000
1030
,
0100
0000
0010
0100
0010
0000
0001
0000
,
0200
0001
0001
0301
,
0100
0010
1000
0000
0001
0010
0100
0000
,
2000
0100
0100
0100
,
3001
0000
0100
0000
0010
1000
0100
0000
,
2000
0010
0010
3010
,
1000
0001
0010
0000
0001
0100
0010
0000
,
1000
0002
0000
0000
0013
0000
0100
0000
,
1000
0010
1000
0000
0001
0010
0001
0000
,
1000
0000
1100
0000
0010
0001
1000
0000
,
0001
0100
0010
0000
1000
0100
0000
1000
,
0001
0100
0010
1000
,
0001
0010
0100
0000
1000
0010
0100
0000
,
0110
0000
0000
0000
0001
0000
0000
1000
0000
0000
0001
0000
0010
0000
0000
0000
,
0100
1000
0001
0000
0100
0010
0000
0010
,
0100
0001
2000
3200
,
0310
0001
1000
0000
0010
1000
0100
0000
,
0010
0011
1001
0101
,
0001
1000
0010
0000
1000
0100
1000
0100
,
0010
0000
0110
0000
0001
0010
0100
0000
,
1000
0010
0100
0010
0100
0010
1000
0000
,
0001
0101
1000
1010
,
0001
0010
0100
0010
0100
0010
0001
0000
,
1000
0001
1000
0001
0000
0000
0000
0000
,
0100
0010
0100
0020
0000
0000
1030
0000
,
0001
0010
0001
0010
0000
0000
0100
0000
,
1000
0001
1000
0002
0000
0000
0203
0000
,
0310
1000
0010
1000
0000
0001
0000
0010
,
0100
0010
0100
0010
0000
0001
1000
0000
,
0010
0100
0010
0100
0000
0001
0000
1000
,
0100
1000
0100
1000
0000
0001
0000
0001
,
1000
0010
0000
0000
0010
0000
0000
0100
,
0000
0001
0000
1000
0000
0100
1000
0100
,
0000
0010
0000
0000
0010
0000
0000
0001
,
0000
0100
0000
0010
0000
1000
0001
0100
;

//---------------dance-single - ----------------
#NOTEDATA:;
#CHARTNAME:;
#STEPSTYPE:dance-single;
#DESCRIPTION:;
#CHARTSTYLE:;
#DIFFICULTY:Hard;
#METER:12;
#RADARVALUES:0.473482,0.503460,0.128934,0.333713,0.132727,437.000000,420.000000,17.000000,44.000000,0.000000,0.000000,0.000000,0.000000,0.000000,0.473482,0.503460,0.128934,0.333713,0.132727,437.000000,420.000000,17.000000,44.000000,0.000000,0.000000,0.000000,0.000000,0.000000;
#CREDIT:Embrace;
#NOTES:
0000
0000
0000
0000
,
0000
0000
0000
0000
,
0000
0000
0000
0000
,
0000
0000
0000
0000
,
2000
0000
0000
0000
3010
0000
0000
0010
,
0000
0100
0001
0100
0001
1000
0000
0000
,
0100
0000
0000
0000
0000
0000
0000
0100
,
0000
1000
0001
1000
0001
0010
0000
0000
,
0110
0001
1000
0000
0001
0010
0100
1000
,
0000
0001
0100
0200
0010
0020
0330
1000
,
0001
0100
0010
0000
0100
0001
0010
0100
,
0000
0100
1000
2000
0001
0002
3003
1000
,
0200
0000
0000
0000
0310
0000
0000
0000
0100
0000
1000
0010
0000
0000
0110
0000
,
0000
0100
0001
0002
1000
2000
3003
0001
,
0100
0001
0010
0000
0100
0010
0001
1000
,
0000
0000
0000
0000
,
1002
0000
0103
0000
0010
1000
0010
1000
,
0001
0000
0100
1000
0100
0000
0001
0000
,
1000
0100
1000
0100
0010
0000
0000
0000
0001
0000
1000
0010
0000
0000
1010
0000
,
0000
1000
0100
0000
0010
0001
0010
0001
,
1000
1010
0000
0110
0000
0011
0000
0110
,
0000
0000
1000
0000
0001
0000
0000
0000
0010
0000
0001
1000
0000
0000
0010
0000
,
1000
0100
0000
0110
0000
1010
0000
0011
,
0000
0000
1000
0000
0010
0000
0000
0000
0100
0000
0001
1000
0000
0000
0100
1000
,
0001
0000
0010
0001
1000
0000
0000
0000
0001
0000
0100
0010
0000
0000
0100
0000
,
0010
0000
1000
0000
0000
0000
0001
0000
0010
0000
0100
1000
0100
0000
0010
0000
,
0001
0001
1000
0010
0100
0100
0001
2000
,
0000
0100
0000
3010
0000
1000
0010
0010
,
1000
1000
0001
0010
0100
0100
1000
0002
,
0000
0100
0000
0013
0000
0010
0001
1000
,
0100
0100
1000
0001
0100
0100
0010
2000
,
0000
3000
0000
0000
,
0002
0000
0000
0003
,
1000
0100
0000
0010
0000
0001
1000
0000
,
0002
0000
0000
0000
0100
0000
0000
1003
0001
0000
0100
0000
0010
0000
1000
0000
,
0000
0000
0001
0000
0010
0000
0100
0000
0010
0000
0001
0000
0000
0000
1000
0001
,
0020
0000
0001
0130
1000
0001
0100
0020
,
0000
1030
0001
0001
1000
0100
0000
0100
,
0020
0000
0031
0100
1000
0100
0001
1000
,
0100
0010
1000
0010
0001
0002
1000
0000
,
0203
0000
0320
0000
1030
0001
0010
0200
,
0000
1300
0010
0001
0010
1000
0000
1000
,
0001
0000
0020
0000
0100
0000
0000
0000
0031
0000
0000
1000
0100
0000
0010
0000
,
0001
1000
0010
0020
0100
0130
0001
0000
,
1001
0000
0000
0000
0011
0000
0000
1000
0010
0000
0100
0000
0010
0000
0001
0000
,
0000
0010
1000
2000
0001
3001
0000
1000
,
1100
0000
0000
0000
1010
0000
0000
0000
0100
0001
0000
0000
0011
0000
0000
0000
,
1000
0000
0001
0000
0010
0000
0020
0000
0100
0000
0130
1000
0000
0000
1000
0000
,
0001
0000
0000
0000
0101
0000
0000
0100
0010
0000
1000
0000
0001
0000
0000
0000
,
1000
0010
0100
0200
0001
0301
1000
0001
,
0010
0000
0000
0010
0100
0000
0000
0100
0010
0000
0000
0010
0100
0000
0000
1000
,
0001
1000
0010
0020
0100
0130
0002
0000
,
1003
0000
0000
1000
0001
0000
0000
0001
1000
0000
0000
1000
0001
0000
0000
0001
,
0010
0100
1000
2000
0001
0002
3003
0001
,
1000
0000
0001
0100
1000
0100
0001
1000
,
0100
0010
0001
0002
1000
1003
0001
1000
,
0100
0010
1000
0000
0010
0001
1000
0000
,
0001
0000
0100
0000
0010
0000
0010
0000
1000
0001
1000
0000
0001
1000
0001
0000
,
2000
0010
0010
3010
1000
0000
0001
0000
,
2000
0100
0100
3100
1000
0001
0010
0000
,
0002
0100
0100
0103
0001
0000
1000
0000
,
0010
0200
0000
0000
0301
0000
0000
0000
1000
0001
1000
0000
0001
1000
0001
0000
,
0020
0000
0100
0000
0100
0000
0130
0000
1000
0000
0001
1000
0000
0000
0001
0000
,
0200
0000
0010
0000
0010
0000
0310
0000
1000
0000
0001
0100
0001
0000
0010
0000
,
0200
0000
1000
0000
1000
0000
1300
0000
0001
0000
0100
0010
0000
0000
0100
0000
,
0001
0000
1000
0000
0100
0000
0000
0000
0010
0001
1000
0000
0000
0010
1000
0000
,
0001
0010
0100
0010
0001
1000
0010
0200
,
0000
0302
0000
2003
0000
3010
0100
0010
,
1000
0001
0010
0100
1000
0001
0100
0020
,
0000
2030
0000
3200
0000
0310
0001
1000
;
