#TITLE:Cheer Train;
#SUBTITLE:;
#ARTIST:Fuzita Blender;
#TITLETRANSLIT:;
#SUBTITLETRANSLIT:;
#ARTISTTRANSLIT:;
#GENRE:;
#CREDIT:;
#MUSIC:Cheer Train.ogg;
#BANNER:;
#BACKGROUND:;
#CDTITLE:;
#SAMPLESTART:33.277;
#SAMPLELENGTH:16.010;
#SELECTABLE:YES;
#OFFSET:0.723;
#BPMS:0.000=120.000;
#STOPS:;
#ORIGIN:;
#TAGS:;
#PREVIEWVID:;
#JACKET:;
#CDIMAGE:;
#DISCIMAGE:;
#BGCHANGES:0.000=LOUDER ROLLING THUNDER-bg.png=1.000=0=0=1,
4.000=Cheer Train.mp4=1.000=0=0=1,
99999.000=-nosongbg-=1.000=0=0=0=StretchNoLoop====
;
#FGCHANGES:;

//--------------- dance-double - All Aboard ----------------
#NOTES:
     dance-double:
     Locomonium X:
     Easy:
     6:
     0,0,0,0,0:
00000000
00000000
00000000
00000000
,
00000000
00000000
00000000
00000000
,
00000000
00000000
00000000
00000000
,
00000000
00000000
00000000
00000000
,
00000000
00000000
00000000
00000000
,
00001000
00001000
00010000
00010000
,
00000100
00000100
00001000
00001000
,
00000010
00000010
00000001
00000001
,
00002000
00003100
00001000
00000100
,
00010000
00001000
01000000
00100000
,
10000000
01000000
00100000
00100000
,
00001000
00010000
00000100
00001000
,
00000010
00000100
00000001
00000001
,
00001000
00000100
00010000
00001000
,
01000000
00100000
10000000
10000000
,
00010000
00100000
00001000
00010000
,
00000010
00001000
00000002
00000000
,
00000103
00001000
00010000
00100000
,
01100000
00000000
10010000
00000000
,
10000000
01000000
00010000
00001000
,
00000110
00000000
00001001
00000000
,
00000001
00000100
00001000
00010000
,
01100000
00000000
10010000
00000000
,
10000000
01000000
00010000
00001000
,
00000110
00001001
00000002
00000000
,
00000103
00000000
00000010
00000000
,
00010000
00000000
00001000
02000000
,
03010000
00000000
00100000
00000000
,
01000000
00000000
10000000
00020000
,
00130000
00100000
00001000
00001000
,
00010000
00010000
00000100
00002000
,
00003010
00000010
00000100
00000100
,
00000010
00001001
00002000
00000000
,
00003100
00022000
00000000
00033000
,
00001000
01000000
00100000
10010000
,
00010000
00202000
00000000
00303000
,
00100000
00001000
00010000
00001100
,
00001000
00002020
00000000
00003030
,
00000100
00000001
00001000
00010100
,
00001000
02002000
00000000
03003000
,
01100000
00000000
00000000
00000000
20000000
00000000
00000000
00000000
00000000
30000000
00000000
00000000
00000000
00000000
00000000
00000000
,
10000000
01000000
00010000
00001000
,
00000010
00000001
00001000
00001001
,
00000001
00000100
00001000
00010000
,
00100000
10000000
00010000
10010000
,
10000000
01000000
00010000
00001000
,
00000010
00000001
00001000
00001001
,
00000001
00000100
00001000
00010000
,
00100000
10000000
00010000
10010000
,
10000000
00000000
01000000
00000000
,
00100000
00000000
02000000
00000000
,
13000000
00000000
00100000
00000000
,
01000000
00000000
00001000
00010000
,
00011000
00000000
00000000
00000000
;

//--------------- dance-double - Cheep Cheep ----------------
#NOTES:
     dance-double:
     Apocalypse WOW!:
     Medium:
     12:
     0,0,0,0,0:
00000000
00000000
00000000
00000000
,
00000000
00000000
00000000
00000000
,
00000000
00000000
00000000
00000000
,
00000000
00000000
00000000
00000000
,
00000000
00000000
00000000
00000000
,
00010000
01000000
00010000
01000000
00010000
00100000
00010000
00100000
,
00001000
00000000
00100000
00000000
00001000
00000000
00100000
00000000
00001000
00000000
00000000
00001000
00000000
00000000
00001000
00000000
,
00010000
00000100
00010000
00000100
00001000
00000100
00001000
00000100
,
00001000
00000000
00000000
00000010
00000000
00000000
00000101
00000000
00000000
00000000
00000000
00000000
00000001
00000000
00001000
00000000
00000000
00001000
00000000
00000000
00001000
00000001
00000000
00000000
,
00000101
00000100
00000010
00001000
00000100
00010000
00001000
01000000
,
00100000
10000000
01000000
00100000
01000000
10000000
00010000
00100000
,
00001000
00010000
00000100
00001000
00000010
00000100
00000001
00000100
,
00000010
00001000
00000100
00010000
00001000
01000000
00100000
00000000
,
10000000
01000000
00010000
01000000
10000000
00010000
01000000
00001000
,
00010000
00000100
00001000
00000010
00000001
00000010
00001000
00000000
,
00000000
00000010
00010000
00001000
01000000
00100000
10000000
01000000
,
00100000
00000000
00000000
00001000
00000000
00000000
00010000
00000000
00000000
00000100
00000000
00000000
00010000
00000000
00001000
00000000
00000000
00001000
00000000
00000000
00001000
00010000
00000000
00000000
,
02001000
00000000
00000000
00100000
00000000
00000000
03010000
00000000
01010000
00000000
00000000
00000000
11000000
00000000
00000000
00000000
,
10010000
00000000
00000000
00000000
00000000
00000000
00000000
00000000
00010000
00000000
00000000
00010000
00000000
00000000
00010000
00000000
,
00210000
00000000
00000000
00001000
00000000
00000000
00310000
00000000
00011000
00000000
00000000
00000000
00001100
00000000
00000000
00000000
,
00001010
00000000
00000000
00000000
00000000
00000000
00000000
00000000
00000100
00000000
00000000
00000100
00000000
00000000
00000100
00000000
,
00000102
00000000
00000000
00000010
00000000
00000000
00001003
00000000
00001001
00000000
00000000
00000000
00001100
00000000
00000000
00000000
,
00010100
00000000
00000000
00000000
00000000
00000000
00000000
00000000
00010000
00000000
00000000
00010000
00000000
00000000
00010000
00000000
,
00012000
00000000
00000000
01000000
00000000
00000000
00013000
00000000
00011000
00000000
00000000
00000000
00110000
00000000
00000000
00000000
,
11000000
00000000
00000000
00000000
00000000
00000000
10010000
00000000
00000000
00000000
00000000
00000000
00010000
00000000
01000000
00000000
00000000
01000000
00000000
00000000
01000000
00010000
00000000
00000000
,
10000000
00010000
00100000
00000000
00010000
01000000
00001000
00000000
,
00010000
00000010
00000100
00000000
00000001
00000100
00002000
00000000
,
00003100
00000010
00010000
00000000
00001000
01000000
00100000
00000000
,
10000000
01000000
00100000
00000000
00010000
01000000
00200000
00000000
,
20300000
00000000
00000000
00000000
30020000
00000000
00000000
00230000
,
00320000
00000000
00000000
00000000
00000000
00000000
00000000
00000000
00230000
00000000
00000000
00302000
00000000
00000000
00023000
00000000
,
00030020
00001030
00000020
00000130
,
00000001
00000000
00001000
00000001
00000000
00000000
00001010
00000000
00000000
00000000
00000000
00000000
00001000
00000000
00000100
00000000
00000000
00000100
00000000
00000000
00000100
00001000
00000000
00000000
,
00011000
02001000
00100000
03010000
,
10010000
00110000
00101000
00011000
,
00010100
00002010
00000010
00003001
,
00001100
00000011
00001001
00000101
,
00001010
00020100
00001000
00030100
,
00010100
00011000
01001000
01100000
,
10100000
02010000
00001000
00010000
,
03001000
00000000
00000000
00000000
00010000
00001000
00010000
00001000
00010000
00000000
00000000
00000000
00000000
00000000
00000000
00000000
,
00011000
00000000
00000000
00001100
00000000
00000000
00000110
00000000
00000011
00000000
00000000
00000000
00000200
00000000
00000000
00000000
,
00010300
00001100
01010000
00011000
,
00110000
00000000
00000000
01100000
00000000
00000000
11000000
00000000
10010000
00000000
00000000
00000000
20000000
00000000
00000000
00000000
,
30010000
00110000
00001010
00011000
,
00010100
00000000
00000000
00001100
00000000
00000000
00001010
00000000
00000110
00000000
00000000
00000000
00000200
00000000
00000000
00000000
,
00000301
00000011
00000110
00010100
,
00011000
00000000
00000000
01001000
00000000
00000000
01100000
00000000
10100000
00000000
00000000
00000000
02000000
00000000
00000000
00000000
,
03001000
00000000
00010000
00001000
00000000
00000000
00010000
00000000
00000000
00000000
00000000
00000000
00000100
00000000
00001000
00000000
00000000
00000010
00000000
00000000
00000100
00000001
00000000
00000000
,
00001000
00000100
00001000
00000100
00010000
00000100
00010000
00000100
,
00010000
00000000
00001000
00000000
00010000
00000000
00001000
00000000
00010000
00000000
00000000
00010000
00000000
00000000
00010000
00000000
,
00001000
01000000
00001000
01000000
00100000
01000000
00100000
01000000
,
00100000
00000000
10000000
00000000
00100000
00000000
10000000
00000000
01000000
00000000
00000000
00010000
00000000
00000000
00001000
00000000
,
00000110
00000000
00000000
00000000
;

//--------------- dance-double - Derailed ----------------
#NOTES:
     dance-double:
     Pandy -Derailed-:
     Hard:
     15:
     0,0,0,0,0:
00000000
00000000
00000000
00000000
,
00000000
00000000
00000000
00000000
,
00000000
00000000
00000000
00000000
,
00000000
00000000
00000000
00000000
,
00000000
00000000
00000000
00000000
,
10000000
01000000
00010000
00001000
00000010
00000001
00001000
00000001
,
00000100
00000000
00001000
00000000
00010000
00000000
00100000
00000000
10000000
00000000
00000000
11000000
00000000
00000000
10010000
00000000
,
10000000
01000000
00010000
00001000
00000010
00000001
00001000
00000001
,
00000100
00000000
00000010
00001000
00000000
00000000
00011000
00000000
00000000
00000000
00000000
00001000
01000000
00000000
01000000
00000000
00000000
01000000
00000000
00000000
01000000
00100000
00000000
00000000
,
10010000
10000000
00000000
00010000
00100000
00000000
01000000
10000000
00000000
00010000
00100000
00000000
00001000
00010000
00000000
00000100
,
00001000
00000000
00000010
00000100
00000000
00000001
00000010
00000000
00000100
00001000
00000000
00010000
00001000
01000000
00100000
01000000
,
00000000
01000000
00010000
00000000
00100000
01000000
00000000
00100000
00001000
00000000
00010000
00000100
00000000
00001000
00000010
00000000
,
00000100
00000001
00000000
00001000
00000010
00000000
00001000
00000100
00000000
00010000
00001000
00100000
00010000
10000000
00000000
00000000
,
01000000
10000000
00100000
01000000
00010000
00100000
00001000
00010000
00000100
00001000
00000010
00000100
00000001
00000010
00000100
00001000
,
00000100
00010000
00001000
01000000
00100000
10000000
00010000
00100000
00010000
10000000
01000000
00100000
00010000
10000000
00000000
00000000
,
00000000
10000000
01000000
00100000
00010000
00100000
00001000
00010000
00000100
00001000
00000010
00000100
00000001
00000100
00000010
00001000
,
00000100
00000000
00000000
00010000
00000000
00000000
00001000
00000000
00000000
00010000
00000000
00000000
00000010
00000000
00000000
00010000
00000000
00000000
00001000
00000000
00000000
00100000
00000000
00000000
00001000
00000000
00000000
00000000
00001000
00000000
00000000
00000000
00000000
00000000
00001000
00000000
00000000
00000000
00000000
00000000
00001000
00000000
01000000
00000000
00000000
00000000
00000000
00000000
,
10010000
00000000
00000000
00011000
00000000
00000000
00001001
00000000
00000110
00000000
00000000
00000000
00011000
00000000
00000000
00000000
,
00100010
00000000
00000000
00000000
00000000
00000000
00000000
00000000
00001000
00000000
00000000
00001000
00000000
00000000
00001000
00000000
,
00011000
00000000
00000000
10010000
00000000
00000000
01100000
00000000
10010000
00000000
00000000
00000000
00011000
00000000
00000000
00000000
,
00100010
00000000
00000000
00000000
00000000
00000000
00000000
00000000
00010000
00000000
00000000
00010000
00000000
00000000
00010000
00000000
,
00011000
00000000
00000000
00001001
00000000
00000000
00000110
00000000
00001001
00000000
00000000
00000000
00011000
00000000
00000000
00000000
,
01000100
00000000
00000000
00000000
00000000
00000000
00000000
00000000
00001000
00000000
00000000
00001000
00000000
00000000
00001000
00000000
,
00011000
00000000
00000000
10010000
00000000
00000000
01100000
00000000
10010000
00000000
00000000
00000000
00011000
00000000
00000000
00000000
,
01000100
00000000
00000000
00000000
00000000
00000000
00010020
00000000
00000000
00000000
00000000
00001030
00000001
00000000
00000001
00000000
00000000
00000001
00000000
00000000
00000001
00001000
00000000
00000000
,
00001001
00000001
00000100
00000100
00001000
00001000
00010000
00010000
,
00100000
00000000
00100000
00000000
10000000
00000000
10000000
00000000
00010000
00000000
00000000
00010000
00200000
00000000
00000000
00000000
,
01300000
01000000
00010000
00010000
00001000
00001000
00000010
00000010
,
00000001
00000000
00000001
00000000
00001000
00000000
00001000
00000000
00000100
00000000
00000000
00000100
00020000
00000000
00000000
00000000
,
00031000
00010000
00000000
00000100
00001000
00000000
00000010
00000100
00000000
00000001
00000010
00000000
00000100
00001000
00000000
00000100
,
00010000
00000000
00001000
01000000
00000000
00100000
10000000
00000000
00010000
00100000
00000000
00100000
00002000
00000000
00010000
00000000
,
00103000
00010000
10000000
00000000
10000000
01000000
00000000
00100000
00010000
00000000
00100000
00001000
00000000
00010000
00000100
00000000
,
00001000
00000000
00000010
00000100
00000000
00000000
00001001
00000000
00000000
00000000
00000000
00000000
00000001
00000000
00000100
00000000
00000000
00000010
00000000
00000000
00001000
00000100
00000000
00000000
,
00011000
00000000
02001000
00001000
00010000
00010000
00100000
03100000
,
01100000
00011000
00001001
00000110
,
00000001
00000100
00000120
00000100
00001000
00001000
00010000
00010000
,
00001030
00001001
00000110
00011000
,
00001000
01000000
01200000
10000000
01000000
10000000
01300000
00100000
,
10010000
00011000
00001001
00000110
,
00001000
00000001
00002100
00000100
00000100
00000010
00000010
00003100
,
00010100
00000000
00000000
00000000
00010000
00000100
00001000
00000100
00010000
00000000
00000000
00000000
00000000
00000000
00000000
00000000
,
10010000
00000000
00000000
00011000
00000000
00000000
00001001
00000000
00001010
00000000
00000000
00000000
00000020
00000000
00000000
00000000
,
00000230
00001300
00011000
01100000
,
10010000
00000000
00000000
00011000
00000000
00000000
00001001
00000000
00001100
00000000
00000000
00000000
00021000
00000000
00000000
00000000
,
00030100
00000110
00011000
01100000
,
10010000
00000000
00000000
00011000
00000000
00000000
00001001
00000000
00000110
00000000
00000000
00000000
00002010
00000000
00000000
00000000
,
00003100
00001001
00011000
01100000
,
00011000
00000000
00000000
10010000
00000000
00000000
01100000
00000000
10010000
00000000
00000000
00000000
21000000
00000000
00000000
00000000
,
30010000
01100000
00011000
00000110
,
00000001
00000001
00000100
00000100
00001000
00001000
00010000
00010000
,
00100000
00000000
00100000
00000000
10000000
00000000
10000000
00000000
10010000
00000000
00000000
01010000
00000000
00000000
10010000
00000000
,
10000000
10000000
01000000
01000000
00010000
00010000
00001000
00001000
,
00000010
00000000
00000010
00000000
00000001
00000000
00000001
00000000
00001200
00000000
00000000
00020300
00000000
00000000
00031000
00000000
,
00011000
00000000
00000000
00000000
00000000
00000000
00000000
00000000
00000000
00000000
00000000
00000000
00000000
00000000
00000000
00000000
00000000
00000000
00000000
00011000
00000000
00000000
00000000
00000000
00000000
00000000
00000000
00000000
00000000
00000000
00000000
00000000
00000000
00000000
00000000
00000000
00000000
00000000
00000000
00000000
00000000
00000000
00000000
00000000
00000000
00000000
00000000
00000000
00000000
00000000
00000000
00000000
00000000
00000000
00000000
00000000
00000000
00000000
00000000
00000000
00000000
00000000
00000000
00000000
00000000
00000000
00000000
00000000
00000000
00000000
00000000
00000000
00000000
00000000
00000000
00000000
00000000
00000000
00000000
00000000
00000000
00000000
00000000
00000000
00000000
00000000
00000000
00000000
00000000
00000000
00000000
00000000
00000000
00000000
00000000
00000000
00000000
00000000
00000000
00000000
00000000
00000000
00000000
00000000
00000000
00000000
00000000
00000000
00000000
00000000
00000000
00000000
00000000
00000000
00000000
00000000
00000000
00000000
00000000
00000000
00000000
00000000
00000000
00000000
00000000
00000000
00000000
00000000
00000000
00000000
00000000
00000000
00000000
00000000
00000000
00000000
00000000
00000000
00000000
00000000
00000000
00000000
00000000
00000000
00000000
00000000
00000000
00000000
00000000
00000000
00000000
00000000
00000000
00000000
00000000
00000000
00000000
00000000
00000000
00000000
00000000
00000000
00000000
00000000
00000000
00000000
00000000
00000000
00000000
00000000
00000000
00000000
00000000
00000000
00000000
00000000
00000000
00000000
00000000
00000000
00000000
00000000
00000000
00000000
00000000
00000000
00000000
00000000
00000000
00000000
00000000
00000000
;
