#VERSION:0.83;
#TITLE:Campfire Medley;
#SUBTITLE:;
#ARTIST:DONKEY KONGA Sound Team "Junko Ozawa";
#TITLETRANSLIT:;
#SUBTITLETRANSLIT:;
#ARTISTTRANSLIT:;
#GENRE:;
#ORIGIN:;
#CREDIT:;
#BANNER:;
#BACKGROUND:;
#PREVIEWVID:;
#JACKET:;
#CDIMAGE:;
#DISCIMAGE:;
#LYRICSPATH:;
#CDTITLE:;
#MUSIC:Campfire Medley.ogg;
#OFFSET:-0.650000;
#SAMPLESTART:10.978368;
#SAMPLELENGTH:16.699993;
#SELECTABLE:YES;
#BPMS:0.000=120.300,
4.000=115.000,
80.000=120.300,
192.000=118.400,
208.000=120.300,
224.000=119.100,
240.000=120.350,
276.000=122.250;
#STOPS:;
#DELAYS:;
#WARPS:;
#TIMESIGNATURES:0.000=4=4;
#TICKCOUNTS:0.000=4;
#COMBOS:0.000=1;
#SPEEDS:0.000=1.000=0.000=0;
#SCROLLS:0.000=1.000;
#FAKES:;
#LABELS:0.000=Song Start;
#BGCHANGES:;
#KEYSOUNDS:;
#ATTACKS:
;

//---------------dance-single - ----------------
#NOTEDATA:;
#CHARTNAME:;
#STEPSTYPE:dance-single;
#DESCRIPTION:;
#CHARTSTYLE:;
#DIFFICULTY:Beginner;
#METER:2;
#RADARVALUES:0.101262,0.145946,0.013374,0.000000,0.000000,106.000000,104.000000,2.000000,0.000000,0.000000,0.000000,0.000000,0.000000,0.000000,0.101262,0.145946,0.013374,0.000000,0.000000,106.000000,104.000000,2.000000,0.000000,0.000000,0.000000,0.000000,0.000000,0.000000;
#CREDIT:Venomothim;
#NOTES:
0000
0000
0000
0000
,
0000
0000
0000
0000
,
0000
0000
0000
0000
,
0000
0000
0000
0000
,
0000
0000
0000
0000
,
1000
0000
1000
0000
,
0100
0000
0000
0000
,
0010
0000
0010
0000
,
0001
0000
0000
0000
,
0100
0000
0100
0000
,
0010
0000
0000
0000
,
1000
0000
0000
0000
,
0001
0000
0000
0000
,
1000
0000
1000
0000
,
0100
0000
0000
0000
,
0010
0000
0010
0000
,
0001
0000
0000
0000
,
0100
0000
0100
0000
,
0010
0000
0000
0000
,
0100
0000
0000
0000
,
0100
0000
0000
0000
,
0001
0000
0000
0000
,
0010
0000
0000
0000
,
0100
0000
0000
0000
,
1000
0000
1000
0000
,
1000
0000
0000
0000
,
0001
0000
0001
0000
,
0001
0000
0000
0000
,
0100
0000
0100
0000
,
0010
0000
0010
0000
,
0100
0000
0010
0000
,
1000
0000
0000
0000
,
0001
0000
0000
0000
,
0100
0000
0000
0000
,
0010
0000
0000
0000
,
1000
0000
1000
0000
,
1000
0000
0000
0000
,
0001
0000
0001
0000
,
0001
0000
0000
0000
,
0010
0000
0010
0000
,
0100
0000
0100
0000
,
0010
0000
0010
0000
,
0001
0000
0000
0000
,
0100
0000
0000
0000
,
0010
0000
0000
0000
,
1000
0000
0000
0000
,
0001
0000
0000
0000
,
1000
0000
0000
0000
,
0100
0000
0000
0000
,
0100
0000
0000
0000
,
0010
0000
0010
0000
,
0001
0000
0000
0000
,
1000
0000
1000
0000
,
0001
0000
0001
0000
,
0100
0000
0100
0000
,
0010
0000
1001
0000
,
1000
0000
0000
0000
,
0001
0000
0000
0000
,
0100
0000
0100
0000
,
0010
0000
0000
0000
,
1000
0000
1000
0000
,
0001
0000
0001
0000
,
0010
0000
0010
0000
,
0100
0000
1001
0000
,
0001
0000
0001
0000
,
1000
0000
1000
0000
,
0010
0000
0010
0000
,
0100
0000
0100
0000
,
0001
0000
0001
0000
,
1000
0000
1000
0000
,
0001
0000
0001
0000
,
0100
0000
0100
0000
,
0010
0000
0010
0010
;

//---------------dance-single - ----------------
#NOTEDATA:;
#CHARTNAME:;
#STEPSTYPE:dance-single;
#DESCRIPTION:;
#CHARTSTYLE:;
#DIFFICULTY:Easy;
#METER:5;
#RADARVALUES:0.204434,0.243243,0.093619,0.073558,0.000000,214.000000,200.000000,14.000000,11.000000,0.000000,0.000000,0.000000,0.000000,0.000000,0.204434,0.243243,0.093619,0.073558,0.000000,214.000000,200.000000,14.000000,11.000000,0.000000,0.000000,0.000000,0.000000,0.000000;
#CREDIT:Venomothim;
#NOTES:
0000
0000
0000
0000
,
0000
0000
0000
0000
,
0000
0000
0000
0000
,
0000
0000
0000
0000
,
0000
0000
0000
0000
,
1000
0000
0001
0001
,
0001
0000
0100
0000
,
0010
0000
0100
0000
,
0002
0000
0000
0003
,
0001
0000
1000
1000
,
1000
0000
0100
0000
,
0020
0230
0320
0230
,
2300
0000
0000
3000
,
0001
0000
0100
0010
,
1000
0000
0001
0000
,
0100
0010
0100
0010
,
2000
0000
0000
3000
,
0001
0000
0010
0100
,
0010
0000
0001
0000
,
1000
0010
0001
0100
,
1000
1000
0001
0000
,
0001
0001
1000
0000
,
0010
0010
0100
0000
,
0100
0100
0010
0000
,
1000
0100
1000
0100
,
0010
0001
0011
0000
,
0001
0100
0001
0100
,
0010
1000
1010
0000
,
1000
0100
1100
0000
,
0001
0100
0101
0000
,
1000
0010
1000
0010
,
1000
0001
0010
0000
,
0001
1000
0010
0000
,
1000
0001
0100
0000
,
0001
1000
0100
0000
,
1000
1000
0010
0010
,
0100
0000
0100
0000
,
0001
0001
0010
0010
,
0100
0100
1001
0000
,
0001
0001
0100
0000
,
0010
0010
1000
0000
,
0100
0100
1000
1000
,
0010
1000
1100
0000
,
0010
0001
0101
0000
,
0001
1000
1100
0000
,
1000
0001
0101
0000
,
0010
0000
0010
0000
,
0100
0000
0100
0000
,
0001
0000
0000
0000
,
1000
0000
0000
0000
,
0010
0000
0010
0000
,
0100
0100
0010
1001
,
0001
0010
0100
1000
,
1000
0100
0010
0001
,
0001
0100
0010
1000
,
0010
0010
0100
1001
,
1000
0000
0000
0000
,
0001
0000
0000
0000
,
0100
0000
0100
0000
,
0010
0010
0100
1001
,
1000
0010
0100
0001
,
0001
0100
0010
1000
,
1000
0100
0010
0001
,
0100
0100
0010
1001
,
0001
0010
0100
1000
,
0001
0100
0010
1000
,
0001
0010
0100
1000
,
0020
0000
0100
0000
,
0230
0000
0001
0000
,
0302
0000
0010
0000
,
0023
0000
0100
0000
,
0130
1000
0010
0100
,
0001
0010
0100
0110
;

//---------------dance-single - ----------------
#NOTEDATA:;
#CHARTNAME:;
#STEPSTYPE:dance-single;
#DESCRIPTION:;
#CHARTSTYLE:;
#DIFFICULTY:Medium;
#METER:8;
#RADARVALUES:0.268439,0.340540,0.234048,0.220674,0.000000,281.000000,246.000000,35.000000,33.000000,0.000000,0.000000,0.000000,0.000000,0.000000,0.268439,0.340540,0.234048,0.220674,0.000000,281.000000,246.000000,35.000000,33.000000,0.000000,0.000000,0.000000,0.000000,0.000000;
#CREDIT:Venomothim;
#NOTES:
0000
0000
0000
0000
,
0000
0000
0000
0000
,
0000
0000
0000
0000
,
0000
0000
0000
0000
,
0000
0000
0000
0000
,
2000
3000
0010
0100
,
0002
0003
2000
3000
,
0002
0003
0010
0100
,
2000
0000
0000
3000
,
0002
0003
0100
0010
,
0200
0300
0002
0003
,
2000
3200
0320
0032
,
2003
0000
0000
3000
,
0002
0003
0100
0010
,
0200
0300
0002
0003
,
1000
0100
0010
0001
,
0200
0000
0000
0300
,
0020
0030
0100
0001
,
0020
0030
0200
0300
,
2000
3020
0032
0203
,
1300
0001
0100
0000
,
0001
1000
0100
0000
,
0010
0001
0100
0000
,
0010
0100
0001
0000
,
1000
0100
1000
0000
0010
0000
1000
0000
,
0100
1010
1100
0000
,
0001
0100
0001
0000
0010
0000
0001
0000
,
0100
0011
0101
0000
,
1000
0001
1000
0000
0100
0000
0100
0000
,
1000
0001
1000
0000
0010
0000
0010
0000
,
1000
0001
1000
0000
0100
0000
0100
0000
,
0010
0001
0100
0000
,
0010
1000
0100
0000
,
1000
0001
0100
0000
,
0001
1000
0100
0000
,
0010
0010
0010
0000
0000
0000
0001
0000
,
0100
0100
0100
0000
0000
0000
0010
0000
,
1000
1000
0001
0000
0001
0001
1000
0000
,
0010
0100
0010
0000
0110
0000
1001
0000
,
0001
0001
0001
0000
0010
0000
0100
0000
,
1000
1000
1000
0000
0010
0000
0100
0000
,
0001
0001
0001
0000
1000
0000
0100
0000
,
0010
0000
0011
0000
1100
0000
0000
0001
,
1000
0000
1010
0000
0101
0000
0000
1000
,
0100
0000
0110
0000
1001
0000
0000
0001
,
0100
0110
1001
1000
,
0010
0000
1000
0000
0100
0010
0001
0000
,
0100
0000
0001
0000
0010
0100
1000
0000
,
1010
0000
0000
0000
,
0101
0000
0000
0000
,
0011
0000
1100
0000
,
0110
0110
1001
1001
,
0001
0000
0010
0000
0100
0010
0001
0000
,
1000
0000
0010
0000
0100
0010
1000
0000
,
0001
0000
0010
0000
0100
1000
0001
0000
,
0100
0010
0110
0110
,
1001
0000
0000
0000
,
1010
0000
0000
0000
,
0101
0000
0011
0000
,
1100
0110
1001
1001
,
1000
0000
0100
0000
0010
0001
1000
0000
,
0001
0000
0100
0000
0010
1000
0001
0000
,
1000
0000
0100
0000
0010
0001
1000
0000
,
0010
1000
0101
0101
,
1000
0000
0100
0000
0001
0100
1000
0000
,
0001
0000
0100
0000
1000
0100
0001
0000
,
0010
0000
0100
0000
0001
0100
1000
0000
,
0020
0001
0100
1000
,
0230
1000
0010
0001
,
0320
0001
2030
0100
,
3002
0010
0203
1000
,
0302
1000
0023
1000
,
0230
0001
0310
1001
;

//---------------dance-single - ----------------
#NOTEDATA:;
#CHARTNAME:;
#STEPSTYPE:dance-single;
#DESCRIPTION:;
#CHARTSTYLE:;
#DIFFICULTY:Hard;
#METER:11;
#RADARVALUES:0.412689,0.462161,0.207300,0.220674,0.137085,432.000000,401.000000,31.000000,33.000000,0.000000,0.000000,0.000000,0.000000,0.000000,0.412689,0.462161,0.207300,0.220674,0.137085,432.000000,401.000000,31.000000,33.000000,0.000000,0.000000,0.000000,0.000000,0.000000;
#CREDIT:Venomothim;
#NOTES:
0000
0000
0000
0000
,
0000
0000
0000
0000
,
0000
0000
0000
0000
,
0000
0000
0000
0000
,
0000
0000
0000
0000
,
2000
0000
0000
0000
0000
3100
0001
0000
0001
0100
0000
0010
,
0002
0000
0023
0030
,
0002
0000
0000
0000
0000
0103
1000
0000
0000
0100
0000
0000
,
0020
0000
0000
1000
0000
1000
0000
0000
0000
0130
0000
0000
,
0002
0000
0000
0000
0000
0013
1000
0000
1000
0010
0000
0100
,
2000
0000
0000
0000
0000
0000
3001
0000
0000
1000
0000
0100
,
2000
3020
0032
0203
,
2300
0000
0000
0010
0000
0010
0000
0000
0000
3001
0000
0000
,
2000
0000
0000
0000
0000
3010
0001
0000
0001
0010
0000
0100
,
0002
0000
0000
0010
0000
0010
0000
0000
0000
1003
0000
0000
,
2000
0000
0000
3010
0000
0100
0001
0000
0001
0010
0000
0001
,
0200
0000
0000
1000
0000
1000
0000
0000
0000
0301
0000
0000
,
2000
0000
0000
0000
0000
3100
0010
0000
0010
0001
0000
1000
,
0200
0001
1300
0000
,
0002
0023
2030
3200
,
0301
0001
0100
1000
0100
0001
1000
0000
,
1000
1000
0010
0001
0010
1000
0001
0000
,
0001
0001
0010
1000
0010
0001
1000
0000
,
1000
0100
0000
0000
0100
0010
0000
0000
0010
0001
0000
0000
0001
0000
1000
0000
,
0010
0000
0000
0000
0010
0000
0000
0010
0100
0000
0001
0000
1000
0000
0010
0000
,
0100
0000
1010
0000
0101
0000
0001
1000
,
0001
0000
0000
0000
0001
0000
0000
0001
1000
0000
0100
0000
0010
0000
0001
0000
,
1000
0000
0011
0000
1100
0000
0001
1000
,
0010
0000
0000
0000
0100
0000
0000
0100
0010
0000
1000
0000
0001
0000
0010
0000
,
0100
0000
0000
0000
0010
0000
0000
0010
0001
0000
1000
0000
0010
0000
0100
0000
,
0001
0000
0000
0000
1000
0000
0000
1000
0100
0000
1000
0000
0010
0000
0100
0000
,
0002
0010
2003
0010
,
3002
0100
2003
0100
,
3002
0010
2003
3010
,
1000
0001
0000
0000
1000
0001
0000
0000
1000
0001
0000
0000
0010
0000
0100
0000
,
1000
1000
1000
0000
0011
0000
1100
0000
,
0001
0001
0001
0000
1010
0000
0101
0000
,
0010
0010
0010
0000
0110
0000
1001
0000
,
0001
1000
0000
1000
0100
1000
0000
1000
0010
0000
0200
0000
0000
0000
0301
0000
,
1000
0100
0001
0100
1000
0001
1000
0001
,
1000
0010
0001
0010
1000
0001
1000
0001
,
1000
1000
0100
0100
0010
0010
0001
0001
,
1000
0000
0000
0000
0010
0000
0000
0010
0100
0000
0001
0000
0010
0000
0100
0000
,
1000
0000
0000
0000
0001
0000
0000
0001
0100
0000
1000
0000
0100
0000
0100
0000
,
0010
0000
0000
0000
1000
0000
0000
1000
0100
0000
0001
0000
0100
0000
0010
0000
,
0001
0000
0100
0000
0010
1000
0001
1000
,
0001
0010
0100
1000
0001
0010
0100
1000
,
1000
0010
0100
0001
1000
0010
0100
0001
,
1001
0000
0100
0100
,
0110
0000
1000
0001
,
1010
0000
0101
0000
,
0011
1100
0110
1001
,
0001
0010
1000
0001
1000
0010
0001
1000
,
0001
0100
1000
0001
1000
0100
0001
1000
,
0001
0010
1000
0010
0001
0100
1000
0100
,
0001
0010
0100
1000
0011
0000
1100
0000
,
1001
0000
0010
0010
,
0110
0000
0001
1000
,
0011
0000
1100
0000
,
1010
0101
0110
1001
,
1000
0100
0001
1000
0001
0100
1000
0001
,
1000
0010
0001
1000
0001
0010
1000
0001
,
1000
0100
0001
0100
1000
0010
0001
0010
,
1000
0100
0010
0001
1010
0000
0101
0000
,
1000
0100
0001
1000
0010
0001
1000
1000
,
0001
0100
1000
0001
0010
1000
0001
0001
,
1000
0100
0010
0001
0100
1000
0100
0001
,
2000
0010
3002
0100
,
2003
0100
3002
0010
,
1003
0010
0100
0001
0001
0010
0100
1000
,
1000
0010
0100
0001
0001
0010
0100
1000
,
1000
0100
0001
0100
1000
0010
0001
0010
,
1000
0000
0100
0000
0010
0001
0010
0001
0100
0000
0000
0000
1001
0000
0000
0000
;

//---------------dance-double - ----------------
#NOTEDATA:;
#CHARTNAME:;
#STEPSTYPE:dance-double;
#DESCRIPTION:;
#CHARTSTYLE:;
#DIFFICULTY:Easy;
#METER:5;
#RADARVALUES:0.204434,0.243243,0.093619,0.073558,0.000000,214.000000,200.000000,14.000000,11.000000,0.000000,0.000000,0.000000,0.000000,0.000000,0.204434,0.243243,0.093619,0.073558,0.000000,214.000000,200.000000,14.000000,11.000000,0.000000,0.000000,0.000000,0.000000,0.000000;
#CREDIT:Venomothim;
#NOTES:
00000000
00000000
00000000
00000000
,
00000000
00000000
00000000
00000000
,
00000000
00000000
00000000
00000000
,
00000000
00000000
00000000
00000000
,
00000000
00000000
00000000
00000000
,
10000000
00000000
00010000
00010000
,
00010000
00000000
00100000
00000000
,
00001000
00000000
00010000
00000000
,
00000200
00000000
00000000
00000300
,
00000100
00000000
00010000
00010000
,
00010000
00000000
00000010
00000000
,
00002000
00003002
00002003
00003002
,
00000203
00000000
00000000
00000300
,
00000001
00000000
00000010
00000100
,
00010000
00000000
00001000
00000000
,
01000000
00100000
01000000
00100000
,
20000000
00000000
00000000
30000000
,
00010000
00000000
00100000
00001000
,
00010000
00000000
00000010
00000000
,
00001000
00000100
00000001
00000010
,
00001000
00001000
00000001
00000000
,
00000001
00000001
00001000
00000000
,
00001000
00001000
00000100
00000000
,
00000100
00000100
00010000
00000000
,
00001000
00100000
00001000
00100000
,
00010000
00100000
00110000
00000000
,
00100000
01000000
00100000
01000000
,
10000000
00010000
10010000
00000000
,
00010000
01000000
01010000
00000000
,
10000000
00100000
10100000
00000000
,
10000000
01000000
00100000
00010000
,
01000000
00100000
10000000
00000000
,
00100000
01000000
00001000
00000000
,
00010000
00000100
00001000
00000000
,
00000010
00001000
00000001
00000000
,
00000001
00000001
00000010
00000000
,
00000100
00000100
00001000
00000000
,
00000100
00000100
00010000
00010000
,
00001000
00001000
00011000
00000000
,
00001000
00001000
00100000
00000000
,
00010000
00010000
10000000
00000000
,
00100000
00100000
01000000
01000000
,
00010000
00100000
00110000
00000000
,
00100000
00001000
00011000
00000000
,
00000100
00001000
00001010
00000000
,
00000010
00000100
00000101
00000000
,
00000001
00000000
00000001
00000000
,
00000010
00000000
00000100
00000000
,
00010000
00000000
00000000
00000000
,
00001000
00000000
00000000
00000000
,
00100000
00000000
00100000
00000000
,
00001000
00001000
00010000
00011000
,
00010000
01000000
10000000
01000000
,
00010000
00001000
00000100
00000001
,
00000001
00000100
00001000
00010000
,
01000000
10000000
01000000
10010000
,
10000000
00000000
00000000
00000000
,
00010000
00000000
00000000
00000000
,
01000000
00000000
00001000
00000000
,
00010000
00010000
00001000
00011000
,
00001000
00000100
00000001
00001000
,
00000001
00000100
00001000
00010000
,
00010000
01000000
10000000
01000000
,
00010000
00001000
00100000
00011000
,
00010000
01000000
10000000
01000000
,
00010000
00001000
00000100
00000001
,
00000100
00001000
00010000
00001000
,
00200000
00000000
01000000
00000000
,
00320000
00000000
10000000
00000000
,
02030000
00000000
00100000
00000000
,
03002000
00000000
00010000
00000000
,
00103000
00001000
00010000
00000100
,
00001000
00000010
00000100
00001001
;

//---------------dance-double - ----------------
#NOTEDATA:;
#CHARTNAME:;
#STEPSTYPE:dance-double;
#DESCRIPTION:;
#CHARTSTYLE:;
#DIFFICULTY:Medium;
#METER:8;
#RADARVALUES:0.266528,0.340540,0.220674,0.234048,0.000000,279.000000,246.000000,33.000000,35.000000,0.000000,0.000000,0.000000,0.000000,0.000000,0.266528,0.340540,0.220674,0.234048,0.000000,279.000000,246.000000,33.000000,35.000000,0.000000,0.000000,0.000000,0.000000,0.000000;
#CREDIT:Venomothim;
#NOTES:
00000000
00000000
00000000
00000000
,
00000000
00000000
00000000
00000000
,
00000000
00000000
00000000
00000000
,
00000000
00000000
00000000
00000000
,
00000000
00000000
00000000
00000000
,
20000000
30000000
00100000
01000000
,
00002000
00003000
00020000
00030000
,
00000200
00000300
00001000
00000010
,
00000200
00000000
00000000
00000300
,
00000002
00000003
00000010
00000100
,
00000020
00000030
00000002
00000003
,
00000200
00000320
00020030
00032000
,
02003000
00000000
00000000
03000000
,
00020000
00030000
10000000
01000000
,
20000000
30000000
00200000
00300000
,
01000000
00001000
00010000
00000010
,
00002000
00000000
00000000
00003000
,
00000020
00000030
00000100
00000001
,
00000020
00000030
00000200
00000300
,
00002000
00003020
00000032
00000203
,
00001300
00000100
00010000
00000000
,
00100000
10000000
01000000
00000000
,
00100000
00010000
01000000
00000000
,
00100000
01000000
00001000
00000000
,
00001000
00010000
00001000
00000000
00010000
00000000
01000000
00000000
,
10000000
10100000
01010000
00000000
,
10000000
00010000
10000000
00000000
01000000
00000000
00100000
00000000
,
00001000
00010100
00001001
00000000
,
00000001
00001000
00000001
00000000
00000100
00000000
00000100
00000000
,
00000001
00000010
00000001
00000000
00001000
00000000
00001000
00000000
,
00000100
00010000
00000100
00000000
00010000
00000000
00010000
00000000
,
00001000
00100000
00010000
00000000
,
10000000
00100000
01000000
00000000
,
00010000
00100000
00001000
00000000
,
00010000
00000100
00001000
00000000
,
00001000
00001000
00001000
00000000
00000000
00000000
00000001
00000000
,
00000100
00000100
00000100
00000000
00000000
00000000
00000010
00000000
,
00010000
00010000
00001000
00000000
00001000
00001000
00010000
00000000
,
00001000
00010000
00001000
00000000
00011000
00000000
00011000
00000000
,
00100000
00100000
00100000
00000000
00001000
00000000
00010000
00000000
,
00000100
00000100
00000100
00000000
00010000
00000000
00001000
00000000
,
01000000
01000000
01000000
00000000
00001000
00000000
00010000
00000000
,
00001000
00000000
00100000
00000000
00110000
00000000
00000000
00100000
,
00001000
00000000
00010000
00000000
00010010
00000000
00000000
00000010
,
00001000
00000000
00010100
00000000
00011000
00000000
00000000
00100000
,
00010000
01010000
10100000
10000000
,
00010000
00000000
00100000
00000000
01000000
10000000
00100000
00000000
,
01000000
00000000
00001000
00000000
00010000
00000010
00001000
00000000
,
00000101
00000000
00000000
00000000
,
00001010
00000000
00000000
00000000
,
01010000
00000000
10100000
00000000
,
01010000
00101000
00011000
00011000
,
00010000
00000000
01000000
00000000
10000000
01000000
00010000
00000000
,
00001000
00000000
00000100
00000000
00000001
00000100
00001000
00000000
,
00010000
00000000
00100000
00000000
10000000
00100000
00010000
00000000
,
00001000
00010000
00011000
01100000
,
11000000
00000000
00000000
00000000
,
00110000
00000000
00000000
00000000
,
00001100
00000000
00000011
00000000
,
00001100
00010010
00011000
00011000
,
00001000
00000000
00000100
00000000
00000001
00000100
00001000
00000000
,
00010000
00000000
01000000
00000000
10000000
01000000
00010000
00000000
,
00001000
00000000
00000010
00000000
00000001
00000010
00001000
00000000
,
00010000
00001000
00011000
00011000
,
00010000
00000000
00100000
00000000
10000000
00100000
00010000
00000000
,
00001000
00000000
00000100
00000000
00000001
00000100
00001000
00000000
,
00010000
00000000
01000000
00000000
10000000
01000000
00010000
00000000
,
02000000
10000000
03200000
10000000
,
00302000
00010000
00003200
00001000
,
00000320
00000001
00000230
00001000
,
00000302
00000010
00002003
00010000
,
00003200
00010000
00002300
00000010
,
00003200
00001000
00010300
00011000
;

//---------------dance-double - ----------------
#NOTEDATA:;
#CHARTNAME:;
#STEPSTYPE:dance-double;
#DESCRIPTION:;
#CHARTSTYLE:;
#DIFFICULTY:Hard;
#METER:11;
#RADARVALUES:0.414599,0.462161,0.207300,0.193925,0.137085,434.000000,403.000000,31.000000,29.000000,0.000000,0.000000,0.000000,0.000000,0.000000,0.414599,0.462161,0.207300,0.193925,0.137085,434.000000,403.000000,31.000000,29.000000,0.000000,0.000000,0.000000,0.000000,0.000000;
#CREDIT:Venomothim;
#NOTES:
// measure 0
00000000
00000000
00000000
00000000
,  // measure 1
00000000
00000000
00000000
00000000
,  // measure 2
00000000
00000000
00000000
00000000
,  // measure 3
00000000
00000000
00000000
00000000
,  // measure 4
00000000
00000000
00000000
00000000
,  // measure 5
20000000
00000000
00000000
00000000
00000000
30100000
01000000
00000000
01000000
00010000
00000000
00100000
,  // measure 6
00002000
00000000
00023000
00030000
,  // measure 7
00000200
00000000
00000000
00000000
00000000
00001300
00000010
00000000
00000000
00000100
00000000
00000000
,  // measure 8
00000002
00000000
00000000
00000100
00000000
00000100
00000000
00000000
00000000
00001003
00000000
00000000
,  // measure 9
00000002
00000000
00000000
00000000
00000000
00000013
00000100
00000000
00000100
00001000
00000000
00000010
,  // measure 10
00020000
00000000
00000000
00000000
00000000
00000000
00031000
00000000
00000000
00100000
00000000
00010000
,  // measure 11
20000000
30200000
00320000
02030000
,  // measure 12
23000000
00000000
00000000
00100000
00000000
00100000
00000000
00000000
00000000
30010000
00000000
00000000
,  // measure 13
20000000
00000000
00000000
00000000
00000000
31000000
00010000
00000000
00010000
01000000
00000000
00100000
,  // measure 14
00002000
00000000
00000000
00000100
00000000
00000100
00000000
00000000
00000000
00013000
00000000
00000000
,  // measure 15
00000200
00000000
00000000
00001300
00000000
00000010
00000001
00000000
00000001
00000010
00000000
00001000
,  // measure 16
00000002
00000000
00000000
00000010
00000000
00000010
00000000
00000000
00000000
00001003
00000000
00000000
,  // measure 17
00000002
00000000
00000000
00000000
00000000
00000103
00001000
00000000
00001000
00010000
00000000
00000100
,  // measure 18
00002000
00000010
00003001
00000000
,  // measure 19
00000002
00000023
00002030
00003200
,  // measure 20
00000301
00000001
00000100
00001000
00010000
01000000
10000000
00000000
,  // measure 21
10000000
10000000
01000000
00010000
00001000
00000100
00000001
00000000
,  // measure 22
00000001
00000001
00000010
00001000
00010000
00100000
10000000
00000000
,  // measure 23
10000000
00100000
00000000
00000000
01000000
00010000
00000000
00000000
00100000
00001000
00000000
00000000
00010000
00000000
00000100
00000000
,  // measure 24
00001000
00000000
00000000
00000000
00001000
00000000
00000000
00001000
00000001
00000000
00000010
00000000
00000100
00000000
00001000
00000000
,  // measure 25
00000001
00000000
00000011
00000000
00001100
00000000
00000100
00010000
,  // measure 26
00001000
00000000
00000000
00000000
00001000
00000000
00000000
00001000
00100000
00000000
00010000
00000000
10000000
00000000
00100000
00000000
,  // measure 27
01000000
00000000
10100000
00000000
01010000
00000000
10000000
00100000
,  // measure 28
01000000
00000000
00000000
00000000
00010000
00000000
00000000
00100000
00001000
00000000
00010000
00000000
00000010
00000000
00000100
00000000
,  // measure 29
00000001
00000000
00000000
00000000
00000010
00000000
00000000
00000001
00001000
00000000
00000100
00000000
00010000
00000000
00001000
00000000
,  // measure 30
00100000
00000000
00000000
00000000
00010000
00000000
00000000
10000000
00100000
00000000
01000000
00000000
00010000
00000000
00100000
00000000
,  // measure 31
00002000
00000100
00023000
01000000
,  // measure 32
00032000
00000100
00023000
01000000
,  // measure 33
00032000
00000010
00023000
00100000
,  // measure 34
00031000
00100000
00000000
00000000
00001000
00010000
00000000
00000000
00001000
01000000
00000000
00000000
00001000
00000000
00010000
00000000
,  // measure 35
01000000
01000000
01000000
00000000
10100000
00000000
01010000
00000000
,  // measure 36
10000000
10000000
10000000
00000000
00110000
00000000
11000000
00000000
,  // measure 37
00010000
00010000
00010000
00000000
01100000
00000000
00101000
00000000
,  // measure 38
00001000
00010000
00000000
00010000
00000100
00001000
00000000
00001000
00000010
00000000
00000200
00000000
00000000
00000000
00000301
00000000
,  // measure 39
00001000
00000100
00000001
00000100
00001000
00000100
00010000
00001000
,  // measure 40
00100000
00010000
10000000
00100000
01000000
10000000
01000000
00010000
,  // measure 41
10000000
10000000
01000000
01000000
00100000
00100000
00001000
00001000
,  // measure 42
00010000
00000000
00000000
00000000
00000010
00000000
00000000
00000010
00000100
00000000
00000001
00000000
00000010
00000000
00000100
00000000
,  // measure 43
00001000
00000000
00000000
00000000
00000100
00000000
00000000
00000100
00010000
00000000
00001000
00000000
00100000
00000000
00010000
00000000
,  // measure 44
10000000
00000000
00000000
00000000
00100000
00000000
00000000
00100000
01000000
00000000
00010000
00000000
10000000
00000000
01000000
00000000
,  // measure 45
10000000
00000000
00100000
00000000
01000000
00010000
01000000
00010000
,  // measure 46
10000000
01000000
00100000
00010000
00001000
00000100
00000010
00000001
,  // measure 47
00000001
00000010
00000100
00001000
00010000
00100000
01000000
10000000
,  // measure 48
11000000
00000000
01000000
01000000
,  // measure 49
00110000
00000000
00010000
00010000
,  // measure 50
00001100
00000000
00000011
00000000
,  // measure 51
00000110
00001100
00011000
00011000
,  // measure 52
00010000
01000000
10000000
00100000
10000000
01000000
00010000
00000000
,  // measure 53
00001000
00000100
00000001
00000010
00000001
00000100
00001000
00000000
,  // measure 54
00010000
01000000
10000000
00100000
10000000
01000000
00010000
00001000
,  // measure 55
00000100
00000001
00000010
00000001
00000011
00000000
00001100
00000000
,  // measure 56
00000101
00000000
00000100
00000100
,  // measure 57
00001010
00000000
00010000
00010000
,  // measure 58
01010000
00000000
10100000
00000000
,  // measure 59
01100000
01010000
00011000
00011000
,  // measure 60
00001000
00000010
00000001
00000100
00000001
00000010
00001000
00000000
,  // measure 61
00010000
00100000
10000000
01000000
10000000
00100000
00010000
00000000
,  // measure 62
00001000
00000010
00000001
00000100
00000001
00000010
00001000
00010000
,  // measure 63
00100000
10000000
01000000
10000000
10100000
00000000
01010000
00000000
,  // measure 64
10000000
01000000
00010000
00001000
00000100
00000001
00001000
00000000
,  // measure 65
00000001
00000100
00001000
00010000
01000000
10000000
00010000
00000000
,  // measure 66
10000000
01000000
00010000
00001000
00000100
00000001
00000010
00000100
,  // measure 67
00001000
00000100
00001000
00000100
00000001
00000100
00000001
00000100
,  // measure 68
00010000
00001000
00010000
00001000
00100000
01000000
00100000
01000000
,  // measure 69
10000000
00100000
00010000
00100000
10000000
01000000
00010000
00001000
,  // measure 70
00000100
00000001
00000010
00001000
00000010
00000001
00000100
00001000
,  // measure 71
00010000
01000000
10000000
00100000
00010000
10000000
01000000
00010000
,  // measure 72
00100000
00000000
00001000
00000000
00000100
00000001
00000100
00000001
00000010
00000000
00000000
00000000
00011000
00000000
00000000
00000000
;
