#VERSION:0.83;
#TITLE:C64;
#SUBTITLE:;
#ARTIST:ADSRe;
#TITLETRANSLIT:;
#SUBTITLETRANSLIT:;
#ARTISTTRANSLIT:;
#GENRE:;
#CREDIT:;
#MUSIC:C64.ogg;
#BANNER:C64.png;
#BACKGROUND:C64-bg.png.png;
#CDTITLE:;
#SAMPLESTART:37.657;
#SAMPLELENGTH:13.700;
#SELECTABLE:YES;
#OFFSET:0.013;
#BPMS:0.000=70.075
,28.000=140.150
,58.000=70.075
,59.000=140.150
,123.000=70.075
,127.000=140.150
,191.000=70.075
,207.000=140.150
;
#STOPS:;
#BGCHANGES:;
#FGCHANGES:;

//--------------- dance-double - X23 ----------------
#NOTEDATA:;
#STEPSTYPE:dance-double;
#DESCRIPTION:X23;
#DIFFICULTY:Easy;
#CREDIT:X23;
#METER:7;
#RADARVALUES:0,0,0,0,0;
#NOTES:
00000000
00000000
00000000
00000000
,
00000000
00000000
00000000
00000000
,
00001000
00100000
00010000
00100000
,
00001000
00000000
00010000
00000000
00000100
00001000
00000200
00000000
,
00010300
00000000
00010000
00000000
00010000
00001000
01000000
00100000
,
10000000
00000000
10000000
00000000
10000000
00100000
01000000
00010000
,
00110000
00000000
11000000
00000000
00110000
11000000
10010000
00000000
,
00100000
00001000
00010000
00000010
,
00001001
00001000
00000001
00000010
,
00001100
00000100
00010000
00001000
,
02000000
00000000
00000000
00000000
,
03100000
10000000
00010000
00100000
,
00200000
00301000
00010000
00000100
,
00001100
00000100
00010000
00001000
,
02000000
00000000
03100000
10010000
,
10000000
00010000
00100000
00001000
,
00010000
00000100
00000000
00000000
00001000
00000000
00000010
00000000
,
00000010
00000100
00000100
00002002
,
00003003
00000000
00000001
00000100
00000010
00000100
00000001
00000000
,
00001000
00000100
00010000
00001000
,
01000000
00001000
00000000
00000000
00010000
00000000
00002000
00000000
,
00000000
02003000
03200000
02300000
,
03002000
00000000
00013000
00001000
00010000
00000000
00000100
00000000
,
00001000
00000010
00000001
00000010
,
00001000
00000100
00000000
00000000
00001000
00000000
00000100
00000000
,
00010000
00001000
01000000
00100000
,
10000000
01000000
00100000
01000000
10000000
00010000
10000000
00000000
,
00010000
00100000
01000000
00100000
,
00001000
00010000
00000000
00000000
00000100
00000000
00002000
00000000
,
00003010
00000200
00000301
00000010
,
00000100
00000000
00001000
00000100
00010000
00000000
00011000
00000000
,
00000000
00000000
00000000
00000100
,
00000000
00001000
00000000
00000010
,
00000000
00000001
00000010
00001000
,
00000000
00000100
00000000
00010000
,
00000000
00001000
01000000
00100000
,
00000000
01000000
00000000
00010000
,
00000000
10000000
01000000
00010000
,
00000000
01000000
00000000
00100000
,
00000000
00001000
00011000
00010000
,
00000100
00010000
00001000
01000000
,
00001000
00010000
00011000
00010000
,
00000010
00010000
00001000
00100000
,
00001000
00000000
00010000
00001000
00010000
00000000
00000100
00000000
,
00010000
00001000
01000000
00001000
,
00010000
00000100
00010000
00011000
,
00001000
01001000
00001000
00010000
,
00000100
00002000
00003000
00000010
,
00000100
00001000
00010000
00100000
,
10000000
00000000
00020000
00000000
10030000
00010000
10000000
00000000
,
01000000
00010000
00001000
00000010
,
00000001
00001000
00000002
00000000
00002000
00003003
00000110
00000000
,
00001000
00000100
00010000
00001000
,
01000000
00100000
00000000
00000000
01000000
00000000
00010000
00000000
,
10000000
01000000
00100000
00001000
,
00010000
00000100
00001000
00000010
00001000
00000001
00000100
00000000
,
00000001
00000010
00000100
00001000
,
00000100
00010000
00001000
00000000
00010000
00000000
00001000
00000000
,
01000000
00001000
00010000
00001000
,
01000000
00000000
00100000
10000000
00010000
00000000
01100000
00000000
;

//--------------- dance-double - X23 ----------------
#NOTEDATA:;
#STEPSTYPE:dance-double;
#DESCRIPTION:X23;
#DIFFICULTY:Medium;
#CREDIT:X23;
#METER:11;
#RADARVALUES:0,0,0,0,0;
#NOTES:
00000000
00000000
00000000
00000000
,
00000000
00000000
00000000
00000000
,
00100000
00000000
00001000
00000000
00010000
00000100
00010000
00000100
00001000
00000000
00000010
00000000
00010000
00001000
00010000
00001000
,
01000000
00100000
00010000
00100000
10000000
00010000
00200000
00000000
,
00301000
00000000
00000000
00000000
00000000
00000000
00010000
00000000
00000100
00000000
00001000
00000000
00000010
00000000
00000000
00000001
00000000
00000000
00000010
00000000
00000000
00001000
00000000
00000000
,
00000100
00000000
00000000
00000000
00000000
00000000
00010000
00000000
00001000
00000000
00100000
00000000
00010000
00000000
00000000
10000000
00000000
00000000
01000000
00000000
00000000
00100000
00000000
00000000
,
00110000
00000000
00011000
00000000
00001010
00000010
00001001
00000000
,
00001010
00000000
00000010
00000000
00010000
00000000
00001000
01000000
,
00100000
00000000
01000000
00000000
00010000
00000000
00100000
00001000
,
00010000
00000000
00000100
00000000
00001000
00000000
00000010
00000100
,
00000002
00000000
00001000
00000000
00001000
00000000
00001000
00001003
,
00001001
00000000
00000100
00000000
00010000
00000000
00001000
01000000
,
00200000
00000000
10300000
00000000
01000000
00000000
00100000
00010000
,
00011000
00000000
00010000
00000000
00001000
00000000
00000010
00000001
,
00002000
00000000
00000000
00000000
00000000
00000000
00003000
00000000
00000101
00000000
00000000
00000000
00000010
00000000
00000000
00000010
,
00000000
00000000
00000010
00000000
00001000
00000000
00010000
00000000
00001000
00000000
01000000
00000000
00100000
00000000
00000000
01000000
,
00010000
00000000
10000000
00000000
00000000
00000000
01000000
00000000
10000000
00000000
00000000
00000000
00010000
00000000
00000000
01000000
,
00000000
01000000
01000000
00010000
00100000
00001000
00020000
00000000
,
00000000
00000000
00000000
00000000
00031000
00000000
00010000
00000000
00001000
00000000
00001000
00000000
00100000
00000000
00000000
00100000
,
00000000
00000000
00100000
00000000
00001000
00000000
00010000
00000000
00000100
00000000
00001000
00000000
00000010
00000000
00000000
00001000
,
00000001
00000010
00000000
00000100
00001000
00000010
00000200
00000000
,
00000000
00002300
00023000
00230000
,
20300000
00000000
00000000
00000000
01000000
00000000
01000000
00000000
31000000
00000000
00000000
00000000
00110000
00000000
00000000
00100000
,
00000000
00000000
00100000
00000000
00001000
00000000
00010000
00000000
00000100
00000000
00000000
00000000
00001000
00000000
00000000
00000010
,
00000100
00000000
00000001
00000000
00000000
00000000
00001000
00000000
00000001
00000000
00000000
00000000
00000010
00000000
00000000
00000100
,
00000000
00001000
00000000
00000000
00000100
00000000
00010000
00000000
,
00010000
00000000
00001000
00000000
00010000
00000000
00000010
00000000
00000100
00000000
00000010
00000000
00001000
00000000
00000000
00001000
,
00000000
00000000
00001000
00000000
00000100
00000000
00010000
00000000
00001000
00000000
01000000
00000000
00100000
00000000
00000000
10000000
,
00010000
00100000
00000000
00100000
01000000
10000000
00010000
01000000
,
10000000
00000000
01000000
00010000
00100000
00000000
00001000
00000000
,
00010000
00000000
00000100
00010000
00001000
00000000
00011000
00000000
,
00000000
00000000
00000000
00000000
00000000
00000000
00010000
01000000
,
00010000
00000000
01000000
00000000
00100000
00000000
10000000
00010000
,
00100000
00000000
00010000
00000000
00011000
00000000
00010000
00000100
,
00010000
00000000
00000100
00000000
00001000
00000000
00000010
00000100
,
00000010
00000000
00001000
00000000
00011000
00000000
00010000
00000100
,
00001000
00000000
00000010
00000000
00000101
00000000
00000001
00000100
,
00000010
00000000
00001000
00000000
00020100
00000000
00031000
01000000
,
00100000
00000000
10000000
00000000
11000000
00000000
01000000
00100000
,
00010000
00000000
00000000
00000000
00100000
00000000
00000000
00000000
00021000
00000000
00000000
00000000
00030010
00000000
00000000
00000010
,
00000000
00000000
00000100
00000000
00000000
00000100
00000000
00000000
00000001
00000000
00000001
00000000
00001000
00000000
00000100
00000000
,
00010000
00000000
00001000
01000000
00100000
00000000
01000000
00010000
,
00100000
00000000
01000000
10000000
00100000
00000000
01000000
00000000
,
01010000
00000000
00000000
00000000
00010000
00000000
00100000
00000000
00001000
00000000
00000000
00000000
00010000
00000000
00000000
00010000
,
00000000
00000000
00000100
00000000
00000000
00000100
00000000
00000000
00001000
00000000
00000000
00000000
00000010
00000000
00000000
00000000
,
00000100
00000000
00000001
00000010
00000100
00000000
00001000
00000100
,
00001000
00000000
00000010
00000100
00000001
00000000
00000001
00000100
,
00001000
00010000
00200000
00000000
01300000
00000000
10020000
00000000
,
20030000
32000000
03020000
00032000
,
00003020
00000000
00000000
00000000
00000032
00000000
00000000
00000000
00000013
00000100
00001000
00001000
00000002
00000000
00000000
00000000
,
00000203
00002300
00023000
00230000
,
01300000
00000000
00010000
00000000
10000000
00000000
01000000
00000000
00100000
00100000
00100000
00000000
10010000
00000000
00000000
10000000
,
00000000
00000000
10000000
00000000
00010000
00000000
00100000
00000000
01000000
00000000
00000000
00000000
00100000
00000000
00000000
00001000
,
00010000
00000000
00001000
00000000
00000000
00000000
00010000
00000000
00000100
00000000
00001000
00000000
00000010
00000000
00000000
00000010
,
00000000
00000020
00000000
00000000
00000100
00000000
00002030
00000000
,
00003100
00000000
00001000
00000000
00000010
00000000
00000100
00000000
00001000
00000000
00010000
00000000
00001000
00000000
00000000
00001000
,
00000000
00000000
00001000
00000000
01000000
00000000
00010000
00000000
00100000
00000000
01000000
00000000
10000000
00000000
00000000
00010000
,
00100000
00010000
20000000
00000000
30100000
01000000
00010000
00100000
,
10000000
00000000
10000000
00100000
00010000
00000000
00110000
00000000
,
00011000
00000000
00000100
00000100
00000100
00000000
00011000
00000000
;

//--------------- dance-double - X23 ----------------
#NOTEDATA:;
#STEPSTYPE:dance-double;
#DESCRIPTION:X23;
#DIFFICULTY:Hard;
#CREDIT:X23;
#METER:15;
#RADARVALUES:0,0,0,0,0;
#NOTES:
00000000
00000000
00000000
00000000
,
00000000
00000000
00000000
00000000
,
00001000
00000000
00010000
00000000
00000100
00010000
00001000
01000000
00001000
00000000
00010000
00000000
00001000
00100000
00001000
00010000
,
00000010
00000000
00010000
00000000
00001000
01000000
00100000
10000000
02000000
00000000
00100000
00000000
23000000
00000000
00000000
00000000
,
30020000
00000000
00000000
00000000
00000000
00000000
00130000
00000000
00010000
00000000
00001000
00000000
00000200
00000000
00000000
00010000
00000000
00000000
00002300
00000000
00000000
00003020
00000000
00000000
,
00000230
00000000
00000000
00000000
00000000
00000000
00001300
00000000
00010000
00000000
00100000
00000000
20000000
00000000
00000000
01000000
00000000
00000000
30200000
00000000
00000000
01300000
00000000
00000000
,
10010000
00000000
00110000
00000000
00101000
00010100
00011000
00010000
,
00001100
00000000
00000000
00001000
00000100
00000000
00000000
00000100
00000010
00000001
00000000
00000010
00000001
00000000
00001000
00000000
,
00000010
00000000
00000000
00000100
00000001
00000000
00000000
00001000
00000100
00010000
00000000
00001000
01000000
00010000
00100000
00000000
,
00010000
00000000
00000000
10000000
00010000
00000000
00000000
00010000
00100000
01000000
00000000
00100000
01000000
10000000
00010000
00000000
,
02000000
00000000
00001000
00000000
00010000
00000000
03001000
00010000
,
00010010
00000000
00000000
00000010
00000100
00000000
00000000
00000100
00000010
00010000
00000000
00001000
00010000
00000100
00001000
00000000
,
00000010
00000000
00000000
00000100
00000001
00000000
00000000
00000001
00000010
00000100
00000000
00000010
00000001
00001000
00000100
00000000
,
00010000
00000000
00000000
00001000
01000000
00000000
00000000
01000000
00100000
10000000
00000000
01000000
00100000
00010000
10000000
00000000
,
00020000
00000000
00000000
00000000
00000000
00000000
00000000
00000000
00000000
00000000
00000000
00000000
00000000
00000000
00000000
00000000
00000000
00000000
00000000
00000000
00000000
00000000
00000000
00000000
00000000
00000000
00000000
00000000
00000000
00000000
00000000
00000000
00000000
00000000
00000000
00000000
00000000
00000000
00000000
00000000
00000000
00000000
00000000
00000000
00000000
00000000
00000000
00000000
10030000
00000000
00000000
01000000
00000000
00000000
00100000
00000000
00000000
00010000
00000000
00000000
00001000
00000000
00000000
00000000
00000000
00000000
00000100
00000000
00000000
00000000
00000000
00000000
00001001
00000000
00000000
00000000
00000000
00000000
00000000
00000000
00000000
00000000
00000000
00000000
00001000
00000000
00000000
00000000
00000000
00000000
00000020
00000000
00000030
00000000
00000000
00000000
,
00000000
00000000
00000000
00000020
00000030
00000000
00000001
00000000
00000000
00000000
00000000
00000000
00000100
00000000
00000000
00000000
00000000
00000000
00001000
00000000
00000000
00000000
00000000
00000000
00010000
00000000
00000000
00000000
00000000
00000000
00100000
00000000
00000000
00000000
00000000
00000000
01000000
00000000
00000000
00000000
00000000
00000000
00000000
00000000
00000000
01000000
00000000
00000000
,
00010000
00000000
00100000
00000000
00000000
00000000
01000000
10000000
00100000
00000000
01000000
00000000
00002000
00000000
00013000
00002000
,
00000000
00013000
00002000
00000000
00013000
00000000
00000100
00000000
00001000
00000000
00000010
00000000
00000200
00000000
00000000
00000000
,
00000000
00000000
00000000
00000000
00000000
00000000
00000000
00000000
00000000
00000000
00000000
00000000
00001300
00000000
00000000
00000000
00000000
00000000
00010000
00000000
00000000
00000000
00000000
00000000
00100000
00000000
00000000
00000000
00000000
00000000
01000000
00000000
00000000
00000000
00000000
00000000
10010000
00000000
00000000
00000000
00000000
00000000
10000000
00000000
00000000
02000000
03000000
00000000
,
00000000
00000000
00000000
02000000
03000000
00000000
00010000
00000000
00000000
00000000
00000000
00000000
10000000
00000000
00000000
00000000
00000000
00000000
01000000
00000000
00000000
00000000
00000000
00000000
00100000
00000000
00000000
00000000
00000000
00000000
00001000
00000000
00000000
00000000
00000000
00000000
00010000
00000000
00000000
00000000
00000000
00000000
00000000
00000000
00000000
00010000
00000000
00000000
,
00000010
00000000
00001000
00000000
00000000
00000000
00000010
00001000
00000001
00000000
00001000
00000000
00000020
00000000
00000000
00000000
,
00000000
00020030
00032000
02003000
,
03200000
00000000
00000000
00000000
00000000
00000000
00000000
00000000
00000000
00000000
00000000
00000000
01000000
00000000
00000000
00000000
00000000
00000000
01000000
00000000
00000000
00000000
00000000
00000000
01300000
00000000
00000000
00000000
00000000
00000000
00000000
00000000
00000000
00000000
00000000
00000000
10010000
00000000
00000000
00000000
00000000
00000000
10000000
00000000
00000000
00200000
00300000
00000000
,
00000000
00000000
00000000
00200000
00300000
00000000
00010000
00000000
00000000
00000000
00000000
00000000
00100000
00000000
00000000
00000000
00000000
00000000
00001000
00000000
00000000
00000000
00000000
00000000
00020000
00000000
00000000
00000000
00000000
00000000
00000000
00000000
00000000
00000000
00000000
00000000
00030100
00000000
00000000
00000000
00000000
00000000
00000000
00000000
00000000
00001000
00000000
00000000
,
00000020
00000000
00000130
00000000
00000000
00000000
00000010
00001000
00000001
00000000
00000010
00000000
00000200
00000000
00010300
00002000
,
00000000
00013000
00000200
00000000
00000000
00000000
00000000
00000000
00020300
00000000
00000000
00000000
00032000
00000000
00000000
00000000
,
00103000
00000000
00000000
00000000
00000000
00000000
00010000
00000000
00000000
00000000
00000000
00000000
00100000
00000000
00000000
00000000
00000000
00000000
00010000
00000000
00000000
00000000
00000000
00000000
00001000
00000000
00000000
00000000
00000000
00000000
00000100
00000000
00000000
00000000
00000000
00000000
00001001
00000000
00000000
00000000
00000000
00000000
00001000
00000000
00000000
00000200
00000300
00000000
,
00000000
00000000
00000000
00000200
00000300
00000000
00000001
00000000
00000000
00000000
00000000
00000000
00001000
00000000
00000000
00000000
00000000
00000000
00000100
00000000
00000000
00000000
00000000
00000000
00010000
00000000
00000000
00000000
00000000
00000000
00001000
00000000
00000000
00000000
00000000
00000000
01000000
00000000
00000000
00000000
00000000
00000000
00000000
00000000
00000000
00100000
00000000
00000000
,
01000000
00000000
00010000
00000000
00000000
00000000
01000000
00100000
01000000
00000000
00010000
00000000
00200000
00000000
00302000
00000000
,
00013000
00001000
00200000
00000000
00010000
00000000
00302000
00000000
,
00023000
00000000
00000100
00000100
00030100
00000000
00011000
00000000
,
00000000
00000000
00000000
00000000
00000000
00000000
00001000
00001000
,
01000000
00000000
00000000
01000000
00100000
00000000
10000000
00000000
00010000
00000000
00100000
00000000
00001000
00000000
00001000
00000000
,
00010000
00000000
00000000
00001000
00010000
00000000
00000010
00000000
00001001
00000000
00000000
00000000
00000001
00000000
00000010
00000000
,
00000010
00000000
00000000
00000001
00000010
00000000
00000100
00000000
00001000
00000000
00000100
00000000
00010000
00000000
00010000
00000000
,
00001000
00000000
00000000
00010000
00001000
00000000
00100000
00000000
00010000
01000000
00010000
01000000
00100000
00000000
00100000
00000000
,
10000000
00000000
00000000
00010000
10000000
00000000
01000000
00000000
00100000
00000000
00001000
00000000
00010000
00000000
00010000
00000000
,
00001000
00000000
00000000
00000000
00000000
00000000
00000000
00000000
00000000
00000000
00000000
00000000
00000000
00000000
00000000
00000000
00000000
00000000
00000000
00000000
00000000
00000000
00000000
00000000
00000000
00000000
00000000
00000000
00000000
00000000
00000000
00000000
00000000
00000000
00000000
00000000
00010000
00000000
00000000
00000000
00000000
00000000
00000000
00000000
00000000
00000000
00000000
00000000
00000010
00000000
00000000
00000000
00000000
00000000
00000000
00000000
00000000
00000000
00000000
00000000
00000000
00000000
00000000
00000000
00000000
00000000
00000000
00000000
00000000
00000000
00000000
00000000
00000010
00000000
00000000
00000000
00000000
00000000
00000000
00000000
00000000
00000000
00000000
00000000
00000000
00000000
00000000
00000000
00000000
00000000
00000000
00000000
00000000
00000000
00000000
00000000
00000100
00000000
00000000
00000000
00000000
00000000
00000000
00000000
00000000
00000000
00000000
00000000
00000000
00000000
00000000
00000000
00000000
00000000
00000000
00000001
00000000
00000000
00000000
00000000
00000000
00000000
00000000
00000000
00000000
00000000
00000000
00000000
00000000
00000000
00000000
00000000
00000100
00000000
00000000
00000000
00000000
00000000
00000000
00000000
00000000
00000000
00000000
00000000
00000010
00000000
00000000
00000000
00000000
00000000
00000000
00000000
00000000
00000000
00000000
00000000
00000000
00000000
00000000
00000000
00000000
00000000
00000000
00000000
00000000
00000000
00000000
00000000
00000010
00000000
00000000
00000000
00000000
00000000
00000000
00000000
00000000
00000000
00000000
00000000
00000000
00000000
00000000
00000000
00000000
00000000
00000000
00000000
00000000
00000000
00000000
00000000
,
00010000
00000000
00000000
00001000
00010000
00000000
00010000
00000000
00001000
00000000
01000000
00000000
00100000
00000000
00100000
00000000
,
10000000
00000000
00000000
00010000
10000000
00000000
01000000
00000000
00200000
00000000
00000000
00000000
00310000
00000000
00100000
00001000
,
00000000
00001000
00010000
00000000
00010000
00000100
00000000
00000100
00010000
00000000
00010000
00000000
00001000
01000000
00001000
00000000
,
00010000
00000000
00000100
00010000
00000100
00000000
00001000
00000100
00001000
00000000
00000010
00000000
00010000
00000000
00001000
01000000
,
00001000
00000000
00010000
00000100
00001000
00000100
00001000
00000100
00000010
00000001
00000010
00000001
00001000
00000010
00000100
00000000
,
00000001
00000000
00000000
00001000
00000100
00000000
00010000
00000000
00001000
00000000
00010000
00000000
00001000
01000000
00000000
01000000
,
00100000
00000000
00100000
10000000
00000000
10000000
00010000
00000000
00100000
00000000
00001000
00000000
00010000
00001000
00010000
00000000
,
00000100
00000000
00000000
00000000
00000000
00000000
00010000
00000000
00000000
00001000
00000000
00000000
00010000
00000000
00000000
00000000
00000000
00000000
00001000
00000000
00000000
00000000
00000000
00000000
01000000
00000000
00000000
00010000
00000000
00000000
00100000
00000000
00000000
00010000
00000000
00000000
10000000
00000000
00000000
00000000
00000000
00000000
00010000
00000000
01000000
00000000
00010000
00000000
,
01000000
00000000
00000000
00010000
00100000
00000000
00100000
00001000
00000000
00001000
00010000
00000000
00000100
00001000
00000000
00000010
,
00000000
00000000
00000100
00000000
00000010
00000000
00000000
00000000
00020000
00000000
00000000
00000000
00000000
00000000
00000000
00000000
00030100
00000000
00000000
00000000
00000000
00000000
00000000
00000000
00011000
00000000
00000000
00001000
00000000
00000000
00001000
00000000
,
00010000
00000000
00100000
00000000
10000000
00000000
00100000
00000000
01000000
00000000
00000000
00010000
00100000
00000000
00001000
00000000
00000000
00000000
00010000
00001000
00010000
00000000
00001000
00000000
00010000
00000000
00000000
00010000
00001000
00000000
00000010
00000000
,
00000001
00000000
00000010
00000000
00001000
00000000
00000010
00000000
00000002
00000000
00000000
00000000
00000000
00000000
00000000
00000000
00001003
00000000
00010000
00000000
01000000
00000000
00100000
00000000
10000000
00000000
00000000
10000000
00000000
00000000
10000000
00000000
,
01000000
00000000
00100000
00000000
00010000
00000000
00001000
00000000
00000100
00000000
00000000
00001000
00000010
00000000
00000100
00000000
00000000
00000000
00000010
00000000
00000100
00000000
00000001
00000000
00002000
00000000
00000000
00000000
00000000
00000000
00000000
00000000
,
00003200
00000000
00020300
00000000
00032000
00000000
02003000
00000000
00100000
03100000
02000000
00000000
03010000
00000000
00100000
00001000
,
00000000
00010000
00000010
00000000
00000100
00000001
00000010
00000000
00000200
00000000
00000000
00000000
00010300
00000000
00000000
00010000
,
00001000
00000000
01000000
00000000
00000000
00000000
01000000
00100000
10000000
00000000
01000000
00000000
00200000
00000000
00300000
00200000
,
00000000
00300000
00002000
00000000
00000000
00000000
00000000
00000000
00100000
00000000
00000000
00000000
00023000
00000000
00000000
00000000
,
00031000
00000000
01000000
00000000
00010000
00000000
00100000
00000000
00001000
00000000
00010000
00000000
00000010
00000000
00000010
00000100
,
00000000
00000010
00001000
00000000
00000100
00000010
00000001
00000000
00000010
00000000
00000001
00000000
00001000
00000000
00000000
00000010
,
00001000
00000000
00000100
00000000
00010100
00000000
00000000
00000000
00010000
00000000
00001000
00000000
01000000
00100000
10000000
00000000
,
01000000
00000000
00000000
00000000
00100000
00001000
00010000
00000000
00001000
00000000
00000000
00000000
00011000
00000000
00000000
00000000
,
00010100
00000000
00001000
00001000
00001000
00000000
00011000
00000000
;
