#TITLE:Brother Louie '98;
#SUBTITLE:;
#ARTIST:Modern Talking feat. Eric Singleton;
#TITLETRANSLIT:;
#SUBTITLETRANSLIT:;
#ARTISTTRANSLIT:;
#GENRE:;
#CREDIT:Braeden;
#MUSIC:Brother Louie '98.ogg;
#BANNER:;
#BACKGROUND:;
#CDTITLE:;
#SAMPLESTART:31.510;
#SAMPLELENGTH:10.160;
#SELECTABLE:YES;
#OFFSET:-0.038;
#BPMS:0.000=118.088;
#STOPS:;
#JACKET:jacket.png;
#BGCHANGES:;
#FGCHANGES:;

//--------------- dance-single - ----------------
#NOTES:
     dance-single:
     :
     Beginner:
     3:
     0,0,0,0,0:
0000
0000
0000
0000
,
0000
0000
0000
0000
,
0000
0000
1000
0000
,
0001
0000
0100
0100
,
0000
0000
0010
0000
,
1000
0000
0001
0001
,
0000
0000
1000
0000
,
0010
0000
0100
0100
,
0000
0000
0001
0001
,
0000
0100
0000
0010
,
0000
1000
0000
0010
,
0000
0100
0000
0001
,
0000
1000
0000
0010
,
0000
0100
0000
0001
,
0000
1000
0000
0100
,
0000
0010
0010
0000
,
0000
0000
0001
0000
,
1000
0000
0010
0010
,
0000
0000
0100
0000
,
0001
0000
0100
0100
,
0000
0000
0001
0000
,
1000
0000
0100
0100
,
0000
0000
1000
0000
,
0001
0000
0010
0010
,
0000
0000
0001
0001
,
0000
0000
1000
1000
,
0000
0000
0010
0000
,
0000
0000
0100
0000
,
0000
0000
0001
0001
,
0000
0000
1000
1000
,
0000
0000
0010
0000
,
0000
0000
0100
0000
,
0001
0000
1001
0000
,
1000
0000
0010
0010
,
0000
0000
0100
0000
,
0001
0000
0010
0010
,
0000
0000
0100
0000
,
1000
0000
0010
0010
,
0000
0000
0100
0000
,
0001
0000
1000
1000
,
0000
0000
0001
0000
,
0000
0000
1001
0000
,
1000
0000
0001
0000
,
0000
0000
0010
0000
,
0100
0000
0010
0000
,
0000
0000
0001
0000
,
1000
0000
0010
0000
,
0000
0000
1000
0000
,
0001
0000
0010
0000
,
0000
0000
0001
0001
,
0000
0000
0100
0100
,
0000
0000
0010
0000
,
1000
0000
0001
0000
,
0100
0000
0001
0001
,
0000
0000
0001
0001
,
0000
0000
0100
0000
,
0010
0000
0100
0000
,
0010
0000
1001
0000
,
0000
1001
0000
0000
;

//--------------- dance-single - ----------------
#NOTES:
     dance-single:
     :
     Easy:
     6:
     0.128,0.134,0.09,0,0:
0000
0000
0000
0000
,
0000
0000
0000
0000
,
0000
0000
1000
0000
,
0001
0000
0100
0010
,
0100
0000
0001
0000
,
1000
0000
0001
0100
,
0001
0000
1000
0000
,
0100
0000
0010
0001
,
1000
0000
1001
0001
,
1000
0010
1000
0100
,
0010
0001
0010
0010
,
0100
0100
0010
0010
,
0001
1000
0010
1000
,
0000
0001
1000
0100
,
0010
0001
1000
0010
,
0100
0001
1001
0000
,
1000
0001
0100
0010
,
1000
0000
0001
0000
1000
0001
1000
0000
,
0001
0010
0100
1000
,
0001
0000
0100
0000
0010
1000
0010
0000
,
1000
0001
0010
0100
,
1000
0000
0001
0000
0100
0010
0100
0000
,
0001
1000
0100
0010
,
0001
0000
1000
0000
0001
0100
0001
0000
,
0100
0000
0010
0000
1000
0001
1000
0000
,
0000
0002
0000
0000
1003
0010
1000
0000
,
0001
0010
0100
0010
,
0001
1000
0001
0010
,
0100
0000
1000
0000
0001
0100
0001
0000
,
0000
0200
0000
0000
0301
1000
0001
0000
,
1000
0001
0010
0100
,
0010
0001
1000
0010
,
0100
0001
1001
1000
,
0010
0000
0100
0000
0001
0100
0001
0000
,
0100
0010
1000
0100
,
0010
0000
0001
0000
1000
0010
0100
0000
,
0001
0010
0100
0010
,
0100
0000
1000
0000
0001
0100
0010
0000
,
1000
0100
0010
0100
,
1000
0000
0001
0000
0100
0010
1000
0000
,
0001
1000
0001
0000
,
0100
0000
0001
0100
,
0001
0100
0010
0010
,
1000
0001
0010
0100
,
1000
0001
0100
0010
,
1000
0100
0010
0100
,
1000
0001
0100
0001
,
1000
0001
0010
0100
,
0010
0100
0010
0001
,
1000
0000
0010
0000
1000
0001
1000
0000
,
0001
0000
0100
0000
0010
1000
0001
0000
,
1000
0100
0010
0001
,
0100
0010
1000
0001
,
0010
0000
0100
0000
1000
0001
1000
0000
,
0010
0000
0100
0000
0001
1000
0010
0000
,
1000
0001
0010
0001
,
1000
0010
0100
0001
,
0100
0010
1001
1000
,
0001
0110
0000
0000
;

//--------------- dance-single - ----------------
#NOTES:
     dance-single:
     :
     Medium:
     9:
     0.213,0.201,0.057,0.131,0:
0000
0000
0000
0000
,
0000
0000
0000
0000
,
0000
0000
1000
0001
1000
0000
0001
0100
,
0001
0000
1000
0000
0001
0001
0001
0000
,
1000
0000
0001
0100
0001
0000
1000
0100
,
0010
0000
0001
0000
0100
0100
0100
0000
,
0010
0000
1000
0001
1000
0000
0001
0100
,
0001
0000
1000
0000
0001
0001
0001
0000
,
1000
0000
0001
0000
1000
0100
1000
0001
,
0010
0001
1000
0000
0001
0100
0010
0000
,
1000
0001
1000
0000
0010
0010
0010
0000
,
0100
0100
0100
0000
0001
0001
1000
0000
,
0010
0010
0100
0000
0001
1000
0001
0000
,
0100
0010
0100
0000
0001
1000
0100
1000
,
0001
0010
0001
0000
1000
0000
1100
0000
,
0100
0010
0001
0000
2002
0000
3003
0000
,
1000
0000
0001
0100
0002
0000
1003
0010
,
2000
0000
3001
1000
0010
0010
0010
0000
,
1000
1000
0001
0100
0020
0000
1030
0100
,
0010
0000
0001
1000
0001
0010
0001
0100
,
0010
0010
1000
0001
2000
0000
3001
0010
,
0002
0000
1003
0001
0100
0100
0100
0000
,
0001
0001
1000
0100
0020
0000
0031
0010
,
0200
0000
0310
0100
1000
0001
1000
0000
,
0001
0000
1001
0000
1000
1000
1000
0000
,
0001
2000
0000
3010
1000
0001
1000
0000
,
0001
0000
0100
0000
0001
1000
0010
0010
,
0000
0000
2000
0000
3001
0010
0100
1000
,
0001
0000
1000
0001
0100
0100
0100
0000
,
0100
0002
0000
0000
1003
1000
0100
0000
,
1000
0000
0002
0000
1003
0001
0100
0010
,
1000
0000
0002
0000
1003
0010
1000
0001
,
1000
0000
0001
0000
1001
0000
0001
0100
,
0001
0000
1000
0010
1000
1000
1000
0000
,
0001
0001
1000
0010
1000
0000
0001
0010
,
0100
0000
1000
0001
1000
1000
1000
0000
,
0001
0100
0001
0010
0100
0000
1000
0001
,
1000
0000
0001
0100
0010
0010
0010
0000
,
1000
1000
0001
0100
0001
0000
1000
0100
,
0010
0000
0001
1000
0001
0001
0001
0000
,
1000
0010
1000
0000
0002
0000
0203
0000
,
0310
1000
0002
0103
,
0010
0000
1000
0000
0001
0001
0001
0000
,
0100
0010
0100
0000
0002
0000
1003
0100
,
1000
0000
0001
0000
0010
0100
1000
0000
,
0001
0001
1000
0000
2000
0000
3001
0000
,
0200
0000
0301
0000
0010
0010
0010
0000
,
0100
0100
1000
0000
0002
0000
0103
0000
,
0020
0000
1030
0000
0001
1000
0010
0000
,
1000
0000
0001
0000
0100
0100
0100
0000
,
0010
2000
0000
3001
0010
0100
1000
0001
,
1000
0000
0010
0000
0100
0001
0100
0001
,
1000
0000
0002
0000
0013
0001
1000
0010
,
1000
0000
0001
1000
0100
0100
0100
0000
,
0010
0002
0000
0000
1003
0010
0100
0001
,
1000
0000
0002
0000
1003
0100
1000
0010
,
0100
0000
0001
0000
0010
0100
1000
0001
,
0100
0000
0010
0000
1001
0000
0001
1000
,
0010
1000
2000
0000
3000
0000
0000
0000
;

//--------------- dance-single - ----------------
#NOTES:
     dance-single:
     :
     Hard:
     12:
     0.346,0.335,0.057,0.098,0:
0000
0000
0000
0000
,
0000
0000
0000
0000
,
0000
0000
1000
0100
0001
0000
1000
0010
,
0001
0000
0000
0000
1000
0000
0001
0000
1000
0010
1000
0010
1000
0000
0001
0000
,
1000
1000
0001
0100
1000
0000
0001
0010
,
1000
0000
0000
0000
0001
0000
0100
0000
0010
1000
0010
1000
0010
0000
0100
0000
,
0001
0001
1000
0010
0001
0000
1000
0100
,
0001
0000
0000
0000
1000
0000
0001
0000
1000
0010
1000
0010
1000
0000
0001
0000
,
0010
0100
1000
0001
0101
0100
0010
1000
,
0001
1000
0010
0000
1000
0100
1000
0001
,
1000
0010
1000
0010
1000
0000
0000
0000
0010
0000
1000
0000
0010
0000
1000
0000
,
0100
1000
0100
0010
0001
0010
0001
1000
,
0010
0000
1000
0000
0001
0000
0000
0000
1000
0010
1000
0010
1000
0010
0000
0100
,
0000
0001
1000
0000
0001
0010
1000
0010
,
0001
0000
0100
0000
0010
0000
0000
0000
1000
0100
0000
1000
0100
0000
0010
0000
,
0001
1000
0010
0000
0110
0000
0100
0000
,
0001
1000
0001
0010
0011
0000
0100
1000
,
0001
0000
0000
0000
1000
0000
0010
0000
0100
0001
1000
0100
1000
0010
0000
0000
,
0100
0100
0001
0010
2000
0000
3001
0100
,
1000
0000
0000
0000
0001
0000
1000
0000
0001
0010
0100
0010
0001
0000
0010
0000
,
0100
0100
1000
0010
0002
0000
1003
0100
,
0001
0000
0000
0000
1000
0000
0010
0000
1000
0100
0010
0001
0010
0100
0000
0000
,
0010
0010
0001
0010
2000
0000
3010
0100
,
2000
0000
0000
0000
3010
0000
0100
0000
0001
1000
0001
1000
0001
0000
0010
0000
,
0100
0000
1000
0000
0001
0000
1000
0000
0001
0010
0100
1000
0100
0010
0000
0000
,
0001
0000
2000
0000
0000
0000
3010
0000
1000
0001
1000
0001
0010
0000
0100
0000
,
1000
1000
0002
0000
0103
1000
0100
0001
,
1000
0000
1002
0000
1003
0010
0100
0001
,
1000
0000
0001
0000
1000
0000
0100
0000
0010
0001
0010
0100
0010
0001
0000
0000
,
1000
0000
0020
0000
0000
0000
0030
0000
0100
0001
0100
0001
1000
0000
0001
0000
,
0100
0010
0002
0000
0013
0100
0001
1000
,
0010
0000
1000
0000
0100
0000
0000
1000
0001
0000
0010
0000
0100
0000
1000
0000
,
0001
0100
0010
1000
1002
0000
1003
0100
,
0001
0000
0000
0000
1000
0000
0010
0000
0001
1000
0001
1000
0001
0000
1000
0000
,
0100
0100
0010
0001
1000
0000
0100
0001
,
0100
0000
0000
0000
1000
0000
0010
0000
0100
0001
0100
0001
0100
0000
0010
0000
,
1000
1000
0001
0010
1000
0000
0010
0001
,
1000
0000
0000
0000
0001
0000
0100
0000
0010
1000
0010
1000
0001
0000
0010
0000
,
0100
0100
1000
0001
0010
0000
1000
0010
,
0001
0000
0000
0000
0100
0000
0010
0000
1000
0001
1000
0001
0010
0000
0100
0000
,
1000
1000
0001
0100
0101
0000
0100
0000
,
0010
1000
0001
1000
0010
0000
1000
0100
,
0010
0000
0000
0000
0001
0000
1000
0000
0010
1000
0010
1000
0010
1000
0000
0000
,
0001
0001
0010
0100
2000
0000
3001
0100
,
0010
0000
0000
0000
1000
0000
0100
0000
0010
0001
0010
0100
1000
0000
0010
0000
,
0100
0100
0001
0010
2000
0000
3010
0001
,
1000
0000
0000
0000
0001
0000
0100
0000
0010
1000
0100
1000
0001
0010
0000
0000
,
0100
0100
0010
0001
2000
0000
3010
0100
,
0010
0000
0000
0000
1000
0000
0001
0000
1000
0100
0010
0001
1000
0000
0010
0000
,
0100
0000
0001
0000
0100
0000
0010
0000
1000
0001
0010
0001
1000
0001
0000
0000
,
0100
0000
0020
0000
0000
0000
1030
0000
0001
0010
0100
1000
0001
0000
0100
0000
,
0010
1000
0002
0000
0103
1000
0100
0001
,
1000
0010
2000
0000
3010
1000
0100
1000
,
0001
0000
1000
0000
0001
0000
0100
0000
0010
1000
0010
0100
0001
1000
0000
0000
,
0001
0000
0020
0000
0000
0000
0030
0000
0100
1000
0100
1000
0001
0000
0100
0000
,
0010
1000
0002
0000
1003
0100
0010
0001
,
1000
0000
0010
0000
0100
0000
0000
0100
0010
0000
1000
0000
0001
0000
0010
0000
,
0100
1000
0001
0100
0110
0000
1010
1000
,
0001
1000
2002
0000
3003
0000
0000
0000
;

//--------------- dance-single - ----------------
#NOTES:
     dance-single:
     :
     Challenge:
     15:
     0.444,0.402,0.163,0.245,0.061:
0000
0000
0000
0000
,
0000
0000
0000
0000
,
0000
0000
0000
0000
0000
0000
0000
0000
1000
0000
0000
0000
0001
0000
0200
0300
0200
0300
0000
0000
1000
0000
0001
0000
1000
0000
0000
0000
0001
0000
0020
0030
,
0020
0030
0000
0000
1000
0000
0001
0000
1000
0000
0000
0000
0001
0000
0010
0000
0100
0000
1000
0000
0100
0000
1000
0000
0001
0000
0000
0000
1000
0000
0010
0000
,
0100
0000
0000
0000
0100
0000
0010
0000
1000
0000
0000
0000
0001
0000
0200
0300
0200
0300
0000
0000
0010
0000
0001
0000
1000
0000
0000
0000
0001
0000
0020
0030
,
0020
0030
0000
0000
0100
0000
0001
0000
1000
0000
0000
0000
0001
0000
0100
0000
0010
0000
1000
0000
0010
0000
1000
0000
0001
0000
0000
0000
1000
0000
0001
0000
,
0100
0000
0000
0000
0100
0000
0010
0000
1000
0000
0000
0000
0001
0000
0020
0030
0020
0030
0000
0000
1000
0000
0001
0000
1000
0000
0000
0000
0100
0000
0020
0030
,
0020
0030
0000
0000
1000
0000
0001
0000
1000
0000
0000
0000
0001
0000
0000
0000
0100
0000
0010
0000
0100
0000
0010
0000
1000
0000
0000
0000
0001
0000
1000
0000
,
0001
0000
0001
0100
0010
0000
1000
0001
1001
0000
1000
0100
0010
0000
0001
0100
,
0001
0010
0100
1000
0001
0100
0000
0000
0010
0000
1000
0001
1000
0000
0100
0010
,
0001
0010
0100
1000
0001
1000
0000
0001
0010
0000
0001
1000
0010
0000
1000
0001
,
0100
0010
1000
0001
0100
0000
0010
1000
0100
0000
0001
0100
0010
0000
0001
1000
,
0100
0010
0001
0100
0010
0000
1000
0000
0001
0100
0001
0100
0010
1000
0000
0010
,
1000
0000
0100
0010
0001
1000
0001
0100
0001
0000
1000
0100
0001
0000
0100
0010
,
0100
1000
0001
0100
0001
0010
0000
0000
0100
1000
0000
0100
1000
0100
0000
0010
,
0001
1000
0010
0100
0001
1000
0000
0001
0101
0000
0100
0010
0100
0000
0001
0000
,
1000
0000
0000
0000
0001
0000
0100
0000
0001
0000
0000
0000
1000
0000
0000
0000
1001
0000
0000
0000
0001
0000
0020
0030
0020
0030
0000
0000
1000
0000
0001
0000
,
1000
0000
0000
0000
0200
0300
0200
0300
0001
0000
0000
0000
1000
0000
0001
0000
0100
0000
0010
0000
0100
0000
1000
0000
0100
0000
0001
0000
1000
0000
0001
0000
,
1000
0000
0000
0000
1000
0000
0010
0000
0100
0000
0000
0000
0001
0000
0200
0300
0200
0300
0000
0000
1000
0000
0001
0000
1000
0000
0000
0000
0001
0000
0020
0030
,
0020
0030
0000
0000
1000
0000
0001
0000
1000
0000
0000
0000
0001
0000
1000
0000
0100
0000
0010
0000
0100
0000
0001
0000
0100
0000
0000
0000
1000
0000
0001
0000
,
0100
0000
0000
0000
0100
0000
0010
0000
1000
0000
0000
0000
0001
0000
0200
0300
0200
0300
1000
0000
0010
0000
0100
0000
0001
0000
0000
0000
0010
0000
0200
0300
,
0200
0300
0000
0000
0001
0000
1000
0000
0001
0000
0000
0000
1000
0000
0100
0000
0010
0000
0100
0000
0001
0000
0100
0000
0010
0000
0001
0000
1000
0000
0001
0000
,
1000
0000
0000
0000
1000
0000
0010
0000
0100
0000
0000
0000
0001
0000
0020
0030
0020
0030
0000
0000
1000
0000
0001
0000
1000
0000
0000
0000
0100
0000
0020
0030
,
0020
0000
0000
0000
0000
0000
0030
0000
0000
0000
0000
0000
0000
0000
0000
0000
0000
0000
0000
0000
0000
0000
0000
0000
1000
0000
0000
0000
0000
0000
0000
0000
0000
0000
0000
0000
0001
0000
0000
0000
0000
0000
0000
0000
0000
0000
0000
0000
1000
0000
0000
0000
0000
0000
0000
0000
0000
0000
0000
0000
0000
0000
0000
0000
0000
0000
0000
0000
0000
0000
0000
0000
0001
0000
0000
0000
0000
0000
0000
0000
0000
0000
0000
0000
1000
0000
0000
0000
0000
0000
0000
0000
0000
0000
0000
0000
0010
0000
0000
0000
0000
0000
0000
0000
0000
0000
0000
0000
0100
0000
0000
0000
0000
0000
0000
0000
0000
0000
0000
0000
1000
0000
0000
0000
0000
0000
0000
0000
0000
0000
0000
0000
0100
0000
0000
0000
0000
0000
0000
0000
0000
0000
0000
0000
0010
0000
0000
0000
0000
0000
0000
0000
0000
0000
0000
0000
0000
0000
0000
0000
0000
0000
0000
0000
0000
0000
0000
0000
0100
0000
0000
0000
0000
0000
0000
0000
0000
0000
0000
0000
0000
0000
0000
0000
0000
0000
0000
0000
0000
0000
0000
0001
,
0001
0000
1000
0001
1000
0000
0001
0000
1000
0100
0001
0100
1000
0100
0010
0001
,
1000
0000
0002
0000
0000
0000
0103
0000
0010
1000
0010
1000
0001
0000
0010
0001
,
1000
0000
1000
0010
0200
0000
0000
0000
0301
0000
1000
0100
1000
0000
0001
0010
,
0001
0000
0100
0010
0200
0000
0000
0000
0301
0000
0010
0000
1000
0000
0010
0000
,
0001
0000
1000
0010
1000
0000
0001
1000
0100
0010
0100
0001
0100
0010
0100
1000
,
0001
0000
0200
0000
0010
0000
0301
1000
0001
1000
0100
1000
0001
0000
1000
0100
,
1000
0000
0001
0010
0002
0000
0000
0000
1003
0000
0010
0000
0001
0000
0010
0000
,
1000
0000
0001
1000
0020
0000
0030
0100
0001
0000
1000
0100
1000
0000
0001
0010
,
0001
0000
0000
0000
1000
0000
0010
0000
0100
0000
0000
0000
0001
0000
1000
0000
1001
0000
0000
0000
0001
0000
0200
0300
0200
0300
0000
0000
1000
0000
0001
0000
,
1000
0000
0000
0000
0001
0000
0020
0030
0020
0030
0000
0000
1000
0000
0001
0000
1000
0000
0100
0000
1000
0000
0100
0000
0010
0000
0000
0000
0001
0000
1000
0000
,
0010
0000
0000
0000
0010
0000
1000
0000
0001
0000
0000
0000
1000
0000
0020
0030
0020
0030
0000
0000
0001
0000
1000
0000
0001
0000
0000
0000
1000
0000
0200
0300
,
0200
0300
0000
0000
0001
0000
1000
0000
0001
0000
0000
0000
1000
0000
0010
0000
0100
0000
0001
0000
0100
0000
0001
0000
1000
0000
0000
0000
0001
0000
1000
0000
,
0010
0000
0000
0000
0010
0000
0100
0000
0001
0000
0000
0000
1000
0000
0200
0300
0200
0300
0000
0000
0001
0000
1000
0000
0001
0000
0000
0000
0020
0030
0020
0030
,
1000
0000
0001
0100
0001
0000
1000
0001
1000
0100
1000
0100
0010
0000
0001
1000
,
0010
0000
0000
0000
0010
0000
1000
0000
0001
0000
0000
0000
0200
0300
0200
0300
1000
0000
0000
0000
0100
0000
0010
0000
0001
0000
0000
0000
0200
0300
0200
0300
,
1000
0000
0001
0100
0010
0000
1000
0001
1000
0100
0010
0001
1000
0000
0001
0100
,
0010
0000
0010
1000
0001
0000
1000
0001
1001
0000
0001
0000
0100
0000
0010
1000
,
0010
0000
0100
0001
0100
0000
0001
0000
1001
0000
1000
0000
0010
0000
0010
0000
,
0100
0000
0001
0000
0010
0000
0010
0000
0100
1000
0100
1000
0001
0100
0000
0000
,
0010
0010
1000
0001
2000
0000
3010
0100
,
0001
0000
0010
0000
0001
0000
1000
0000
0010
0100
0010
0100
0010
0000
1000
0000
,
0001
0001
1000
0100
0020
0000
0031
1000
,
0020
0000
0000
0000
0130
0000
0001
0000
1000
0010
1000
0100
1000
0001
0000
0000
,
0100
0100
0010
1000
0002
0000
1003
0100
,
0020
0000
0000
0000
0031
0000
1000
0000
0010
0100
0001
0100
0010
0000
1000
0000
,
0001
0000
1000
0010
0100
0000
0001
0000
1000
0100
0010
0100
0001
0100
1000
0001
,
1000
0000
0020
0000
1000
0000
0130
0000
0001
0010
0100
1000
0001
0000
1000
0010
,
0100
0000
0001
0100
0020
0000
0000
0000
1030
0000
0010
0000
0100
0000
1000
0000
,
0100
0000
0010
1000
0010
0000
0100
0001
0100
0000
0001
0010
0001
0000
1000
0001
,
1000
0000
0010
0100
0001
0000
1000
0000
0001
0100
0010
0100
1000
0100
0010
1000
,
0001
0000
0200
0000
1000
0000
0301
0000
0100
0010
1000
0001
1000
0000
0100
0010
,
0001
0000
1000
0010
2000
0000
0000
0000
3001
0000
0010
0000
0100
0000
0001
0000
,
0100
0000
0010
0001
2000
0000
3000
0001
0100
0000
0010
1000
0010
0000
1000
0100
,
1000
0000
0001
1000
0001
0000
1000
0001
1001
0000
0000
0000
1010
0000
0010
0000
,
0100
0101
1001
0000
0000
0000
0000
0000
;

//--------------- dance-double - ----------------
#NOTES:
     dance-double:
     :
     Easy:
     6:
     0,0,0,0,0:
00000000
00000000
00000000
00000000
,
00000000
00000000
00000000
00000000
,
00000000
00001000
00010000
00000010
,
00001000
00000000
00000001
00000000
00000100
00000001
00000100
00000000
,
00000010
00010000
00001000
01000000
,
00100000
00000000
10000000
00000000
01000000
00100000
01000000
00000000
,
10000000
00010000
00100000
00001000
,
00010000
00000010
00001000
00000001
,
00000100
00000001
00001001
00000001
,
00001000
00000100
00010000
00001000
,
01000000
00010000
00100000
00100000
,
01000000
01000000
10000000
00010000
,
10000000
00100000
01000000
00001000
,
00010000
00000010
00000100
00000001
,
00000010
00000100
00001000
00000001
,
00001000
00000010
00002002
00000000
,
00003003
00001000
00002001
00003001
,
00000200
00000000
00000310
00000000
00001000
00000100
00001000
00000000
,
00000001
00001000
00000200
00010300
,
00001000
00000000
01000000
00000000
00010000
10000000
00010000
00000000
,
10000000
00010000
00200000
01300000
,
20000000
00000000
30010000
00000000
00100000
00001000
00100000
00000000
,
00001000
00010000
00000020
00001030
,
00000002
00000000
00001003
00000000
00000001
00000100
00000010
00000000
,
00001000
00000000
00000010
00000000
00001000
00000100
00001000
00000000
,
00000000
00000002
00000000
00000000
00001003
00000100
00001000
00000000
,
00000010
00010000
00001000
00010000
,
00000000
00002000
00103000
00101000
,
00001000
00000000
10000000
00000000
00001000
01000000
00100000
00000000
,
00000000
02000000
00000000
00000000
03100000
01000000
00001000
00000000
,
00010000
00000020
00001030
00000001
,
00001000
00000001
00000100
00000010
,
00010000
00001000
00011000
00010000
,
00010000
00000000
00001000
00000000
01000000
00010000
01000000
00000000
,
00100000
10000000
01000000
00010000
,
01000000
00000000
10000000
00000000
00010000
01000000
00010000
00000000
,
00100000
00001000
00010000
00100000
,
00010000
00000000
00001000
00000000
00010000
00000100
00010000
00000000
,
00001000
00010000
00000010
00000100
,
00000001
00000000
00001000
00000000
00000010
00001000
00000010
00000000
,
00001000
00000001
00000200
00000000
,
00000310
00000000
00001001
00000001
,
00000000
00000000
00001000
00000000
00000010
00001000
00000010
00000000
,
00000000
00001000
00000000
00000001
,
00000000
00000000
00001000
00000000
00000100
00001000
00000100
00000000
,
00000000
00010000
00002000
00013000
,
00000200
00000000
00010300
00000000
00001000
00100000
00001000
00000000
,
00100000
00010000
20000000
30100000
,
02000000
00000000
03010000
00000000
10000000
00010000
10000000
00000000
,
00010000
00000000
01000000
00000000
00001000
00100000
00010000
00000000
,
00000000
02000000
00000000
00000000
03010000
01000000
00100000
00000000
,
01000000
00001000
00010000
00000010
,
00000000
00001000
00000001
00001000
,
00000001
00000000
00000100
00000000
00000010
00001000
00000001
00000000
,
00000000
00000200
00000000
00000000
00000301
00001000
00000010
00000000
,
00001000
00000010
00010000
00001000
,
00100000
00010000
10000000
01000000
,
00100000
00010000
00110000
00110000
,
00011000
00001100
00000000
00000000
;

//--------------- dance-double - ----------------
#NOTES:
     dance-double:
     :
     Medium:
     11:
     0,0,0,0,0:
00000000
00000000
00000000
00000000
,
00000000
00000000
00000000
00000000
,
00000000
00000000
00010000
00000010
00010000
00000000
00000001
00001000
,
00000001
00000000
00001000
00000001
00000100
00001000
00000100
00000010
,
00001000
00001000
00000100
00010000
00000100
00000000
00010000
00001000
,
00010000
00000000
00001000
00010000
00100000
00010000
00001000
00010000
,
00000100
00000100
00010000
00001000
01000000
00000000
00100000
10000000
,
00010000
00000000
10000000
01000000
00010000
01000000
00100000
00010000
,
00100000
00100000
00001000
00010000
00011000
00000000
00010100
00000000
,
00010000
00000100
00001000
00000000
00000100
00010000
00000100
00001000
,
00000100
00010000
00001000
00000000
00100000
00000000
00000010
00001000
,
00000100
00000000
01000000
00000000
00010000
10000000
10010000
00000000
,
10000000
00000000
00100000
00000000
10100000
00000000
00000000
00000000
10000000
00000000
01000000
00000000
00100000
00010000
00000000
00100000
,
00010000
00100000
00001000
00000000
00010000
00001000
00000100
00001000
,
00010000
00000100
00001000
00000000
00000100
00000000
00001000
00000010
,
00001000
00000001
00000100
00000000
00000220
00000000
00000000
00000000
,
00000330
00000000
00000001
00000100
00001000
00000100
00000010
00001000
,
00000100
00010000
00001000
00100000
00001000
00001000
00001000
00100000
,
00010000
00010000
10000000
01000000
00010000
01000000
00100000
01000000
,
10000000
00000000
00010000
01000000
00001000
00001000
00001000
00010000
,
00000100
00000100
00001000
00000100
00000001
00000100
00000010
00000100
,
00002000
00000000
00003100
00010000
00001000
00001000
00001000
00100000
,
00010000
00010000
10000000
00100000
00010000
00100000
01000000
00010000
,
00200000
00000000
00301000
00010000
00000100
00000100
00000100
00001000
,
00000001
00000000
00001000
00000000
00000010
00000000
00000100
00000000
00000001
00000010
00000001
00000010
00000001
00000010
00000000
00000000
,
00000001
00000100
00001000
00000100
00000010
00001000
00000100
00010000
,
00001000
00000000
02001000
00000000
03100000
10000000
01000000
00010000
,
01000000
00000000
11000000
00000000
10000000
01000000
00100000
00010000
,
00100000
00000000
00000000
00000000
00001000
00000000
00010000
00000000
00001000
00010000
00001000
00010000
00001000
00010000
00000000
00000000
,
00000100
00001000
00010000
00001000
00000100
00010000
00001000
01000000
,
00010000
00100000
20000000
00000000
30100000
01000000
00100000
00010000
,
10000000
00000000
00010000
00000000
00100000
00000000
00000000
00010000
00100000
00000000
01000000
00000000
00100000
00000000
00010000
00000000
,
00100000
00000000
00001000
00100000
00201000
00000000
00301000
00010000
,
00100000
00000000
00010000
00001000
00010000
00010000
00010000
00000100
,
00001000
00001000
00000001
00000010
00001000
00000000
00000010
00000001
,
00001000
00000000
00000001
00000100
00000010
00000010
00000010
00010000
,
00001000
00001000
00010000
00100000
01000000
00000000
00100000
00010000
,
10000000
00000000
01000000
00100000
00010000
00010000
00010000
00100000
,
00001000
00001000
00010000
00000100
00001000
00000000
00010000
00001000
,
00000100
00000000
00010000
00000010
00001000
00001000
00001000
00000010
,
00000100
00000100
00000001
00000000
00002002
00000000
00003003
00000000
,
00000001
00000000
00001000
00000100
00000020
00000000
00000031
00001000
,
00000020
00000000
00000000
00000000
00001030
00000000
00000100
00000000
00010000
00001000
00010000
00001000
00010000
00001000
00000000
00000000
,
00100000
00100000
00010000
10000000
00200000
00000000
01300000
00010000
,
10000000
00000000
01000000
00100000
00010000
00100000
01000000
10000000
,
00010000
00010000
01000000
00010000
00200000
00000000
00301000
00010000
,
00000020
00000000
00000000
00000000
00001030
00000000
00000001
00000000
00001000
00000001
00001000
00000001
00001000
00000001
00000000
00000000
,
00001000
00001000
00000100
00010000
00002000
00000000
00103000
00010000
,
20000000
00000000
31000000
00100000
00010000
01000000
00100000
10000000
,
00010000
00000000
00000000
00000000
00100000
00000000
00001000
00000000
00010000
00000100
00010000
00000100
00010000
00000100
00000000
00000000
,
00001000
00000100
00000001
00000100
00000010
00000001
00001000
00000010
,
00001000
00000000
00001002
00000000
00000103
00000010
00000100
00001000
,
00000200
00000000
00000301
00000000
00010000
00001000
00010000
00001000
,
00100000
00000000
00000000
00000000
00001000
00000000
01000000
00000000
00010000
00100000
00010000
00100000
00010000
00100000
00000000
00000000
,
00010000
00100000
10000000
00100000
01000000
00100000
00010000
00100000
,
00001000
00000000
00201000
00000000
00301000
00100000
00010000
00001000
,
00010000
00000000
00000000
00000000
00001000
00000000
00000000
00100000
00001000
00000000
00010000
00000000
00000010
00000000
00001000
00000000
,
00001001
00000000
00000001
00000000
00001001
00000000
00000010
00010000
,
00001000
00100000
00000010
00000000
00000000
00000000
00000000
00000000
;

//--------------- dance-double - ----------------
#NOTES:
     dance-double:
     :
     Hard:
     14:
     0,0,0,0,0:
00000000
00000000
00000000
00000000
,
00000000
00000000
00000000
00000000
,
00001000
00000000
00001000
00000000
00010000
00000000
00000010
00001000
00000020
00000000
00000000
00000000
00001030
00000000
00000001
00000100
,
00000020
00000000
00000000
00000000
00001030
00000000
00000001
00000000
00000100
00000010
00000100
00000010
00010000
00000000
00001000
00000000
,
01000000
00000000
01000000
00000000
00010000
00000000
10000000
01000000
20000000
00000000
00000000
00000000
30010000
00000000
00100000
00001000
,
00200000
00000000
00000000
00000000
00301000
00000000
00010000
00000000
00000010
00000100
00000010
00000100
00000010
00000000
00001000
00000000
,
00000001
00000000
00000001
00000000
00001000
00000000
00000100
00010000
00000200
00000000
00000000
00000000
00010300
00000000
00001000
00100000
,
00020000
00000000
00000000
00000000
10030000
00000000
00100000
00000000
10000000
00010000
10000000
00010000
00100000
00000000
00010000
00000000
,
01000000
00000000
01000000
00000000
00010000
00000000
10000000
00010000
10000000
00000000
00010000
01000000
00010000
00000000
00100000
00001000
,
00100000
00000000
00001000
00010000
00001000
00010000
00000000
00000000
00000010
00000000
00000100
00000000
00000010
00000000
00000100
00000001
,
00000100
00000010
00000100
00000001
00001000
00000010
00000000
00010000
00000010
00000000
00100000
00000010
00100000
00000000
00001000
00010000
,
00000100
00000000
01000000
00000100
01000000
00000000
00010000
10000000
00100000
00000000
00100000
01000000
00010000
00000000
00100000
00001000
,
00010000
00000000
00010000
00001000
00100000
00000000
00000000
00000000
00001000
00010000
00001000
00010000
00000100
00001000
00000000
00000010
,
00000100
00000000
00000001
00001000
00000010
00001000
00000001
00000000
00000001
00000000
00001000
00000100
00000001
00000000
00000100
00000000
,
00000010
00000000
00000100
00001000
00000100
00000000
00010000
00000000
00001000
00100000
00010000
01000000
00100000
10000000
00000000
00010000
,
10000000
00000000
00010000
00100000
00001000
00010000
00000000
00000000
00011000
00000000
00010000
00000000
00000100
00000000
00001000
00000000
,
00001000
00000000
00000100
00001000
00000010
00000000
00000100
00000000
00001000
00000000
00000100
00000010
00001000
00000000
00000100
00000000
,
00010000
00000000
00001000
00100000
00010000
00000000
10000000
00000000
00010000
01000000
00010000
10000000
00010000
00100000
00000000
00000000
,
00010000
00000000
00010000
00000000
01000000
00000000
00100000
00000000
00010000
00000000
00100000
01000000
00010000
00000000
00100000
00000000
,
00001000
00000000
00010000
00000100
00010000
00000000
00000010
00000000
00001000
00000001
00001000
00000100
00001000
00000000
00000010
00000000
,
00000100
00000000
00000100
00000000
00000010
00000000
00010000
00000000
00001000
00000000
00000100
00001000
00010000
00000000
00001000
00000000
,
00100000
00000000
00010000
10000000
00020000
00000000
01000000
00000000
10030000
01000000
00100000
00010000
00100000
00001000
00000000
00000000
,
00010000
00000000
00010000
00000010
00000100
00000000
00000001
00000000
00000010
00000000
00001000
00000010
00000100
00000000
00001000
00000000
,
00000100
00000000
00010000
00001000
00010000
00000000
00001000
00000000
01000000
00100000
01000000
00010000
01000000
00000000
00100000
00000000
,
10000000
00000000
00010000
00100000
01000000
00000000
10000000
00000000
01000000
00100000
01000000
00010000
01000000
10000000
00010000
00000000
,
01000000
00000000
00010000
00000000
00110000
00000000
00100000
00000000
00001000
00010000
00001000
00010000
00000100
00000000
00001000
00000001
,
00001000
00000000
00000001
00000100
00002000
00000000
00000000
00000000
00003100
00000000
00000001
00001000
00000010
00000000
00000100
00000001
,
00001000
00000000
00000010
00010000
00002000
00000000
00000000
00000000
00103000
00000000
00010000
01000000
00010000
00000000
10000000
00000000
,
00010000
00000000
00010000
00000000
10000000
00000000
00100000
00000000
00010000
00100000
01000000
00010000
10000000
00010000
01000000
00000000
,
00001000
00000000
00100000
00000000
00101000
00000000
00001000
00000000
00010000
00000010
00001000
00000010
00001000
00000000
00000001
00000000
,
00000100
00000000
00000010
00000000
00000002
00000000
00000000
00000000
00000013
00000000
00000100
00000001
00001000
00000000
00000100
00010000
,
00000100
00000000
00010000
00001000
00200000
00000000
00000000
00310000
00100000
00000000
00010000
10000000
00010000
00000000
10000000
00000000
,
00100000
01000000
00010000
10000000
10010000
00000000
10000000
01000000
,
00010000
00000000
00000000
00000000
00001000
00000000
00000010
00000000
00000001
00001000
00000001
00001000
00000010
00000000
00000100
00000000
,
00000001
00000001
00000001
00000010
00001000
00000000
00010000
01000000
,
10000000
00000000
00000000
00000000
00010000
00000000
10000000
00000000
00010000
10000000
00010000
00100000
00010000
00000000
01000000
00000000
,
01000000
01000000
00001000
00010000
00100000
00000000
00010000
00001000
,
00010000
00000000
00000000
00000000
00000100
00000000
00010000
00000000
00001000
01000000
00001000
00010000
00001000
00000000
01000000
00000000
,
00100000
00100000
10000000
01000000
00010000
00000000
00001000
00000010
,
00000001
00000000
00000000
00000000
00001000
00000000
00000010
00000000
00001000
00000001
00000010
00000001
00001000
00000000
00000010
00000000
,
00001000
00001000
00000010
00001000
00001010
00000010
00000010
00010000
,
00002000
00000000
00103000
00001000
00101000
00000000
00001000
01000000
,
00100000
00000000
00000000
00000000
10000000
00000000
00010000
00000000
10000000
01000000
00100000
00010000
00100000
01000000
10000000
00000000
,
00010000
00010000
01010000
01000000
00000200
00000000
00001300
00000001
,
00001000
00000000
00000000
00000000
00000001
00000000
00000100
00000000
00000010
00001000
00000100
00001000
00000001
00000000
00001000
00000000
,
00000010
00000010
00001000
00000001
00000100
00000000
00000110
00000010
,
00001000
00000000
00000000
00000000
00001010
00000000
00000010
00000000
00010000
00001000
00010000
00000100
00010000
00001000
00010000
00000000
,
00000010
00000010
00001000
00000100
00010000
00000000
00011000
00001000
,
01000000
00000000
00000000
00000000
00100000
00000000
10000000
00000000
00100000
01000000
00010000
01000000
00100000
00000000
10000000
00000000
,
00010000
00000000
10000000
00000000
00010000
00000000
01000000
00000000
00001000
00010000
00001000
00010000
00001000
00010000
00000100
00001000
,
00000100
00000000
00000001
00000000
00000100
00000000
00001000
00000000
00000100
00001000
00000100
00001000
00000001
00000000
00010000
00000000
,
00001000
00001000
02000000
00000000
03100000
10000000
01000000
00010000
,
01000000
00000000
00100000
00010000
20000000
00000000
00000000
00000000
30001000
00000000
00010000
00000010
00010000
00000000
00000010
00000000
,
00001000
00000000
00001000
00000000
00000001
00000000
00001000
00000000
00000001
00000010
00000100
00001000
00000001
00001000
00000100
00001000
,
00000100
00000000
00000001
00000000
00000100
00000000
00001000
00000000
00000100
00010000
00001000
00010000
00001000
00000000
01000000
00000000
,
00100000
00000000
10000000
00000000
20010000
00000000
00000000
00000000
30010000
00000000
01000000
00000000
00100000
00000000
00010000
00100000
,
01000000
00000000
00001000
00010000
00000200
00000000
00000000
00010300
00000010
00000000
00000100
00000001
00001000
00000000
00000010
00010000
,
00001000
00100000
00001000
01000000
01001000
00000000
00001000
00001000
,
00010000
00010000
00022000
00000000
00033000
00000000
00000000
00000000
;
