#TITLE:BOOGIEWORLD 1998;
#SUBTITLE:;
#ARTIST:Z-I-v Sound Team "K1998";
#TITLETRANSLIT:;
#SUBTITLETRANSLIT:;
#ARTISTTRANSLIT:;
#GENRE:Absolute Penis Music;
#CREDIT:;
#MUSIC:boogieworld 1998.ogg;
#BANNER:boogieworld 1998 bn.png;
#BACKGROUND:boogieworld 1998 bg.png;
#CDTITLE:;
#SAMPLESTART:37.161;
#SAMPLELENGTH:10.000;
#SELECTABLE:YES;
#OFFSET:0.000;
#BPMS:0.000=77.500
,8.000=155.000
,52.000=77.500
,53.000=155.000
,82.000=77.500
,83.000=155.000
,133.000=77.500
,133.250=155.000
,133.500=310.000
,134.000=155.000
,170.000=77.500
,172.000=155.000
,187.000=77.500
,187.250=155.000
,187.500=310.000
,188.000=155.000
,232.500=38.750
,233.000=155.000
;
#STOPS:52.000=0.774
,81.000=0.194
,81.500=0.194
,231.500=0.774
,232.500=2.710
;
#DISPLAYBPM:155.000;
#BGCHANGES:7.800=BOOGIEWORLD 1998.avi=1.000=0=0=1===CrossFade_Fastest==,
232.500=boogieworld 1998 bg.png=1.000=0=0=1,
99999.000=-nosongbg-=1.000=0=0=0=StretchNoLoop====
;
#FGCHANGES:;

//--------------- dance-single - KAYSTAR ----------------
#NOTES:
     dance-single:
     KAYSTAR:
     Beginner:
     4:
     0,0,0,0,0:
0000
0000
0000
0000
,
0000
0000
0000
0000
,
2000
3000
0000
0000
,
0000
0020
0030
0000
0020
0030
0000
0000
,
0200
0300
0000
0000
,
0000
0000
0000
0002
0000
0003
0000
0000
,
1000
1000
0000
0100
,
0000
0000
1001
0000
,
0001
0001
0000
0100
,
0000
0000
1001
0000
,
2000
0000
0000
0000
0000
0000
0000
0000
0000
0000
0000
0000
0000
0000
0000
3000
0000
0000
0000
0000
0000
0000
0000
0000
0000
0000
0000
0000
0000
0000
0000
0000
0000
0000
0000
0000
0000
0000
0000
0000
0000
0000
0000
0000
0000
0000
0000
0000
0000
0000
0000
0000
0000
0000
0000
0000
0000
0000
0000
0000
0000
0000
0000
0000
,
0020
0030
0000
0000
,
0200
0300
0000
0000
,
0001
0000
1000
1000
,
1000
0000
0100
0000
,
0010
0000
0001
0001
,
0001
0000
0000
1001
,
0000
2000
3000
0000
,
0000
0200
0300
0000
,
0000
0020
0030
0000
,
0000
0001
0000
1000
,
1000
1000
0000
0000
,
0010
0010
0000
0100
,
0100
0100
0000
0000
,
0001
0001
0000
0010
,
0010
0010
0000
0000
,
0100
0100
0000
1000
,
1000
0000
1000
0000
0000
0000
0000
0010
,
0000
0010
0000
0000
0000
0000
0100
0000
0000
0100
0000
0000
0200
0000
0000
0000
,
0000
0300
0000
0000
,
0002
0003
0000
0000
,
2000
3000
0000
0000
,
0002
0003
0000
0000
,
1000
1000
0000
0000
,
0000
0000
0000
0000
0001
0000
0000
0001
,
0000
0001
0000
0000
0100
0000
0000
0100
,
0000
0100
0000
0000
0010
0000
0000
0010
,
0000
0010
0000
0000
2000
0000
0000
0000
,
3000
0000
0000
0000
1001
0000
0000
0100
,
0000
0100
0000
0000
1001
0000
0000
0010
,
0000
0010
0000
0000
1001
0000
0000
0100
,
0000
0100
0000
0000
0001
0000
0000
0000
,
1000
0000
0010
0000
,
1000
1000
1000
0000
,
0010
0000
0100
0000
,
1000
1000
1000
0000
,
0100
0000
0000
1001
,
0000
0001
0001
0000
,
0010
0000
0100
0000
,
0001
0000
0100
0000
,
1000
1000
1000
0000
,
0001
0001
0001
0001
,
0000
0100
0100
0100
,
0000
0010
0010
0000
,
1000
1000
1000
1000
,
2000
0000
0000
3000
,
0000
0200
0000
0300
0000
0000
0000
0000
,
0020
0030
0000
0000
,
0000
0002
0003
0000
0000
0000
0000
0000
;

//--------------- dance-single - KAYSTAR ----------------
#NOTES:
     dance-single:
     KAYSTAR:
     Easy:
     9:
     0,0,0,0,0:
0000
0000
0000
0000
,
0000
0000
0000
0000
,
2000
0000
3010
1000
0100
0000
1000
0000
,
0000
0010
0020
0000
0130
0000
0110
0000
,
0002
0000
0013
0001
0100
0000
0001
0000
,
0000
0000
0000
0000
0000
0000
0000
0000
0000
0000
0000
0000
0000
0000
0000
0000
0000
0000
0000
0000
0000
0000
0000
0000
0000
0000
0000
0000
0000
0000
0000
0000
0000
0000
0000
0000
2002
0000
0000
0000
0000
0000
0000
0000
0000
0000
0000
0000
0000
0000
0000
0000
0000
0000
0000
0000
0000
0000
0000
0000
0000
0000
0000
0000
0000
0000
0000
0000
0000
0000
0000
3003
0000
0000
0000
0000
0000
0000
0000
0000
0000
0000
0000
0000
0000
0000
0000
0000
0000
0000
0000
0000
0000
0000
0000
0000
,
1000
0000
0010
0000
0100
0100
0001
0000
,
1000
0100
0001
0010
,
1000
0000
0001
0000
0100
0100
0001
0000
,
1000
0100
0001
0010
,
2000
0000
3001
0000
1000
0010
0100
0000
,
0002
0000
1003
0000
0001
0010
0100
0000
,
2000
0000
3001
0000
1000
0010
0100
0000
,
0001
0000
0000
1000
1000
0000
0100
0000
,
0010
1000
0001
0100
,
1000
0000
0000
0001
0001
0000
0100
0000
,
0010
0001
1000
0100
,
0001
0000
2000
0000
3010
0000
1000
0100
,
0010
0000
0002
0000
0103
0000
0001
0010
,
0100
0000
2000
0000
3010
0000
1000
0100
,
0010
0001
0000
1000
,
0010
0000
0000
1000
0000
0000
0000
0000
0100
0000
0000
0000
0000
0000
0001
0000
,
0000
0100
0000
0000
1000
0000
0000
0000
1001
0000
0000
0000
0001
0000
0000
0000
,
0010
0000
0000
0001
0000
0000
0000
0000
0100
0000
0000
0000
0000
0000
1000
0000
,
0000
0100
0000
0000
0002
0000
0000
0000
0000
0000
0000
0000
1003
0000
0000
0000
,
0100
0000
0000
0010
0000
0000
0000
0000
1000
0000
0000
0000
0000
0000
0010
0000
,
0000
0001
0000
0000
0100
0000
0000
0000
1001
0000
0000
0000
0001
0000
0000
0000
,
0100
0000
0000
0010
0000
0000
0000
0000
0001
0000
0000
0000
0000
0000
0010
0000
,
0000
0010
0000
0000
0000
0000
1000
0000
0000
1000
0000
0000
0002
0000
0000
0000
,
0000
1003
0000
0000
,
0100
1000
0100
0000
0000
0000
0000
0000
0000
0000
0000
0000
0000
0000
0000
0000
,
1000
0100
1000
0000
0000
0000
0000
0000
0000
0000
0000
0000
0000
0000
0000
0000
,
0100
1000
0100
0000
0000
0000
0000
0000
0000
0000
0000
0000
0000
0000
0000
0000
,
1000
0100
1000
0000
0002
0003
0000
0000
0000
0000
0000
0000
0000
0000
0000
0000
,
0000
0000
0000
0000
0100
0001
0100
0001
,
0000
1000
0000
1000
0001
0010
0001
0010
,
0000
0001
0000
0001
1000
0010
1000
0010
,
0000
0100
0100
0000
0001
0010
0100
1000
,
0100
0010
0001
0000
1000
0100
0001
0000
,
0100
0000
1000
0000
0001
0010
1000
0000
,
0010
0000
0001
0000
1000
0010
0001
0000
,
0010
1000
0100
0001
,
0010
0000
1000
0000
0002
0003
0000
0000
,
1000
0010
1000
0100
,
0010
0100
0010
0000
0100
1000
0100
0000
,
1000
0010
0100
1000
,
0100
0000
0010
0000
0100
0000
0000
0000
0001
0000
0000
0000
2002
3003
0000
0000
,
0001
0010
0001
0100
,
0010
0100
0010
0000
0100
0001
0100
0000
,
0001
0000
1000
0000
,
0001
0010
0100
1000
,
0010
0100
0010
0100
0010
0100
0001
0010
,
0000
0100
0010
0100
0010
0100
1000
0010
,
0000
0100
0010
0100
0010
0100
0001
0010
,
0001
0100
0010
1000
,
0200
0000
0000
0310
,
0000
0000
0001
0000
0000
1000
0000
0000
0020
0000
0000
0000
0130
0000
0000
0000
,
0002
0000
0000
1003
,
0000
2002
3003
0000
0000
0000
0000
0000
;

//--------------- dance-single - KAYSTAR ----------------
#NOTES:
     dance-single:
     KAYSTAR:
     Medium:
     13:
     0,0,0,0,0:
0000
0000
0000
0000
,
0000
0000
0000
0000
,
2000
0000
0000
3100
1000
0000
0001
0000
0001
0000
0000
0000
0100
0010
0100
0000
,
0000
0000
1000
0000
1000
0000
0000
0000
0100
0010
0100
0000
0001
0000
0000
0000
,
2000
0000
0000
3010
1000
0000
0001
0000
0001
0000
0000
0000
0010
0100
0010
0000
,
0000
0000
0000
0001
1000
0000
0020
0000
0000
0000
0000
0000
0000
0000
0000
0000
,
0130
0000
1001
0000
1000
0010
0001
0000
,
0010
0000
0100
0001
0000
0001
0100
0000
1000
0000
0100
0000
0001
0000
0000
0000
,
0010
0000
1001
0000
0001
0010
1000
0000
,
0010
0000
0100
1000
0000
1000
0100
0000
0001
0000
0100
0000
1000
0000
0000
0000
,
0020
0000
0000
0130
0010
0000
0000
0000
1000
0000
0100
0000
0001
0000
0000
0000
,
0200
0000
0000
0310
0100
0000
0000
0000
1000
0000
0010
0000
0001
0000
0000
0000
,
0020
0000
0000
0130
0010
0000
0000
1000
0000
1000
0001
0000
0000
0010
0000
0000
,
1001
0000
0000
0000
0000
0000
1000
0000
1000
0000
0000
0010
0000
0010
0100
0000
,
1000
0000
0000
0000
0100
0000
0010
0000
0010
1000
0000
0000
0100
0000
0010
0000
,
1000
0000
0010
0000
0000
0000
0001
0000
0001
0000
0000
0100
0000
0100
0010
0000
,
0001
0000
0000
0000
0010
0000
0100
0000
0100
0001
0000
0000
0010
0000
0100
0000
,
1000
0000
0001
0000
0200
0000
0000
1300
0100
0000
0000
0000
0010
0000
1000
0000
,
0100
0000
0000
0000
0020
0000
0000
1030
0010
0000
0000
0000
0001
0000
0100
0000
,
0010
0000
0000
0000
0020
0000
0000
0031
0010
0000
0000
0000
0100
0000
0010
0000
,
1000
0000
1001
0000
0000
0000
1000
0100
,
0010
0000
0000
1000
0000
0000
0010
0000
0001
0000
0100
0000
0000
0000
1000
0000
,
0000
0100
0000
0000
0001
0000
1000
0100
1000
0000
0001
0000
0100
0000
0100
0000
,
0010
0000
0000
0001
0000
0000
0010
0000
1000
0000
0100
0000
0000
0000
0001
0000
,
0000
0100
0000
0000
1000
0000
0001
0100
0002
0000
0000
0000
1003
0000
0100
0000
,
0010
0000
0000
1000
0000
0000
0010
0000
0001
0000
0100
0000
0000
0000
1000
0000
,
1000
0100
0000
0000
0010
0000
1000
0001
1000
0000
0100
0000
1000
0000
0001
0000
,
0100
0000
0000
1000
0000
0000
0100
0000
0001
0000
0010
0000
0000
0000
1100
0000
,
0000
0101
0000
0000
0000
0000
1010
0000
0000
0011
0000
0000
2002
0000
0000
0000
,
3003
0000
0000
0000
1000
0000
0100
0000
0100
1000
0000
0000
0100
0000
0000
0000
,
1000
0001
1000
0000
0000
0000
0001
0000
0001
0100
0000
0000
0001
0000
0000
0000
,
1000
0001
1000
0000
0010
0000
0100
0000
0100
0010
0000
0000
0100
0000
0000
0000
,
0001
1000
0001
0000
0000
0000
0010
0000
0010
0100
0000
0000
0010
0000
0000
0000
,
0001
1000
0001
0000
0000
0000
0000
0000
1000
0000
0010
0000
0100
0000
0001
0000
,
0010
0000
1000
0000
0010
0000
0001
0000
0100
0000
0000
0010
1000
0000
0100
0000
,
0001
0000
0100
0000
1000
0000
0000
0000
0001
0000
0000
0010
0001
0000
0100
0000
,
1000
0000
0100
0000
0001
0000
0000
0000
1000
0000
0000
0100
0010
0000
1000
0000
,
0010
0001
0100
0000
1000
0100
0001
0010
,
1000
0000
0000
0000
0010
0000
0000
0000
0001
1000
0001
0000
0100
0000
0010
0000
,
1000
0000
0100
0000
0001
0000
0000
0000
0100
0010
0100
0000
1000
0000
0001
0000
,
0100
0000
0010
0000
0001
0000
0000
0000
0010
0100
0010
0000
1000
0000
0100
0000
,
0010
0000
0001
0000
0100
0000
0000
0000
1000
0100
0000
0000
0010
0100
0000
0000
,
0001
0100
0000
0000
0001
1000
0001
0000
2000
0000
3000
0000
0000
0000
0000
0000
,
1000
0000
0010
0000
0100
0000
1000
0000
1000
0000
0100
0010
0000
0000
0000
0000
,
1000
0100
0010
1000
0010
0100
1000
0000
,
0010
0100
0000
0100
0000
0000
1000
0000
0100
0000
0001
0000
0100
0000
0000
0000
,
0010
0000
1000
0010
0000
0010
1000
0000
0100
0000
0010
0000
0002
0000
0003
0000
,
0001
0000
0010
0000
0100
0000
0001
0000
0001
0000
0100
0010
0000
0000
0000
0000
,
0001
0100
0010
0001
0010
0100
0001
0000
,
0010
0000
0000
0000
0001
0000
1000
0100
0000
0100
1000
0000
0010
0000
0000
0000
,
1000
0000
0001
0100
0000
0100
0001
0000
0010
0000
0000
0000
1001
0000
0000
0000
,
1000
0000
0100
0000
0001
0000
0100
0000
1000
0000
0001
0100
0001
0100
0001
0000
,
0000
0000
0100
0000
1000
0000
0100
0000
0001
0000
1000
0010
1000
0010
1000
0000
,
0000
0000
0010
0000
0001
0000
0010
0000
1000
0000
0100
0010
0100
0010
0100
0000
,
0001
0100
0000
0000
0010
0100
0000
0000
1000
0100
0000
0000
1000
0001
1000
0000
,
0002
0000
0000
0000
0000
0100
0103
0000
,
0000
0000
0010
0000
0000
1000
0000
0000
0200
0000
0000
0000
0310
0000
0000
0000
,
0200
0000
0000
0000
1000
0000
0000
1300
0000
0000
0010
0000
0100
0000
0001
0000
,
0000
2002
3003
0000
0000
0000
0000
0000
;

//--------------- dance-single - KAYSTAR ----------------
#NOTES:
     dance-single:
     KAYSTAR:
     Hard:
     16:
     0,0,0,0,0:
0000
0000
0000
0000
,
0000
0000
0000
0000
,
1000
0000
0100
1000
0001
0000
0010
0001
0100
0000
0000
0000
1000
0100
0001
1000
,
0000
0000
0100
0000
1100
0000
0000
0000
1000
0010
1000
0000
0100
0000
0010
0000
,
0001
0000
1000
0001
0100
0000
0010
1000
0100
0000
0000
0000
0001
0100
1000
0001
,
0000
0000
0000
2002
0000
0000
3003
0000
,
1000
0000
0100
1000
0100
0000
1000
0000
0001
0010
0100
0000
0001
0000
0000
1000
,
0010
0000
0100
0010
0000
0001
0010
0000
0001
0000
0100
0000
0010
0000
1000
0000
,
0001
0000
0100
0001
0100
0000
0001
0000
1000
0010
0100
0000
1000
0000
0000
0001
,
0010
0000
0100
0010
0000
1000
0010
0000
1000
0000
0100
0000
0010
0000
0001
0000
,
0200
0000
0000
0000
1300
0000
0000
0100
0001
0000
1000
0010
0000
1000
0000
0000
,
1200
0000
0000
0000
0301
0000
0000
0100
0010
0000
0100
1000
0100
0000
0000
0000
,
0021
0000
0000
0000
1030
0000
0000
0010
0000
0010
0001
0000
0100
0000
0010
0000
,
1001
0000
0000
0000
0000
0000
1000
0000
1000
0000
0010
0100
0000
0100
1000
0000
,
0100
0010
0100
0000
0000
0000
0010
0000
1000
0100
0000
0100
0010
0000
1000
0000
,
0010
0000
0001
0000
0100
0000
0001
0000
0001
0000
0100
0010
0000
0010
0001
0000
,
0010
0100
0010
0000
0000
0000
0100
0000
0001
0010
0000
0010
0100
0000
0001
0000
,
0100
0000
1000
0000
0002
0000
0000
0103
0001
0000
1000
0010
0100
0000
1000
0100
,
0000
0100
0010
0000
2000
0000
0000
3100
1000
0000
0001
0010
0100
0000
0001
0100
,
0000
0100
0010
0000
0002
0000
0000
1003
0001
0000
0100
0010
1000
0000
0100
0001
,
0000
0001
0100
0000
2000
0000
0001
0000
3001
0000
0000
0000
1000
0000
0010
0000
,
1000
0000
1000
0100
0000
0000
0001
0100
0010
0100
1000
0000
0000
0000
0010
0000
,
0100
0010
0000
0010
0001
0000
1000
0100
0010
0100
0001
0000
1000
0000
0010
0000
,
1000
0000
1000
0100
0000
0000
0001
0100
0010
0100
1000
0000
0000
0000
0002
0000
,
0000
0023
0000
0000
1030
0000
0001
0100
1000
0000
0000
0000
0001
0000
0001
0000
,
0100
0000
0100
0010
0000
0000
0001
0010
0100
0010
1000
0000
0000
0000
0100
0000
,
0010
0100
0000
0100
0001
0000
1000
0010
0100
0010
0001
0000
1000
0000
1000
0000
,
0100
0000
1000
0010
0000
0000
0001
0010
0100
0010
1000
0000
0001
0100
0001
0000
,
0000
0101
0000
0000
1000
0100
1000
0000
0000
1100
0000
0000
0001
0010
0100
1000
,
0001
0010
0100
1000
0002
0000
0000
0000
0100
0000
0000
0000
0103
0000
0000
0000
,
0001
1000
0001
0000
0000
0000
2000
0000
0000
0100
0000
0000
3100
0000
0000
0000
,
1000
0001
1000
0001
0200
0000
0000
0000
1000
0000
0000
0000
0310
0000
0000
0000
,
0100
0001
1000
0000
0000
0000
0200
0000
0000
0001
0000
0000
0310
0000
0000
0000
,
0100
1000
0001
0000
0200
0300
0000
0000
0001
0100
0001
0000
1000
0100
1000
0001
,
0000
0001
0100
0000
0100
0010
0000
0010
1000
0000
0100
0000
0001
0000
0100
0010
,
0100
0000
0010
1000
0010
0000
0001
0000
0001
0000
0100
0000
1000
0000
0100
0010
,
0100
0000
0010
0001
0010
0000
0100
0001
1000
0000
0010
0000
1000
0000
0100
0010
,
0100
0000
0000
0000
0000
0000
0001
0000
0000
0100
0000
0000
0010
0000
0000
0000
0000
0000
0001
0000
0000
0000
0000
0000
1000
0000
0000
0000
0000
0000
0010
0000
0000
0000
0000
0000
0001
0000
0000
0000
0000
0000
0200
0300
0000
0000
0000
0000
,
0001
0000
0000
0000
0000
0000
0010
0000
0000
0000
0000
0000
1000
0000
0000
0000
0000
0000
0000
0000
0000
0000
0000
0000
0001
0000
0100
0000
0001
0000
0100
0000
0000
0000
0000
0000
0000
0000
0000
0000
0000
0000
0010
0000
0000
0001
0000
0000
,
0000
0000
0000
0000
0000
0000
0010
0000
0000
0100
0000
0000
0001
0000
0000
0000
0000
0000
1000
0000
0000
0000
0000
0000
0001
0000
0010
0000
0001
0000
0010
0000
0000
0000
0000
0000
0000
0000
0000
0000
0000
0000
1000
0000
0000
0010
0000
0000
,
0000
0000
0000
0000
0000
0000
0100
0000
0000
1000
0000
0000
0001
0000
0000
0000
0000
0000
0001
0000
0000
0000
0000
0000
0100
0000
0010
0000
0100
0000
0010
0000
0000
0000
0000
0000
0000
0000
0000
0000
0000
0000
1000
0000
0000
0100
0000
0000
,
0000
0000
0000
0000
0000
0000
0001
0000
0000
0100
0000
0000
0010
0000
0000
0000
0000
0000
0001
0000
0000
0000
0000
0000
1000
0000
0010
0000
1000
0000
0000
0000
0000
0000
0000
0000
0001
0000
0010
0000
0001
0000
0000
0000
0000
0000
0000
0000
,
1000
0000
0100
0000
1000
0000
0000
0000
0000
0000
0000
0000
0001
0000
0000
0100
0000
0000
0001
0000
0000
0100
0000
0000
0020
0000
0000
0000
0000
0000
0030
0000
0000
0000
0000
0000
0000
0000
0000
0000
0000
0000
0000
0000
0000
0000
0000
0000
,
1000
0010
1000
0100
0000
0100
0010
0000
1000
0010
0100
0010
0000
0100
1000
0000
,
0010
0000
0100
1000
0000
0100
0010
0000
1000
0100
0000
0010
1000
0000
0010
0000
,
0010
0100
0000
1000
0000
0100
1000
0000
0010
0100
1000
0000
0100
0010
1000
0010
,
0100
0000
0010
1000
0000
0100
0010
0000
1000
0010
0000
0010
0002
0003
0000
0000
,
0001
0010
0001
0100
0000
0100
0010
0000
0001
0010
0100
0010
0000
0100
0001
0000
,
0010
0000
0100
0001
0000
0100
0010
0000
0001
0100
0000
0010
0001
0000
0010
0000
,
1000
0000
0100
0000
0001
0000
0100
1000
0000
1000
0001
0100
1000
0000
0000
0000
,
0110
0000
0100
0001
0000
1000
0100
1000
0001
0000
0000
0000
1001
0000
0000
0000
,
1000
0100
1000
0001
0010
0001
1000
0010
0100
0010
1000
0100
0010
0001
1000
0000
,
0000
0000
0100
0001
0100
1000
0001
0100
0010
1000
0100
1000
0010
0100
0001
0000
,
0000
0000
0100
1000
0100
0001
1000
0100
0010
1000
0010
0001
0100
0010
1000
0000
,
0001
0000
0100
0000
0001
0000
0000
0000
0000
0000
0000
0000
1000
0000
0010
0000
1000
0000
0000
0000
0000
0000
0000
0000
0100
0000
1000
0000
0100
0000
0000
0000
0000
0000
0000
0000
0010
0000
0000
0001
0000
0000
0010
0000
0000
0001
0000
0000
,
2000
0000
0000
0000
0010
0000
0000
3001
0000
0000
1000
0000
0010
0000
0100
0000
,
0000
0000
2000
0000
0000
0001
0000
0000
3100
0000
0010
0000
1000
0000
0100
0000
,
0002
0000
0000
0000
1000
0000
0000
0103
0000
0000
0010
0000
0001
0000
0100
0000
,
0000
2002
3003
0000
0000
0000
0000
0000
;

//--------------- dance-double - KAYSTAR ----------------
#NOTES:
     dance-double:
     KAYSTAR:
     Easy:
     9:
     0,0,0,0,0:
00000000
00000000
00000000
00000000
,
00000000
00000000
00000000
00000000
,
00010000
01000000
10000000
00100000
,
00000000
01000000
00001000
00000000
00010000
00000000
00011000
00000000
,
00001000
00000100
00000001
00000010
,
00002000
00000000
00000000
00020000
00000000
00000000
00033000
00000000
,
00010000
01000000
10000000
10010000
,
00010000
00000000
00000000
00100000
00000000
00000000
00001000
00000000
00010000
00000000
00000000
00000000
00011000
00000000
00000000
00000000
,
00001000
00000100
00000001
00001001
,
00001000
00000000
00000000
00000010
00000000
00000000
00010000
00000000
00001000
00000000
00000000
00000000
00011000
00000000
00000000
00000000
,
00020000
01030000
00010000
00001000
,
00020000
00000000
00130000
00000000
00010000
00001000
00010000
00000000
,
00002000
00000000
00003010
00000000
00001000
00010000
00000000
00001000
,
00010000
00000000
10000000
10000000
,
10000000
00100000
00010000
00001000
,
00010000
00000100
00000001
00000001
,
00000001
00000100
00010000
00011000
,
00000000
00000000
00001000
00100000
00001000
00000000
00010000
00000000
,
00010000
00000000
00000010
00001000
00000100
00000000
00010000
00000000
,
00010000
00000000
00001000
01000000
00001000
00000000
00010000
00000000
,
01000000
10000000
00000000
00010000
,
01000000
00000000
00000000
01000000
00000000
00000000
00001000
00000000
00010000
00000000
00000000
00000000
00000000
00000000
00000100
00000000
,
00000000
00000100
00000000
00000000
00001000
00000000
00000000
00000000
00001001
00000000
00000000
00000000
00000001
00000000
00000000
00000000
,
00000100
00000000
00000000
00000100
00000000
00000000
00000010
00000000
00010000
00000000
00000000
00000000
00000000
00000000
00001000
00000000
,
00000000
00100000
00000000
00000000
00020000
00000000
00000000
00000000
10030000
00000000
00000000
00000000
00010000
00000000
00000000
00000000
,
00100000
00000000
00000000
00100000
00000000
00000000
00001000
00000000
00010000
00000000
00000100
00000000
00000000
00000000
00000010
00000000
,
00000000
00000010
00000000
00000000
00000001
00000000
00000000
00000000
00001001
00000000
00000000
00000000
00001000
00000000
00000000
00000000
,
00000010
00000000
00000000
00000010
00000000
00000000
00010000
00000000
00001000
00000000
00000000
00000000
01000000
00000000
00001000
00000000
,
00000000
00001000
00000000
00000000
00010000
00000000
00000100
00000000
00000000
00000100
00000000
00000000
00002000
00000000
00000000
00000000
,
00000000
00003001
00000000
00000000
,
00000001
00001000
00000001
00000000
00000000
00000000
00000000
00000000
00000000
00000000
00000000
00000000
00000000
00000000
00000000
00000000
,
00001000
00010000
00001000
00000000
00000000
00000000
00000000
00000000
00000000
00000000
00000000
00000000
00000000
00000000
00000000
00000000
,
00010000
10000000
00010000
00000000
00000000
00000000
00000000
00000000
00000000
00000000
00000000
00000000
00000000
00000000
00000000
00000000
,
00001000
00010000
00001000
00000000
00000000
00000000
00000000
00000000
00010000
00000000
00000000
00000000
00000100
00000000
00000000
00001000
,
00000000
00000000
00000001
00000000
00000000
00000100
00000000
00000000
00000001
00000000
00001000
00000000
00000001
00000000
00001000
00000000
,
00000000
00000100
00000000
00010000
00001000
00010000
00001000
00010000
,
00000000
01000000
00000000
10000000
00010000
10000000
00010000
01000000
,
00000000
00001000
00020000
00000000
00002000
00000000
00000000
00000000
,
00033000
00000000
00000000
00000000
00010000
00000100
00001000
00000000
,
00000010
00000000
00010000
00000000
00001000
00100000
00010000
00000000
,
01000000
00000000
00001000
00000000
00010000
00000100
00001000
00000000
,
00000010
00000100
00000001
00000001
,
00001000
00000000
00001000
00000000
00000200
00000300
00000000
00000000
,
00010000
01000000
10000000
10000000
,
00100000
01000000
00100000
00000000
10000000
01000000
10000000
00000000
,
00010000
00100000
10000000
00100000
,
01000000
00000000
00010000
00000000
01000000
00000000
00000000
00000000
00100000
00000000
00001000
00000000
00020000
00030000
00000000
00000000
,
00001000
00000100
00000001
00000001
,
00000010
00000100
00000010
00000000
00000001
00000100
00000001
00000000
,
00001000
00000010
00010000
00010000
,
01000000
10000000
00010000
10010000
,
00000000
10000000
01000000
00100000
00010000
00000000
10010000
00000000
,
00000000
00001000
00000100
00000010
00000001
00000000
00001001
00000000
,
00000000
00000100
00010000
00001000
01000000
00000000
10010000
00000000
,
00010000
00010000
10000000
10000000
,
02000000
00000000
03000000
00000000
,
00000000
00000000
10000000
00000000
00000000
10000000
00000000
00000000
00010000
00000000
00000000
00000000
00100000
00000000
00000000
00000000
,
00001000
00000000
00000000
00000000
00001000
00000000
00000000
00010000
00000000
00000000
00000010
00000000
00001000
00000000
00000001
00000000
,
00000000
00002002
00003003
00000000
00000000
00000000
00000000
00000000
;

//--------------- dance-double - KAYSTAR ----------------
#NOTES:
     dance-double:
     KAYSTAR:
     Medium:
     13:
     0,0,0,0,0:
00000000
00000000
00000000
00000000
,
00000000
00000000
00000000
00000000
,
10000000
01000000
00020000
00000000
00001000
00000000
00130000
00010000
,
00001000
00000010
00000001
00000000
00001000
00000000
00001001
00000000
,
00000001
00000100
00002000
00000000
00010000
00000000
00003010
00001000
,
00010000
00000000
00000000
00001000
00020000
00000000
00002000
00000000
00000000
00000000
00000000
00000000
00033000
00000000
00000000
00000000
,
00001000
00000000
00010000
00000000
01000000
00000000
10000000
00000000
00100000
00000000
01000000
00000000
00010000
00000000
00000000
10000000
,
00010000
00000000
00010000
10000000
00000000
10000000
00010000
00000000
01000000
00000000
00001000
00000000
00010000
00000000
00000000
00000000
,
00010000
00000000
00001000
00000000
00000100
00000000
00000001
00000000
00000010
00000000
00000100
00000000
00001000
00000000
00000000
00000001
,
00001000
00000000
00001000
00000001
00000000
00000001
00001000
00000000
00000100
00000000
00010000
00000000
00001000
00000000
00000000
00000000
,
00020000
00000000
00100000
00000000
00031000
00010000
01000000
00010000
,
00002000
00000000
00000010
00000000
00013000
00001000
00000100
00001000
,
00020000
00000000
00100000
00000000
00031000
00010000
00001000
00000010
,
00000001
00000000
00000000
00000000
00000000
00000000
10000000
00000000
10000000
00000000
00000000
00010000
00000000
00010000
01000000
00000000
,
00010000
00000000
00100000
00000000
00000000
10000000
00000000
10000000
00000000
00100000
00000000
00000000
00010000
00000000
01000000
00000000
,
00001000
00000000
00000100
00000000
00000000
00000000
00000001
00000000
00000001
00000000
00000000
00001000
00000000
00001000
00000100
00000000
,
00001000
00000000
00000010
00000000
00000000
00000001
00000000
00000001
00000000
00000010
00000000
00000000
00001000
00000000
00000100
00000000
,
00010000
01000000
10000000
00000000
10010000
00000000
00010000
00001000
,
00000100
00000010
00000001
00000000
00001001
00000000
00001000
00010000
,
01000000
00100000
10000000
00000000
10010000
00000000
10000000
01000000
,
00010000
00001000
00000000
00000000
00000000
00000000
00000101
00000000
,
00001100
00000000
00000000
00000101
00000000
00000000
00000010
00000000
00001000
00000000
00000100
00000000
00000000
00000000
00011000
00000000
,
00000000
00101000
00000000
00000000
00011000
00000000
00010000
00000000
01000000
00000000
10000000
00000000
11000000
00000000
00000000
00000000
,
01010000
00000000
00000000
11000000
00000000
00000000
00100000
00000000
00010000
00000000
01000000
00000000
00000000
00000000
00001000
00000000
,
00001000
00000100
00000000
00000100
00000002
00000000
00000000
00000000
00001003
00000000
00000000
00000000
00001010
00000000
00000000
00000000
,
00000011
00000000
00000000
00001010
00000000
00000000
00001000
00000000
00010000
00000000
01000000
00000000
00000000
00000000
10100000
00000000
,
00000000
00110000
00000000
00000000
10100000
00000000
10000000
00000000
01000000
00000000
00010000
00000000
00001000
00000000
00000000
00000000
,
00011000
00000000
00000000
00011000
00000000
00000000
00100000
00000000
00001000
00000000
00010000
00000000
00000100
00000000
00000002
00000000
,
00000000
00001003
00000000
00000000
00000000
00000000
00002000
00000000
00000000
00013000
00000000
00000000
00010000
00000000
01000000
00000000
,
10000000
00100000
01000000
00000000
01000000
00000000
01000000
00000000
,
01000000
00010000
00010000
00010000
,
01000000
00000000
00001000
00010000
00001000
00000000
00000000
00000000
00010000
00000000
00000000
00000000
00010000
00000000
00000000
00000000
,
00010000
00000100
00000100
00000100
,
00000100
00000000
00000000
00000000
00000000
00000000
00000000
00000000
00001000
00000000
00000001
00000000
00000010
00000000
00000000
00000100
,
00000000
00000000
00010000
00000000
00001000
01000000
00000000
00000000
00100000
00000000
10000000
00000000
01000000
00000000
00010000
00000000
,
00001000
00010000
01000000
10000000
00100000
01000000
00010000
00100000
,
00001000
00010000
00100000
00010000
00001000
00000100
00000001
00000010
,
00001000
00010000
00001000
00000010
00000001
00000100
00000010
00001000
,
00000100
00000000
00000010
00000000
00000001
00000000
00000000
00000000
00001000
00000001
00001000
00000000
00000010
00000000
00010000
00000000
,
00001000
00000000
00000100
00000000
00001000
00000000
00000000
00000000
00010000
00001000
00010000
00000000
00001000
00000000
00010000
00000000
,
01000000
00000000
10000000
00000000
00010000
00000000
00000000
00000000
10000000
00010000
10000000
00000000
00100000
00000000
01000000
00000000
,
00001000
00010000
01000000
00010000
00001000
00000000
00101000
00000000
,
00011000
00000000
00000000
00000000
00010010
00000000
00000000
00000000
00002002
00003003
00000000
00000000
00000000
00000000
00000000
00000000
,
10000000
00000000
00010000
01000000
00000000
00000000
10000000
00000000
10000000
00000000
01000000
00010000
00000000
00000000
10000000
00000000
,
01000000
00000000
00010000
01000000
00000000
00100000
01000000
00000000
10000000
01000000
00000000
00000000
10010000
00000000
00000000
00000000
,
00010000
00000000
01000000
00000000
10000000
00000000
01000000
00000000
00010000
00000000
00100000
00000000
10000000
00000000
00000000
00010000
,
01000000
00000000
00100000
01000000
00000000
00100000
00010000
00000000
01000000
00000000
00001000
00000000
00022000
00033000
00000000
00000000
,
00000001
00000000
00001000
00000100
00000000
00000000
00000001
00000000
00000001
00000000
00000100
00001000
00000000
00000000
00000001
00000000
,
00000100
00000000
00001000
00000100
00000000
00000010
00000100
00000000
00000001
00000100
00000000
00000000
00001001
00000000
00000000
00000000
,
00001000
00000010
00000001
00001000
00000100
00001000
00010000
00000000
,
00010000
01000000
10000000
00100000
00010000
00000000
00011000
00000000
,
00001000
00010000
01000000
00010000
00001000
00000010
00000001
00000100
,
00000000
00001000
00010000
00001000
00000100
00000001
00000010
00001000
,
00010000
00001000
00010000
00000000
01000000
00000000
10000000
00000000
00100000
00000000
00010000
00000000
00001000
00000000
00000000
00000000
,
00011000
01001000
00011000
00010100
,
00002002
00000000
00000000
00003003
00000000
00000001
00000100
00002000
,
00000000
00000000
00000100
00000000
00000000
00013000
00000000
00000000
00001000
00000000
00000000
00000000
00011000
00000000
00000000
00000000
,
00002000
00000000
00000000
00000000
00000010
00000000
00000000
00013000
00000000
00000000
00001000
00000000
01000000
00000000
00010000
00000000
,
00000000
20020000
30030000
00000000
00000000
00000000
00000000
00000000
;

//--------------- dance-double - KAYSTAR ----------------
#NOTES:
     dance-double:
     KAYSTAR:
     Hard:
     15:
     0,0,0,0,0:
00000000
00000000
00000000
00000000
,
00000000
00000000
00000000
00000000
,
10000000
00000000
01000000
00000000
00010000
00000000
00001000
00100000
00010000
00000000
10000000
00000000
00100000
01000000
00010000
00000000
,
00000000
00000000
01001000
00000000
00001000
00000000
00010000
00000000
00000100
00000010
00000100
00000000
00001000
00000000
00001000
00000000
,
00000001
00000000
00000100
00000000
00001000
00000000
00010000
00000010
00001000
00000000
00000100
00000000
00010000
00001000
00010000
00000000
,
01000000
00000000
00000000
10000000
01000000
00000000
00020000
00000000
00000000
00000000
00000000
00000000
00000000
00000000
00000000
00000000
,
00031000
00000000
00010000
00000000
00010100
00000000
00000100
00000000
00001000
00010000
00001000
00000000
00000100
00000000
00000000
00000000
,
00001000
00000000
00000001
00000100
00000000
00000100
00000010
00000000
00000001
00000000
00000010
00000000
00001000
00000000
00000100
00000000
,
00010000
00000000
00001000
00000000
01001000
00000000
01000000
00000000
00010000
00001000
00010000
00000000
01000000
00000000
00000000
00000000
,
00100000
00000000
10000000
01000000
00000000
01000000
00100000
00000000
10000000
00000000
00100000
00000000
00010000
00000000
01000000
00000000
,
01020000
00000000
00000000
00000000
00031000
00000000
00000000
00010000
01000000
00000000
00001000
00000000
00010000
00000000
00000100
00000000
,
00002100
00000000
00000000
00000000
00013000
00000000
00000000
00001000
00000100
00000000
00010000
00001000
00100000
00000000
00000000
00000000
,
00120000
00000000
00000000
00000000
00031000
00000000
00000000
00010000
00000000
00010000
01000000
00000000
00100000
00000000
10000000
00000000
,
01000000
00000000
00000000
00000000
10000000
00000000
10000000
00000000
10000000
00000000
00000000
00010000
00000000
01000000
00010000
00000000
,
10000000
01000000
10000000
00000000
00010000
00000000
01000000
00000000
00000000
10000000
01000000
00000000
00010000
00000000
00100000
00000000
,
00001000
00000000
00000010
00000000
00000001
00000000
00000001
00000000
00000001
00000000
00000000
00001000
00000000
00000100
00001000
00000000
,
00000001
00000100
00000001
00000000
00001000
00000000
00000010
00010000
00000000
00010000
00001000
00000000
00011000
00000000
00000000
00000000
,
00010000
00000000
01000000
00000000
20000000
00000000
00000000
30100000
10000000
00000000
00010000
00100000
00001000
00000000
00010000
00000000
,
00000100
00000000
00000000
00000000
00001002
00000000
00000000
00000013
00000001
00000000
00001000
00000010
00010000
00000000
00001000
00000000
,
01000000
00000000
00000000
00000000
20010000
00000000
00000000
30100000
10000000
00000000
00010000
00100000
00001000
00000000
00010000
00000000
,
01000000
20000000
00010000
00010000
30010000
00000000
02010000
00000000
,
13000000
00000000
01000000
00010000
00000000
00000000
00100000
00001000
00010000
00000100
00001000
00000000
00000000
00000000
00010000
00000000
,
00100000
00001000
00000000
00001000
00010000
00000000
00000010
00000000
00001000
00000000
00000100
00000000
00001200
00000000
00000000
00000000
,
00000301
00000000
00000100
00001000
00000000
00000000
00000010
00010000
00001000
01000000
00010000
00000000
00000000
00000000
00001000
00000000
,
00010000
01000000
00000000
01000000
00100000
00000000
10000000
01000000
10000000
00000000
00000000
00000000
00210000
00000000
00000000
00000000
,
10300000
00000000
00100000
00010000
00000000
00000000
01000000
00001000
00010000
00000100
00001000
00000000
00000000
00000000
00010000
00000000
,
00100000
00001000
00000000
00001000
00010000
00000000
00000010
00000000
00000100
00000000
00000010
00000000
00001020
00000000
00000000
00000000
,
00000031
00000000
00000010
00001000
00000000
00000000
00000100
00010000
00001000
01000000
00010000
00000000
10000000
00000000
11000000
00000000
,
10000000
00010000
00000000
00000000
01000000
00000000
01001000
00000000
00001000
00010000
00000000
00000000
00000100
00001000
00000001
00000000
,
00000100
00000010
00000100
00000000
00000002
00000000
00000000
00000000
00000010
00000000
00000000
00000000
00001003
00000000
00000000
00000000
,
00000100
00010000
00001000
00000000
00000000
00000000
01000000
00000000
00000000
00010000
00000000
00000000
10000000
00000000
00000000
00000000
,
00100000
10000000
00010000
00000000
00000000
00000000
01000000
00000000
00000000
00001000
00000000
00000000
00010000
00000000
00000000
00000000
,
00000100
00001000
00000001
00000000
00000000
00000000
00000010
00000000
00000000
00000001
00000000
00000000
00000100
00000000
00000000
00000000
,
00000010
00001000
00000100
00000000
00020000
00030000
00000000
00000000
00000010
00000100
00000010
00000000
00001000
00000001
00001000
00000100
,
00000000
00000100
00010000
00000000
00010000
00001000
00000000
00001000
01000000
00000000
00100000
00000000
10000000
00000000
00010000
01000000
,
00010000
00000000
00100000
00000000
00001000
00000000
00010000
00000000
01000000
00000000
10000000
00000000
00010000
00000000
00100000
00010000
,
00100000
00000000
00001000
00000000
00010000
00000000
00000100
00001000
00000100
00000000
00000010
00000000
00000001
00000000
00001000
00000010
,
00001000
00000100
00010000
00001000
00000010
00000001
00000100
00001000
,
00010000
00000000
00100000
00000000
10000000
00000000
00000000
00000000
00010000
00100000
00010000
00100000
01000000
00000000
00010000
00000000
,
00001000
00000000
00010000
00000000
01000000
00000000
10000000
00000000
00100000
10000000
00100000
10000000
00010000
00000000
01000000
00001000
,
00000000
00000000
00010000
00000100
00001000
00000000
00000001
00000000
00001000
00000010
00001000
00000010
00000100
00000000
00001000
00000000
,
00010000
00000000
00001000
00000000
00000100
00000000
00000001
00000000
00000010
00000001
00000000
00000000
00001000
00000100
00000000
00000000
,
00100000
00010000
00000000
00000000
10000000
01000000
10000000
01000000
20000000
00000000
30000000
00000000
00000000
00000000
00000000
00000000
,
00010000
00100000
00010000
10000000
00000000
01000000
10000000
00000000
10000000
00010000
01000000
00010000
00000000
10000000
00100000
00000000
,
00010000
00000000
00010000
00100000
00000000
00100000
10000000
00000000
10000000
01000000
00000000
01000000
10000000
00000000
00010000
00000000
,
00010000
00100000
00000000
01000000
00000000
00010000
00001000
00000000
00010000
00000000
01000000
00000000
10000000
00000000
00010000
01000000
,
00010000
00000000
00000000
00000000
00100000
00000000
00010000
00000000
00000000
00000000
00010000
00000000
01000000
00000000
00000000
00000000
01000000
00000000
00001000
00000000
00000000
00000000
00000000
00000000
00022000
00033000
00000000
00000000
00000000
00000000
00000000
00000000
,
00010000
00001000
00010000
00000010
00000000
00000100
00000001
00000000
00000001
00001000
00000100
00001000
00000000
00000001
00000010
00000000
,
00001000
00000000
00001000
00000010
00000000
00000010
00000001
00000000
00000001
00000100
00000000
00000100
00000001
00000000
00001000
00000000
,
00000100
00000000
00010000
00000000
00001000
00000000
00000010
00000100
00000000
00000100
00010000
00000000
00001000
00000000
00000000
00000000
,
01000000
00000000
00100000
00010000
00000000
00100000
01000000
00000000
00001000
00000000
00000000
00000000
00011000
00000000
00000000
00000000
,
00000001
00000000
00001000
00000010
00001000
00000001
00000100
00000001
00000010
00000000
00000100
00010000
00001000
00100000
00010000
00000000
,
00000000
00000000
10000000
00100000
10000000
00010000
01000000
00010000
00100000
00000000
00001000
00000010
00000100
00001000
00000001
00000000
,
00000000
00000000
00001000
00000100
00001000
00000001
00000010
00000001
00000100
00000000
00000010
00010000
00001000
00100000
00010000
00000000
,
10000000
00100000
00000000
00000000
01000000
00010000
00000000
00000000
00001000
00000010
00000000
00000000
00000100
00000001
00000100
00000001
,
00002000
00000000
00000000
00000000
00000000
00003100
00010000
00001000
,
00000000
00000000
02000000
00000000
00000000
10000000
00000000
00000000
03100000
00000000
01000000
00000000
00001000
00000000
00010000
00000000
,
00000200
00000000
00000000
00000000
00000001
00000000
00000000
00000310
00000000
00000000
00000100
00000000
00010000
00000000
00001000
00000000
,
00000000
00022000
00033000
00000000
00000000
00000000
00000000
00000000
;
