#TITLE:BELLYDANCING;
#ARTIST:INJI;
#BANNER:BELLYDANCING.png;
#BACKGROUND:BELLYDANCING-bg.png;
#JACKET:BELLYDANCING-jacket.png;
#CDTITLE:./CDTITLES/NONE.PNG;
#MUSIC:BELLYDANCING.ogg;
#SAMPLESTART:41.652;
#SAMPLELENGTH:15;
#BPMS:0=121;

//---------------dance-single - t7r----------------
#NOTES:
     dance-single:
     t7r:
     Beginner:
     2:
     :
0000
0000
0000
0000
,
0000
0000
0000
0000
,
0000
0000
0000
0000
,
0000
0000
0000
0000
,
0000
0000
0000
0000
,
1000
0000
0000
0000
,
0001
0000
0000
0000
,
0100
0000
0000
0000
,
0010
0000
0000
0000
,
1000
0000
0000
0000
,
1000
0000
0000
0000
,
0001
0000
0000
0000
,
0001
0000
0000
0000
,
0100
0000
0000
0000
,
0100
0000
0000
0000
,
0010
0000
0000
0000
,
0010
0000
0000
0000
,
1000
0000
1000
0000
,
1000
0000
0000
0000
,
0001
0000
0001
0000
,
0001
0000
0000
0000
,
0010
0000
0000
0000
,
0010
0000
0000
0000
,
0100
0000
0000
0000
,
0100
0000
0000
0000
,
1000
0000
0000
0000
,
0001
0000
0000
0000
,
0100
0000
0000
0000
,
0010
0000
0000
0000
,
1000
0000
1000
0000
,
0001
0000
0001
0000
,
0100
0000
0100
0000
,
0010
0000
0000
0000
,
0010
0000
0010
0000
,
0100
0000
0200
0300
,
0001
0000
0001
0000
,
1000
0000
0000
0000
,
1000
0000
0000
0000
,
0100
0000
0000
0000
,
0001
0000
0000
0000
,
0010
0000
0000
0000
,
0001
0000
0000
0000
,
0100
0000
0000
0000
,
1000
0000
0000
0000
,
0010
0000
0000
0000
,
0100
0000
0000
0000
,
0010
0000
0000
0000
,
1000
0000
0000
0000
,
0001
0000
0000
0000
,
0010
0000
0000
0000
,
0100
0000
0000
0000
,
0010
0000
0000
0000
,
0001
0000
0000
0000
,
1000
0000
0010
0000
,
1000
0000
0000
0000
,
0001
0000
0010
0000
,
0001
0000
0000
0000
,
0100
0000
0010
0000
,
1000
0000
0000
0000
,
0100
0000
0010
0000
,
0001
0000
0000
0000
;

//---------------dance-single - t7r----------------
#NOTES:
     dance-single:
     t7r:
     Easy:
     5:
     :
0000
0000
0000
0000
,
0000
0000
0000
0000
,
0000
0000
0000
0000
,
0000
0000
0000
0000
,
0000
0000
0000
0000
,
1000
0100
0010
0000
,
0001
0100
0010
0000
,
1000
0001
0010
0000
,
1001
0000
0000
0000
,
0001
0100
0010
0000
,
1000
0001
0100
0000
,
0001
0010
0100
0000
,
1000
0001
0010
0000
,
1001
0000
1000
0100
,
1000
0020
0000
0000
,
1030
0000
0001
0100
,
0001
0020
0000
0000
,
0031
0000
1000
0100
,
0001
0200
0010
0000
,
1300
0000
0001
1000
,
0010
0100
0110
0000
,
1001
0000
1000
0100
,
2000
3000
0001
0100
,
0002
0003
1000
0010
,
2000
3000
0001
0010
,
0001
0100
0100
0000
,
0001
1000
0100
0000
,
1000
0010
0010
0000
,
0200
0000
0310
1001
,
1000
0010
0002
0003
,
0001
0010
2000
3000
,
1000
0100
0002
0003
,
0110
0000
0000
0000
,
0001
0100
1000
0100
,
0001
0010
2000
3020
,
0031
0000
0110
0000
,
1001
1000
0100
0000
,
1001
0000
2000
3002
,
1003
1000
0002
2003
,
3002
1003
1000
2000
,
3002
2003
3002
2003
,
3001
0000
0200
0320
,
0130
0100
0020
0230
,
0320
1030
0200
0320
,
0130
0110
1001
0000
,
1000
0100
0010
0001
,
0200
0010
0301
0010
,
0001
0100
0010
1000
,
0200
0010
1300
0010
,
1000
0001
0100
1000
,
0200
0010
0301
1000
,
0001
1000
0100
0001
,
0200
0010
1300
1001
,
1000
0000
0001
0010
,
0001
0001
2000
3002
,
1003
0010
1000
1000
,
0002
2003
3002
0013
,
1001
0001
0200
0320
,
0130
0100
0020
0230
,
0301
0020
0230
0320
,
0031
0000
1000
0000
0002
0000
0000
1003
;

//---------------dance-single - t7r----------------
#NOTES:
     dance-single:
     t7r:
     Medium:
     8:
     :
0000
0000
0000
0000
,
0000
0000
0000
0000
,
0000
0000
0000
0000
,
0000
0000
0000
0000
,
0000
0000
0000
0000
,
0001
0000
0100
0010
1000
0000
0000
0000
,
0100
0000
0010
0001
1000
0000
0000
0000
,
0010
0000
0100
0001
1000
0020
0000
0000
,
0130
0000
0000
0001
,
1000
0000
0100
0000
1000
0200
0000
1300
,
0001
0000
0100
0000
0001
0200
0000
0000
,
0301
0000
0010
0000
0001
0020
0000
0000
,
0031
0100
1000
0010
,
1001
0000
0000
0000
1000
0100
1000
0000
,
0001
0000
0000
0200
0000
0000
0000
0000
0000
0000
0000
0000
0300
0000
0000
0000
,
0001
0000
0000
0000
0010
0001
0010
0000
,
0001
0000
0000
2000
0000
0000
0000
0000
0000
0000
0000
0000
3000
0000
0000
0000
,
0010
0000
0000
0100
0000
0000
0000
0000
0001
0000
1000
0000
0100
0000
0000
0000
,
1000
0000
0002
0013
0002
0013
0002
1003
,
0001
0000
0000
1000
0000
0000
0000
0000
0010
0000
0100
0000
0001
0000
0000
0000
,
1000
0010
0001
0100
,
1000
0000
0010
0000
0100
0000
0001
2000
,
0100
0000
3001
0000
1000
0000
0001
0020
,
0100
0000
0031
0000
1000
0000
0010
0200
,
0001
0000
0310
0000
1000
0001
0100
0001
,
0000
1000
0001
0000
0010
0000
0100
2000
,
0001
0000
3100
0000
1000
0000
0001
0020
,
0100
0000
0031
0000
1000
0000
0010
0200
,
1000
0000
0310
0000
1000
0001
0100
0000
,
0001
0000
1000
0000
0100
0001
0200
0000
,
1300
0000
0001
0000
0100
1000
0200
0000
,
0301
0000
1000
0000
0100
0010
0200
0000
,
1300
0000
0000
0000
,
1001
0000
0001
0010
0100
0020
0000
0031
,
1000
0000
0010
0100
0001
2000
0000
0000
,
3100
0000
1000
0010
0100
0020
0000
0000
,
1030
0100
0001
0010
,
1001
0000
0000
1000
0002
0103
0002
0103
,
0002
1003
0002
1003
0002
0013
0002
0013
,
0002
0000
2003
3010
2000
3001
2000
3001
,
2000
3100
2000
3100
1000
0010
0100
0000
,
1001
0000
0000
0001
0200
0310
0200
0310
,
0200
1300
0200
1300
0200
0301
0200
0301
,
2000
0000
3200
0310
0200
0301
0200
0301
,
0100
1000
1001
0001
,
1000
0000
0100
0010
0100
0000
0001
0200
,
0010
0000
1300
0001
1000
0000
0001
0200
,
0010
0000
0301
1000
0001
0000
1000
0020
,
0100
0000
1030
0000
0001
0010
0100
1000
,
0001
0000
0110
0000
1000
0100
0001
0200
,
0010
0000
1300
0000
0001
0100
1000
0200
,
0010
0000
0301
0000
1000
0010
0001
0020
,
0100
0000
1030
0000
0001
0100
0010
0000
,
1001
0000
0000
1000
0000
0000
0000
0000
0001
0000
0100
0000
0001
0000
0000
0000
,
2000
3010
2000
3010
0002
0013
0002
0013
,
1000
0000
0000
0001
0000
0000
0000
0000
0010
0000
0100
0000
1000
0000
0000
0000
,
0002
0013
0002
0013
2000
3010
0002
1003
,
0001
0000
0000
1000
0200
0310
0200
0310
,
0200
0301
0200
0301
0200
1300
0200
1300
,
0002
0000
0103
0000
0020
0031
0020
0031
,
0010
0000
1000
0000
0100
0001
0010
1000
;

//---------------dance-single - t7r----------------
#NOTES:
     dance-single:
     t7r:
     Hard:
     12:
     :
0000
0000
0000
0000
,
0000
0000
0000
0000
,
0000
0000
0000
0000
,
0000
0000
0000
0000
,
0000
0000
0000
0000
0000
0000
0000
0000
0000
0000
0000
0000
0000
0000
0000
1000
,
0100
0000
0010
0000
0001
0000
0100
0000
0010
0000
1010
0000
0000
0000
0000
0001
,
0010
0100
1000
0010
0100
0101
0000
0000
,
1000
0000
0010
0000
1000
0000
0001
0000
0010
0000
0002
0000
0000
0103
0010
0000
,
1000
0000
0000
0000
0000
0000
0000
0000
0000
0000
0000
0000
0001
0000
1000
0001
,
1000
0100
0010
0100
1000
0020
0130
0001
,
1000
0100
0010
0100
0001
0200
0010
1300
,
0001
0100
0010
0100
1000
0200
0310
1000
,
0001
0000
0100
0000
1000
0000
0010
0100
,
1000
0000
0000
0001
0000
0010
0000
0001
1000
0000
0001
0000
0100
0000
0001
1000
,
0001
0000
0000
0200
1000
0000
0000
0000
0010
0000
0000
0000
0301
0000
1000
0000
,
0001
0000
0000
1000
0000
0010
0000
1000
0001
0000
1000
0000
0100
0000
1000
0001
,
1000
0000
0000
0200
0001
0000
0000
0000
0010
0000
0000
0000
1300
0000
0001
0000
,
1000
0000
0000
0010
1000
0010
0000
1000
0001
0000
0100
0000
0010
0000
0100
0001
,
0100
0000
0000
0001
2000
0000
0100
0000
3002
0000
0100
0000
2003
0000
0100
0000
,
3001
0000
0000
0100
0010
0100
0000
0001
1000
0000
0100
0000
0010
0000
0001
1000
,
0001
0000
0100
0000
1000
0000
0010
0100
,
1000
0000
0000
0001
0100
0000
0001
0000
0010
0000
0001
0000
1000
0000
0002
0000
,
0100
0000
0000
1003
0001
0000
0100
0000
0010
0000
1000
0000
0100
0000
2000
0000
,
0010
0000
0000
3001
1000
0000
0100
0000
0010
0000
0100
0000
1000
0000
0020
0000
,
0100
0000
0000
1030
0001
0000
0010
0000
1000
0000
0001
0000
0100
0000
0020
0000
,
0001
0000
0000
0130
1000
0000
0010
0000
0100
0000
1000
0000
0100
0000
0020
0000
,
1000
0000
0000
0130
0001
0000
0010
0000
0100
0000
0001
0000
0100
0000
0020
0000
,
0001
0000
0000
0130
0010
0000
0001
0000
1000
0000
0010
0000
0100
0000
0020
0000
,
0001
0000
0000
0130
0010
0000
1000
0000
0100
0000
0001
0000
1000
0000
0010
0000
,
0001
0000
1000
0000
0001
0000
0100
0001
0100
0001
0200
0000
0000
0000
0000
0000
,
0310
0000
1000
0000
0001
0000
1000
0000
0010
1000
0020
0000
0000
0000
0000
0000
,
1030
0000
0100
0000
1000
0000
0001
1000
0001
0000
0020
0000
0000
0031
1000
0000
,
0010
0000
0000
0000
0000
0000
0000
0000
0000
0000
0000
0000
0100
0000
0001
1000
,
0001
0000
0100
0000
0010
0000
1000
0001
1000
0000
0200
0000
0001
0000
0310
0000
,
0001
0000
0100
0000
0010
0000
1000
0001
1000
0000
0020
0000
0001
0000
0000
0130
,
0010
0100
0010
0000
0100
0000
0001
1000
0001
0000
2000
0000
0100
0000
3001
0000
,
1000
0000
0010
0000
0001
0100
1000
0001
,
1000
0000
0000
0010
0100
0000
0001
0000
2000
0000
0100
0000
3002
0000
0100
0000
,
2003
0010
3002
0010
2003
0010
3020
0001
,
0230
0000
0000
0310
2000
0000
0100
0000
3002
0000
0100
0000
2003
0000
0100
0000
,
3002
0010
2003
0010
3002
0100
1003
0010
,
0110
0000
0000
0100
0001
0000
0010
0000
0200
0000
0001
0000
0320
0000
1000
0000
,
0230
1000
0320
0001
0230
1000
2300
0010
,
3002
0000
0000
0103
0020
0000
0001
0000
0230
0000
1000
0000
0320
0000
0100
0000
,
1030
0000
0010
0000
0001
0100
1000
0001
,
1000
0000
0000
0100
0010
0000
1000
0000
0010
0000
0000
0100
0010
0000
0100
0000
,
1000
0000
0000
0010
0100
0000
0001
0000
0100
0010
0000
1000
0001
0000
1000
0000
,
0001
0000
0000
0100
0010
0000
0001
0000
0010
0000
0000
0100
0010
0000
0100
0000
,
0001
0000
0000
0010
0100
0000
1000
0000
0010
1000
0000
0001
1000
0000
0001
0000
,
2001
0000
0000
3100
0001
0000
0100
0000
1000
0000
0000
0001
0100
0000
0020
0000
,
0001
0000
0000
0130
0010
0000
1000
0000
0001
0010
0000
0001
1000
0000
0001
0000
,
1002
0000
0000
0103
1000
0000
0100
0000
0001
0000
0000
1000
0100
0000
0020
0000
,
1000
0000
0000
0130
0010
0000
0001
0000
1000
0000
0010
0000
0220
0000
0330
0000
,
1001
0000
0000
1000
0010
1000
0000
0010
0100
0000
0010
0000
0001
0000
0010
0100
,
0010
0000
0000
1000
0002
0000
0100
0000
2003
0000
0100
0000
3002
0000
0100
0000
,
1003
0000
0000
0001
0010
0001
0000
0010
0100
0000
0010
0000
1000
0000
0010
0100
,
0020
0001
0230
1000
0320
1000
0230
0001
,
0310
0000
0000
0001
1000
0001
0000
0100
0010
0000
0100
0000
1000
0000
0100
0010
,
0100
0000
0000
0001
2000
0000
0010
0000
3002
0000
0010
0000
2003
0000
0010
0000
,
3001
0000
0000
1000
0010
1000
0000
0010
0100
0000
0010
0000
0001
0000
0010
0100
,
0001
0000
0010
0000
1000
0100
0001
1000
;

//---------------dance-double - t7r----------------
#NOTES:
     dance-double:
     t7r:
     Easy:
     5:
     :
00000000
00000000
00000000
00000000
,
00000000
00000000
00000000
00000000
,
00000000
00000000
00000000
00000000
,
00000000
00000000
00000000
00000000
,
00000000
00000000
00000000
00000000
,
00010000
00000000
00000100
00000000
,
00001000
00000001
00000100
00000000
,
00001000
00000000
00010000
00000000
,
00100000
00000000
00000000
00000000
,
10010000
00000000
10000000
00000000
,
01000000
00100000
00010000
00000000
,
00001000
00000000
00000010
00000000
,
00000100
00000001
00001000
00000000
,
00001001
00000000
00000001
00000000
,
00000010
00002000
00000000
00003000
,
00011000
00000000
00001000
00000000
,
01000000
00200000
00000000
00000000
,
10300000
01000000
10000000
00000000
,
00010000
02000000
03002000
00003000
,
00010000
00000100
00001000
00000000
,
00000010
00000100
00000110
00000000
,
00001001
00000001
00000010
00000000
,
00000001
00001000
00000100
00000000
,
00010000
00001000
01000000
00000000
,
00010000
00100000
00010000
00000000
,
10000000
00100000
00010000
00000000
,
00001000
00000100
00000001
00000000
,
00000010
00001000
00010000
00000000
,
00001000
01000000
00010000
00000000
,
10010000
10000000
02000000
03000000
,
00010000
00001000
00020000
00030000
,
00001000
00000100
00000002
00000000
,
00000013
00000000
00000000
00000000
,
00001001
00000001
00000020
00000030
,
00001000
00010000
00002000
00003000
,
00010000
00100000
20000000
00000000
,
31000000
00000000
00010000
00000000
,
00001000
00000000
00020000
00032000
,
00013000
00010000
00002000
00023000
,
00032000
00013000
00010000
00010000
,
00000020
00001030
00000002
00000023
,
00001030
00010000
00002000
00023000
,
00031000
00001000
00020000
00032000
,
00023000
00031000
00001000
00001000
,
01000000
01100000
10010000
00000000
,
10000000
01000000
00100000
00000000
,
00002000
00010000
01003000
00000000
,
00001000
00010000
00000100
00000000
,
00002000
00000010
00003001
00000000
,
00000010
00000100
00001000
00000000
,
00000001
00000100
00001000
00000000
,
00010000
00100000
01000000
00000000
,
00010000
00100000
00001000
00000000
,
00011000
00010000
00000100
00000000
,
00002000
00003002
00000203
00002300
,
00013000
00000000
00001000
01000000
,
00020000
20030000
30200000
00320000
,
00031000
00000000
00010000
00000000
,
00002000
00003020
00000032
00002003
,
00003100
00000000
00010000
00000000
,
00002000
00000000
00023000
00000000
00230000
00000000
00000000
10300000
;

//---------------dance-double - t7r----------------
#NOTES:
     dance-double:
     t7r:
     Medium:
     8:
     :
00000000
00000000
00000000
00000000
,
00000000
00000000
00000000
00000000
,
00000000
00000000
00000000
00000000
,
00000000
00000000
00000000
00000000
,
00000000
00000000
00000000
00000000
,
00001000
00000000
01000000
00000000
00010000
10000000
00000000
00000000
,
01000000
00000000
00100000
00000000
00001000
00010000
00000000
00000000
,
00000100
00000000
00001000
00000000
00000001
00000200
00000000
00000000
,
00000310
00000000
00000000
00000000
,
00010000
00000000
00001000
00000000
01000000
00020000
00000000
10030000
,
00010000
00000000
10000000
00000000
01000000
00200000
00000000
00000000
,
00301000
00000000
00010000
00000000
00000100
00002000
00000000
00003001
,
00001000
00010000
10000000
00000000
,
10010000
00000000
00000000
00000000
10000000
01000000
10000000
00000000
,
00010000
00000000
00000000
00200000
00000000
00000000
00000000
00000000
00000000
00000000
00000000
00000000
00300000
00000000
00000000
00000000
,
00001000
00000000
00000000
00000000
00010000
00001000
00010000
00000000
,
00000100
00000000
00000000
00002000
00000000
00000000
00000000
00000000
00000000
00000000
00000000
00000000
00003000
00000000
00000000
00000000
,
00000001
00000000
00000000
00000100
00000000
00000000
00000000
00000000
00000001
00000000
00001000
00000000
00000001
00000000
00000000
00000000
,
00000010
00000000
00002000
00013000
00002000
00013000
00002000
00013000
,
00001000
00000000
00000000
01000000
00000000
00000000
00000000
00000000
00010000
00000000
10000000
00000000
00100000
00000000
00000000
00000000
,
10000000
00010000
00001000
00001001
,
00000001
00000000
00000010
00000000
00000100
00000000
00001000
00000002
,
00000100
00000000
00001003
00000000
00000001
00000000
00000100
00002000
,
00000000
00000000
00013000
00000000
00001000
00000000
01000000
00020000
,
10000000
00000000
00130000
00000000
00010000
00000000
10000000
00200000
,
00000000
00310000
00001000
00000000
01000000
00000000
00001000
00020000
,
00000100
00000000
00031000
00000000
00010000
00000000
00000100
00002000
,
00000010
00000000
00003001
00000000
00000010
00000000
00001000
00020000
,
00000100
00031000
00010000
01000000
,
10000000
00000000
00100000
00000000
01000000
00010000
20000000
00000000
,
31000000
00000000
00010000
00000000
00001000
00010000
00002000
00000000
,
00013000
00000000
00001000
00000000
00000100
00000001
00002000
00000000
,
00003001
00000000
00000000
00000000
,
00001001
00000000
00000001
00000000
00000100
00000020
00001000
00000000
,
00000130
00000000
00000001
00000000
00001000
00000200
00000000
00000000
,
00010300
00000000
00001000
00000000
01000000
00020000
00100000
00000000
,
10030000
00010000
00001000
00001001
,
00000001
00000000
00000000
00000100
00002000
00013000
00002000
00013000
,
00002000
01003000
00002000
01003000
00002000
00013000
00002000
00013000
,
00002000
00000000
00023000
00030100
00020000
00031000
00020000
00031000
,
00020000
00000000
00032000
00000000
01003000
00010000
10000000
00100000
,
10000000
00000000
00000000
01000000
00020000
00031000
00020000
00031000
,
00020000
00030100
00020000
00030100
00020000
00031000
00020000
00031000
,
00020000
00000000
00032000
01003000
00002000
00013000
00002000
00013000
,
01000000
00000000
10000000
00000000
00100000
00010000
00001000
00000000
,
00011000
00000000
00001000
00000000
01000000
00000000
00010000
20000000
,
01000000
00000000
30010000
00000000
10000000
00000000
00100000
00020000
,
00001000
00000000
00030100
00000000
00001000
00000000
00000001
00000020
,
00000100
00000000
00000031
00000000
00000100
00001000
00010000
00000000
,
00011000
00000000
00000010
00000000
00001000
00000001
00000100
00000000
,
00001000
00000000
00010000
00000000
00001000
01000000
00010000
10000000
,
00200000
00000000
01000000
00000000
10300000
00000000
01000000
00010000
,
00002000
00000100
00013000
00011000
,
00100000
00000000
00000000
00010000
00000000
00000000
00000000
00000000
10000000
00000000
00100000
00000000
01000000
00000000
00000000
00000000
,
00002000
00013000
00002000
00013000
02000000
13000000
02000000
13000000
,
00010000
00000000
00000000
00100000
00000000
00000000
00000000
00000000
00001000
00000000
00010000
00000000
00000100
00000000
00000000
00000000
,
00020000
00031000
00020000
00031000
00000020
00000031
00002000
00003001
,
00001000
00000000
00000000
00000001
00000200
00001300
00000200
00001300
,
00020000
00031000
00020000
00031000
00020000
01030000
00020000
01030000
,
20000000
00000000
30100000
00000000
00020000
00031000
00020000
00031000
,
00010000
00000000
00000100
00000000
00001000
00000010
00000001
00000100
;

//---------------dance-double - t7r----------------
#NOTES:
     dance-double:
     t7r:
     Hard:
     13:
     :
00000000
00000000
00000000
00000000
,
00000000
00000000
00000000
00000000
,
00000000
00000000
00000000
00000000
,
00000000
00000000
00000000
00000000
,
00000000
00000000
00000000
00000000
00000000
00000000
00000000
00000000
00000000
00000000
00000000
00000000
00000000
00000000
00000000
00001000
,
00010000
00000000
00000100
00000000
00001000
00000000
00000001
00000000
00000100
00000000
00000101
00000000
00000000
00000000
00000000
00000001
,
00001000
00000001
00000100
00001000
00010000
00011000
00000000
00000000
,
00001000
00000000
01000000
00000000
00010000
00000000
10000000
00000000
00100000
00000000
02000000
00000000
00000000
03010000
10000000
00000000
,
10010000
00000000
00000000
00000000
00000000
00000000
10000000
01000000
,
00010000
00001000
00000100
00000010
00000100
00000002
00001003
00000001
,
00000010
00000100
00000010
00001000
00010000
00002000
00010000
01003000
,
00001000
00010000
00100000
10000000
00100000
02000000
03100000
10000000
,
00010000
00001000
00000001
00001001
,
00000101
00000000
00000000
00000001
00000000
00000010
00000000
00000001
00001000
00000000
00000001
00000000
00000100
00000000
00001000
00010000
,
00001000
00000000
00000000
00020000
00001000
00000000
00000000
00000000
01000000
00000000
00000000
00000000
00031000
00000000
00000000
00000000
,
00011000
00000000
00000000
00010000
00000000
01000000
00000000
10000000
00010000
00000000
01000000
00000000
00001000
00000000
00010000
00001000
,
00010000
00000000
00000000
00002000
00010000
00000000
00000000
00000000
00000010
00000000
00000000
00000000
00013000
00000000
00000000
00000000
,
00000100
00000000
00000000
00001000
00000001
00001000
00000000
00000001
00000010
00000000
00000001
00000000
00000100
00000000
00001000
00010000
,
00001000
00000000
00000000
01000000
00002000
00000000
00010000
00000000
00023000
00000000
00001000
00000000
00032000
00000000
00010000
00000000
,
00013000
00000000
00000000
00001000
00010000
00001000
00000000
00010000
01000000
00000000
10000000
00000000
00010000
00000000
10000000
00100000
,
10000000
00010000
00001000
00001001
,
00000011
00000000
00000000
00000001
00000010
00000000
00000001
00000000
00001000
00000000
00000100
00000000
00000010
00000000
00000002
00000000
,
00000100
00000000
00000000
00001003
00000001
00000000
00000100
00000000
00001000
00000000
00010000
00000000
01000000
00000000
20000000
00000000
,
00100000
00000000
00000000
30010000
10000000
00000000
00100000
00000000
01000000
00000000
00010000
00000000
10000000
00000000
02000000
00000000
,
00010000
00000000
00000000
03100000
00010000
00000000
10000000
00000000
00100000
00000000
00010000
00000000
00001000
00000000
00000020
00000000
,
00000100
00000000
00000000
00000031
00001000
00000000
00000001
00000000
00000100
00000000
00000010
00000000
00000001
00000000
00000020
00000000
,
00000100
00000000
00000000
00001030
00000001
00000000
00000010
00000000
00001000
00000000
00010000
00000000
00100000
00000000
02000000
00000000
,
00010000
00000000
00000000
03100000
10000000
00000000
01000000
00000000
00100000
00000000
10000000
00000000
00100000
00000000
02000000
00000000
,
10000000
00000000
00000000
03100000
00010000
00000000
10000000
00000000
00100000
00000000
00010000
00000000
00001000
00000000
00000010
00000000
,
00000100
00000000
00000000
00000000
00010100
00000000
00000000
00000000
00010000
00001000
00020000
00000000
00000100
00000000
00000000
00000000
,
00031000
00000000
00000000
00000000
01001000
00000000
00000000
00000000
00001000
00010000
00002000
00000000
01000000
00000000
00000000
00000000
,
00013000
00000000
00000000
00000000
00011000
00000000
00010000
00001000
00010000
00000000
00001000
00000000
00000010
00000000
00000001
00000000
,
00001000
00010000
10000000
10010000
,
10000000
00100000
01000000
10000000
01000000
00020000
00100000
10030000
,
01000000
00010000
00001000
00000010
00000100
00002000
00000010
00003001
,
00001000
00000010
00000100
00001000
00000100
00000002
00000010
00001003
,
00000001
00001000
00010000
10010000
,
10000000
00000000
00000000
01000000
00100000
00000000
00010000
00000000
20000000
00000000
00100000
00000000
30020000
00000000
00100000
00000000
,
20030000
01000000
30020000
01000000
10030000
01000000
00100000
00010000
,
00002000
00000000
00000000
00003010
00000100
00000000
00000001
00000000
00002000
00000000
00000010
00000000
00003002
00000000
00000010
00000000
,
00001003
00000001
00000100
00001000
00010000
00100000
10000000
00010000
,
10010000
00000000
00000000
00010000
00100000
00000000
00001000
00000000
00020000
00000000
00000100
00000000
00032000
00000000
01000000
00000000
,
00023000
00000010
00032000
00100000
00023000
00000100
00030200
00000010
,
00002300
00000000
00000000
00003001
00000200
00000000
00001000
00000000
00000320
00000000
00000001
00000000
00000230
00000000
00000001
00000000
,
00000310
00001000
00010000
10010000
,
10000000
00000000
00000000
01000000
00100000
00000000
00010000
00000000
10000000
00000000
00000000
00100000
01000000
00000000
00010000
00000000
,
00001000
00000000
00000000
00000100
00000010
00000000
00000001
00000000
00001000
00000010
00000000
00001000
00000001
00000000
00001000
00000000
,
00000001
00000000
00000000
00000010
00000100
00000000
00001000
00000000
00000001
00000000
00000000
00000100
00000010
00000000
00001000
00000000
,
00010000
00000000
00000000
00100000
01000000
00000000
10000000
00000000
00010000
00100000
00000000
00010000
10000000
00000000
00010000
00000000
,
20000000
00000000
00000000
31000000
00010000
00000000
00001000
00000000
00000100
00000000
00000000
00000010
00000100
00000000
00000002
00000000
,
00000010
00000000
00000000
00001003
00000001
00000000
00000010
00000000
00001000
00010000
00000000
00000100
00001000
00000000
00000001
00000000
,
00000200
00000000
00000000
00000310
00001000
00000000
00000100
00000000
00010000
00000000
00000000
00001000
00010000
00000000
02000000
00000000
,
00100000
00000000
00000000
13000000
00010000
00000000
10000000
00000000
00100000
00000000
00010000
00000000
00001000
00000000
01000000
00000000
,
00010000
00000000
00000000
00100000
00010000
00100000
00000000
00001000
00010000
00000000
00001000
00000000
00000100
00000000
00000001
00001000
,
00000001
00000000
00000000
00001000
00000200
00000000
00001000
00000000
00020300
00000000
00001000
00000000
00030200
00000000
00001000
00000000
,
00010300
00000000
00000000
00001000
00010000
00001000
00000000
00100000
00010000
00000000
10000000
00000000
00100000
00000000
00010000
00001000
,
00010000
00000000
00000000
00001000
00200000
00000000
00010000
00000000
00302000
00000000
00010000
00000000
00203000
00000000
00010000
00000000
,
00301000
00000000
00000000
01000000
00010000
01000000
00000000
00010000
10000000
00000000
01000000
00000000
00010000
00000000
00001000
00010000
,
00001000
00000000
00000000
00010000
00000020
00000000
00001000
00000000
00020030
00000000
00001000
00000000
00030020
00000000
00001000
00000000
,
00010030
00000000
00000000
00000100
00001000
00000100
00000000
00001000
00000001
00000000
00000100
00000000
00001000
00000000
00010000
00001000
,
00010000
00000000
00011000
00000000
20000000
00000000
30010000
01000000
;
