#TITLE:BE MY COWBOY;
#SUBTITLE:(The Factory Dance Mix);
#ARTIST:JENNY ROM;
#TITLETRANSLIT:;
#SUBTITLETRANSLIT:;
#ARTISTTRANSLIT:;
#GENRE:;
#CREDIT:;
#MUSIC:BE MY COWBOY (The Factory Dance Mix).ogg;
#BANNER:BE MY COWBOY (The Factory Dance Mix).png;
#BACKGROUND:BE MY COWBOY (The Factory Dance Mix)-bg.png;
#CDTITLE:;
#SAMPLESTART:60.000;
#SAMPLELENGTH:10.000;
#SELECTABLE:YES;
#OFFSET:0.000;
#BPMS:0.000=144.000;
#STOPS:142.000=0.417;
#BGCHANGES:15.746=BE MY COWBOY (The Factory Dance Mix).avi=1.000=0=0=1===CrossFade_Fastest==,
270.000=BE MY COWBOY (The Factory Dance Mix)-bg.png=1.000=0=0=1,
99999.000=-nosongbg-=1.000=0=0=0=StretchNoLoop====
;
#FGCHANGES:;

//--------------- dance-single - KAYSTAR ----------------
#NOTES:
     dance-single:
     KAYSTAR:
     Beginner:
     3:
     0,0,0,0,0:
0000
0000
0000
0000
,
0000
0000
0000
0000
,
0000
0000
0000
0000
,
0000
0000
0000
0000
,
1000
0000
0000
0000
,
0010
0000
0000
0000
,
0100
0000
0100
0000
,
0100
0000
0000
0000
,
0001
0000
0000
0000
,
0010
0000
0000
0000
,
0100
0000
0100
0000
,
0200
0000
0300
0000
,
1000
0000
0000
0000
,
0001
0000
0000
0000
,
0010
0000
0010
0000
,
0010
0000
0000
0000
,
0001
0000
0000
0000
,
0100
0000
0000
0000
,
0010
0000
0010
0000
,
0010
0000
0000
0000
,
0000
1000
1000
0000
,
1000
0000
0000
0000
,
0100
0000
0100
0000
,
1000
0000
0000
0000
,
0000
0001
0001
0000
,
0001
0000
0000
0000
,
0100
0000
0100
0000
,
0200
0000
0300
0000
,
0001
0001
0002
0000
,
0003
0000
0001
0000
,
1000
0000
1000
0000
,
0100
0000
0000
0000
,
1000
1000
2000
0000
,
3000
0000
1000
0000
,
0001
0000
0001
0000
,
0100
0000
0000
0010
,
0000
0010
0000
0010
,
0000
0000
1000
1000
,
0000
1000
0000
0200
,
0000
0300
0000
0010
,
0000
0010
0000
0010
,
0000
0000
0001
0001
,
0000
0001
0000
0200
,
0000
0300
0000
0001
,
0000
0000
0000
1000
,
0000
0000
0000
0100
,
0000
0100
0000
0010
,
0000
0000
0000
0001
,
0000
0000
0000
0100
,
0000
0000
0000
0010
,
0000
0010
0000
2000
,
0000
3000
0000
0001
,
0000
0001
0000
1000
,
0000
0100
0100
0100
,
0000
1000
0000
0001
,
0000
0100
0100
0100
,
0000
0010
0000
1000
,
0000
0001
0001
0001
,
0000
0010
0000
0200
,
0000
0300
0000
1000
,
1000
1000
0000
0001
,
0000
0001
0000
0100
,
0100
0100
0000
0020
,
0000
0030
0000
1000
,
0000
1000
0000
1000
,
0000
0000
0001
0001
,
0000
0001
0000
0020
,
0000
0000
0030
0000
;

//--------------- dance-single - KAYSTAR ----------------
#NOTES:
     dance-single:
     KAYSTAR:
     Easy:
     7:
     0,0,0,0,0:
0000
0000
0000
0000
,
0000
0000
0000
0000
,
0000
0000
0000
0000
,
0000
0000
0000
0000
,
1000
1000
0100
0000
,
0001
0001
0100
0000
,
1000
1000
0100
0000
,
1000
0010
0100
0000
,
0001
0001
0100
0000
,
1000
1000
0100
0000
,
0001
0001
0100
0000
,
0020
0000
0030
0000
,
1000
0000
1000
0000
,
0001
0000
0001
0000
,
1000
0010
1000
0100
,
0020
0000
0030
0000
,
0001
0000
0001
0000
,
1000
0000
1000
0000
,
0001
0100
0001
0010
,
0200
0000
0300
0000
,
1000
0000
1001
0000
,
0001
0000
1001
0000
,
1000
0010
1000
0100
,
0020
0000
0030
0000
,
0001
0000
1001
0000
,
1000
0000
1001
0000
,
0001
0100
0001
0010
,
0200
0000
0300
0000
,
1000
0001
2002
0000
,
3003
0001
0100
0000
,
0010
1000
0100
0000
,
0010
0001
0100
0000
,
0001
1000
2002
0000
,
3003
1000
0100
0000
,
0010
0001
0100
0000
,
0010
0010
0010
0000
,
1000
0100
0010
0001
,
0001
1000
1000
0010
,
0100
0010
0100
0002
,
0000
0003
0000
1000
,
0001
0010
0100
1000
,
1000
0001
0001
0100
,
0010
0100
0010
2000
,
0000
3000
0000
1000
,
1000
0100
0000
0001
,
0001
0100
0000
1000
,
1000
0100
0000
1000
,
0010
0100
0000
0001
,
0001
0100
0000
1000
,
1000
0100
0000
0001
,
0001
0010
0100
2000
,
0000
3000
0000
0001
,
0010
0100
0000
0010
,
0001
0100
0000
0010
,
0100
1000
0000
0100
,
0010
1000
0000
0100
,
0010
0001
0000
0010
,
0100
0001
0000
0100
,
1000
0010
0000
2002
,
0000
3003
0000
0001
,
1000
0010
0100
0001
,
0001
1000
1000
0100
,
0001
0100
1000
0020
,
0000
0030
0000
0110
,
0000
0001
0000
1000
,
0000
0000
0100
0100
,
0010
0010
0000
0002
,
0000
0000
1003
0000
;

//--------------- dance-single - KAYSTAR ----------------
#NOTES:
     dance-single:
     KAYSTAR:
     Medium:
     10:
     0,0,0,0,0:
0000
0000
0000
0000
,
0000
0000
0000
0000
,
0000
0000
0000
0000
,
0000
0000
0000
0000
,
2001
0000
3100
0000
1000
0100
1000
0002
,
0000
0000
0013
0000
0001
0100
0001
0000
,
2000
0000
3010
0000
1000
0100
1000
0002
,
0000
0000
0103
0000
0001
1000
0001
0000
,
2100
0000
3001
0000
1000
0010
1000
0002
,
0000
0000
0103
0000
0001
0010
0001
0000
,
2000
0000
3100
0000
1000
0010
0100
0002
,
0000
0010
1000
0103
,
1001
0000
1000
0100
1000
0000
0001
0000
,
0100
0010
0100
0000
0001
0000
1000
0000
,
0200
0302
0203
1300
,
1001
0000
0000
0000
,
0001
0000
0100
0001
0100
0000
0010
0000
,
1000
0100
1000
0000
0010
0000
0100
0000
,
0002
0023
0230
1300
,
1001
0000
0000
0000
0001
0100
0100
0000
,
0001
0000
1000
0100
1000
0000
0001
0000
,
0010
0001
0010
0001
0000
1000
0010
0000
,
0200
2300
3200
0301
,
1002
0023
0230
2300
,
3001
0000
0100
0010
1000
0000
0001
0000
,
1000
0100
1000
0001
0000
0100
0001
0000
,
2000
3020
0230
0301
,
2002
0000
3003
0000
0000
0001
0010
0100
,
2000
0010
3002
0100
,
1003
0000
0001
0010
0001
0000
1100
0000
,
2000
3200
0302
0203
,
1300
0000
0001
0010
0001
0000
0000
0000
,
1002
0010
2003
0100
,
3001
0000
1000
0010
1000
0000
0101
0000
,
0002
0203
2300
3200
,
0301
0000
1000
0100
1000
0000
0012
0000
,
0103
0000
2010
0000
3100
0000
1000
0001
,
0100
0000
0001
1000
0100
0000
0002
0000
,
0203
0000
2300
0000
3001
0000
1000
0010
,
0100
0010
1000
0000
0000
0000
2100
0000
,
3010
0000
0102
0000
0013
0000
0001
1000
,
0010
0000
1000
0001
0010
0000
0002
0000
,
0203
0000
0320
0000
2030
0000
3100
1000
,
0000
0001
0000
0100
0001
0000
2001
0000
,
3100
0000
1000
0010
1000
0002
0000
0100
,
0103
0000
0001
0010
0001
0000
2100
0000
,
3001
0000
0100
0010
0100
0002
0000
1000
,
1003
0000
0001
0010
0100
0000
2100
0000
,
3001
0000
0100
0001
0100
0020
0000
1000
,
1030
0000
0100
1000
0100
0000
0000
1000
,
0010
0100
0000
0001
0010
0200
0000
0000
,
0001
0000
0010
0000
1300
0000
0000
0001
,
0010
0100
0000
0100
0010
0002
0000
0000
,
0100
0000
1003
0000
1100
0000
0000
1000
,
0010
0100
0000
0100
0010
2000
0000
0000
,
0100
0000
3001
0010
0100
1000
0001
0100
,
0010
1000
0000
1000
0100
0020
0000
0000
,
0001
0000
0100
0000
0031
0000
0000
0010
,
0100
1000
0000
1000
0010
0200
0000
0000
,
1000
0010
0301
2010
,
3100
0000
0012
0000
0103
0000
0001
1000
,
0100
0000
1000
0001
0100
0000
2000
0000
,
3200
0000
0302
0000
1003
0000
0001
0010
,
0100
0010
0001
0000
0000
0000
2001
0000
,
0100
0000
3002
0000
,
0100
0000
1003
2000
,
3200
0000
0320
0000
0032
0000
0103
0001
,
0000
1000
0000
0100
1000
0000
0000
0000
;

//--------------- dance-single - KAYSTAR ----------------
#NOTES:
     dance-single:
     KAYSTAR:
     Hard:
     13:
     0,0,0,0,0:
0000
0000
0000
0000
,
0000
0000
0000
0000
,
0000
0000
0000
0000
,
0000
0000
0000
0000
,
1000
0100
1000
0000
0001
0000
0001
0000
0010
0000
0001
0000
1000
0000
0200
0000
,
0000
0000
0310
0000
0100
1000
0100
0000
1000
0001
1000
0000
0001
0000
0100
0000
,
0010
0010
1000
1000
0001
0100
0001
0020
,
0000
1030
0010
0001
1000
0010
0100
0001
,
0010
0001
0010
0000
0001
0000
0001
0000
1000
0000
0100
0000
1000
0000
0020
0000
,
0000
0000
0130
0000
0010
1000
0010
0000
0100
0010
0100
0000
0001
0000
1000
0000
,
0001
0001
0010
0010
0100
1000
0001
0200
,
0000
0000
1300
0000
0100
0000
0010
0100
0001
0000
0001
0000
1000
0100
0010
0000
,
0001
0000
0000
0000
0100
0000
0001
0000
1000
0000
0000
0100
1000
0000
0000
0000
,
0001
0100
0010
0200
0000
1300
0100
0001
,
1000
0000
0000
1000
0010
0000
0000
0010
0100
0000
0000
0100
0001
0000
0000
0000
,
1000
0010
0001
0010
1000
0100
0010
0001
,
1000
0000
0000
0000
0010
0000
1000
0000
0001
0000
0000
0010
0001
0000
0000
0000
,
1000
0000
0100
0000
0010
0000
0200
0000
0000
0000
0301
0000
0100
0000
1000
0100
,
1000
0000
0001
0000
1000
1000
0010
0000
,
0100
0000
0001
0000
0001
0000
1000
0010
1000
0000
0001
0000
0010
0000
0010
0000
,
0001
0000
1000
0000
0010
0000
0100
0001
0100
0000
0000
0000
1001
0000
0000
0000
,
0001
1000
0100
2000
0000
3010
1000
0100
,
0001
0000
0000
0001
0100
0000
0000
0100
1000
0000
0000
1000
0001
0000
0000
0000
,
1000
0000
0010
0000
0100
0000
0001
0000
0010
0000
1000
0000
0010
0000
0100
1000
,
0100
0000
1000
0000
0001
0000
0100
0001
0100
0000
0000
0000
1001
0000
0000
0000
,
0001
0000
1000
0010
1000
0000
0002
0000
0000
0000
0103
0000
0001
0000
0010
0000
,
1000
0000
0000
1000
0010
0000
0000
0010
0001
0000
1000
0000
0001
0000
0000
0000
,
1000
0100
0001
0100
1000
0010
0100
0001
,
1000
0100
0000
0000
1000
0100
0000
0000
1000
0200
0000
0000
0000
0000
0301
0000
,
0100
0000
0000
0010
0001
0000
1000
0000
0001
0000
0100
0000
0101
0000
0000
0000
,
0001
0000
1000
0000
0010
0000
0000
0010
1000
0000
0001
0000
0100
0000
1000
0000
,
0100
0000
0001
0000
0010
0000
0001
0000
1000
0000
0100
0010
0100
0000
1000
0000
,
0001
0100
0000
0000
0001
0100
0000
0000
0001
0200
0000
0000
1300
0000
0100
0000
,
0010
0000
0000
0010
1000
0000
0001
0000
1000
0000
0100
0000
1100
0000
0000
0000
,
1000
0000
0010
0000
0100
0000
0000
0100
0001
0000
0010
0000
0001
0000
1000
0000
,
0100
1000
0010
0000
1001
0000
1000
0100
,
1000
0000
0010
1000
0001
0000
0010
0000
0001
0000
0200
0000
0000
0000
1300
0000
,
0100
0000
0001
0000
0100
0000
0010
0000
1000
0001
0000
0000
0001
1000
0000
0000
,
1000
0001
0000
0000
0001
1000
0000
0000
0100
0000
0200
0000
0000
0000
0301
0000
,
0100
1000
0000
1000
0100
0010
0001
0100
,
0001
0000
0010
0001
1000
0000
0010
0000
1000
0000
0200
0000
0000
0000
0301
0000
,
0100
0000
1000
0000
0100
0000
0010
0000
0001
1000
0000
0000
1000
0001
0000
0000
,
0001
1000
0000
0000
1000
0000
0010
0000
0100
0000
0001
0000
2000
0000
0100
0000
,
0000
0000
3002
0000
0000
0000
0100
0000
1003
0000
0000
0000
1000
0001
1000
0000
,
0010
0010
1000
0001
0010
0200
0000
0301
,
0100
0010
0100
0000
0010
0001
0010
0000
0001
0000
1000
0000
0010
0000
0001
0000
,
0010
1000
0001
0001
0100
2000
0000
3100
,
1000
0000
0000
0000
0100
0000
0001
0000
0010
0000
0100
0000
1000
0001
1000
0000
,
0100
1000
0010
0010
0100
0002
0000
0013
,
0001
1000
0001
0000
0100
0001
0100
0000
0010
0000
1000
0000
0001
0000
0010
0000
,
1000
0010
0001
1000
0100
0020
0000
0031
,
1000
0000
0010
0100
0001
0000
1000
0000
0001
1000
0001
1000
0001
0000
0000
0000
,
1000
0020
0000
0031
0010
2000
0000
3001
,
1000
0100
0010
0000
0001
0010
0100
0000
1000
0000
0001
0000
0100
0000
0001
0000
,
1000
0200
0000
0301
0100
2000
0000
3001
,
1000
0000
0010
0000
0100
0000
0001
0000
0010
0000
0001
0000
1000
0010
1000
0000
,
0001
0200
0000
1300
0100
0002
0000
1003
,
0001
0010
0100
0000
1000
0100
0010
0000
0001
0000
1000
0000
0010
0000
1000
0000
,
0001
0000
0020
0000
0000
0000
1030
0000
0010
0000
0001
0000
1000
0100
1000
0000
,
0010
1000
0001
0000
0100
0001
0100
0000
0010
1000
0010
1000
0001
0000
0100
0000
,
0001
0000
0010
0001
1000
0000
0100
0000
1000
0000
0020
0000
0000
0000
0031
0000
,
0010
0000
0100
0000
0001
0000
1000
0000
0100
1000
0000
0000
0100
0001
0000
0000
,
0100
1000
0000
0000
0001
0000
0100
0000
0001
0000
0020
0000
0000
0000
1030
0000
,
0010
0100
0010
0000
0000
0000
0001
0000
0010
0000
0100
0000
1000
0000
0010
0000
,
1000
0000
0100
1000
0001
0000
0010
0000
0001
0000
0200
0000
0000
0000
1300
0000
,
0100
0000
0010
0000
1000
0000
0001
0000
0100
1000
0000
0000
0100
0001
0000
0000
,
0100
0010
0000
0000
1000
0001
1000
0000
0100
0000
0010
0000
0002
0000
0100
0000
,
0000
2003
0000
0100
3001
0000
0000
0000
;
