#TITLE:Automatic Lover;
#SUBTITLE:(Call for Love);
#ARTIST:Real McCoy;
#TITLETRANSLIT:;
#SUBTITLETRANSLIT:;
#ARTISTTRANSLIT:;
#GENRE:;
#CREDIT:Braeden;
#MUSIC:Automatic Lover.ogg;
#BANNER:;
#BACKGROUND:;
#CDTITLE:;
#SAMPLESTART:0.000;
#SAMPLELENGTH:0.000;
#SELECTABLE:YES;
#OFFSET:-0.158;
#BPMS:0.000=133.000;
#STOPS:;
#BGCHANGES:;
#FGCHANGES:;

//--------------- dance-single - ----------------
#NOTES:
     dance-single:
     :
     Beginner:
     3:
     0,0,0,0,0:
0000
0000
0000
0000
,
0000
0000
0000
0000
,
0000
0000
0000
0000
,
0000
0000
0000
0000
,
0001
0001
0000
0000
,
1000
1000
0000
0000
,
0010
0010
0000
0000
,
1000
1000
0000
0000
,
0000
1001
0000
0000
,
1000
0000
0001
0000
,
0100
0000
0010
0000
,
1000
0000
0100
0000
,
0010
0000
0001
0000
,
1000
0000
0010
0000
,
0100
0000
0001
0000
,
1000
0000
1000
0000
,
0010
0000
0010
0000
,
0000
0100
0000
0001
,
0000
1000
0000
0010
,
0000
0100
0000
0001
,
0000
1000
0000
0010
,
0000
1000
0000
0001
,
0000
0010
0000
0001
,
0000
1000
0000
0010
,
0010
0000
0000
0000
,
1001
0000
0000
0000
,
1000
0000
0001
0000
,
0100
0000
0010
0000
,
1000
0000
0001
0000
,
0200
0000
0300
0000
,
0001
0000
0000
0000
,
1000
0000
0010
0000
,
1000
0000
0000
0000
,
0001
0000
1000
0000
,
0002
0000
0003
0000
,
1000
0000
0010
0000
,
1000
0000
0001
0000
,
0000
1000
0000
0010
,
0000
0100
0000
0001
,
0000
1000
0000
0010
,
0000
0100
0000
0001
,
0000
1000
0000
0010
,
0000
0100
0000
0001
,
0000
1000
0000
0001
,
0001
0000
1000
0000
,
0000
1001
0000
0000
,
1000
0000
0010
0000
,
1000
0000
0100
0000
,
0010
0000
0100
0000
,
1000
0000
0001
0000
,
0100
0000
0010
0000
,
1000
0000
0001
0000
,
0100
0000
0010
0000
,
0100
0000
0001
0000
,
1000
0000
0000
0000
,
0001
0000
0000
0000
,
0100
0000
0000
0000
,
0010
0000
0000
0000
,
0100
0000
0001
0000
,
1000
0000
0010
0000
,
1000
0000
0001
0000
,
0100
0000
0010
0000
,
1000
1000
0000
0000
,
1000
1000
0000
0000
,
0001
0001
0000
0000
,
0001
0001
0000
0000
,
1001
0000
0000
0000
;

//--------------- dance-single - ----------------
#NOTES:
     dance-single:
     :
     Easy:
     6:
     0,0,0,0,0:
0000
0000
0000
0000
,
0000
0000
0000
0000
,
0000
0000
0000
0000
,
0000
0000
0000
0000
,
1000
0001
0000
0000
,
0100
0010
0200
0300
,
0001
1000
0000
0000
,
0001
1000
0020
0030
,
1000
1001
0001
0100
,
0001
0100
1000
0100
,
0001
0100
0010
1000
,
0100
0001
0010
1000
,
0001
0000
0000
0000
0100
0000
0000
0000
0010
0000
1000
0000
0000
0001
0000
0000
,
1000
0100
0001
0100
,
1000
0001
0100
0001
,
1000
0010
0001
0100
,
1000
0001
0100
0010
,
1000
0000
0001
0000
0100
0000
0000
0010
,
0000
0000
1000
0000
0001
0000
0000
0100
,
0000
0000
0010
0000
1000
0000
0000
0100
,
0000
0010
0001
1000
,
0001
0000
1000
0000
0010
0000
0000
1000
,
0000
0000
0001
0000
0100
0000
0000
0001
,
0000
1000
0010
1000
,
0001
0100
0010
1000
,
2001
0001
3010
0100
,
0001
0100
0001
0100
,
0010
1000
0100
0010
,
0001
1000
0100
1000
,
1001
0100
0100
0001
,
0100
0010
1000
0001
,
0100
1000
0100
0010
,
1000
0000
0000
0010
0000
0000
1000
0000
0000
0000
0000
0000
0001
0000
0000
0000
,
1000
0100
0001
0010
,
1000
0002
0003
0000
,
1000
0100
0010
0001
,
1000
0010
1000
0010
,
0000
1000
0000
0001
0000
1000
0000
0002
,
0000
0103
0000
0010
0000
0100
0000
0001
,
0000
1000
0000
0001
0000
0010
0000
0100
,
0000
1000
0000
0001
0000
0100
0010
0000
,
1000
0001
0000
0010
0000
0001
0000
2000
,
0000
3010
0000
0100
0000
0001
0000
0010
,
0000
0100
0000
1000
0000
0001
0000
0100
,
0010
1000
0001
1000
,
0001
1001
2000
3020
,
1030
0010
0100
0010
,
1000
0100
0010
0001
,
0100
1000
0010
0001
,
1000
0000
0000
0000
0001
0000
0000
0000
0100
0000
0001
0000
0000
1000
0000
0000
,
0001
1000
0100
0001
,
0100
1000
0001
1000
,
0100
0001
0010
1000
,
0001
0100
0010
1000
,
0001
1000
0000
0001
,
1000
0010
0000
1000
,
0001
0100
0000
0001
,
1000
0010
0000
1000
,
0001
0100
0001
0100
,
0010
1000
0010
1000
,
0001
0100
0001
0100
,
0010
1000
0100
0010
,
0002
1003
0010
0100
,
0002
0103
0010
1000
,
0200
0310
0001
1000
,
0002
0103
0010
1000
,
1001
0000
0000
0000
;

//--------------- dance-single - ----------------
#NOTES:
     dance-single:
     :
     Medium:
     10:
     0,0,0,0,0:
0000
0000
0000
0000
,
0000
0000
0000
0000
,
0000
0000
0000
0000
,
0000
0000
0000
0000
,
1000
0001
1000
0001
0000
0000
0000
0000
,
0100
0010
0100
0010
0200
0000
0300
0000
,
0001
1000
0001
1000
0000
0000
0000
0000
,
0001
0010
0100
1000
0002
0000
0003
0000
,
1000
1001
0001
0100
,
0001
1000
0000
0100
0000
0001
0100
2000
,
0000
0001
0000
3100
0000
1000
0100
0100
,
0010
0001
0010
0001
1000
0000
0001
0100
,
0000
0000
1000
0000
0000
0000
0100
0000
0000
0000
0010
0000
0000
1000
0000
0000
,
0001
0100
0000
0001
0000
0010
1000
0020
,
0000
0100
0000
0031
0000
1000
0100
0100
,
0010
0001
0010
0001
1000
0010
0100
0001
,
1000
0100
1000
0100
2000
0000
3001
0000
,
0000
1000
1000
0000
0100
0100
0000
0110
,
0000
0010
0010
0000
0001
0001
0000
1001
,
0000
1000
1000
0000
0001
0001
0000
0101
,
0000
0100
0100
0000
0010
0010
1000
0100
,
1000
0001
0100
0000
0100
0010
0000
1010
,
0000
1000
0100
0000
0100
0010
0000
0011
,
0000
0001
0100
0000
0100
0010
0000
0010
,
1000
0001
1000
0001
0100
0010
0100
0010
,
2000
0000
0000
0001
0000
0000
3020
0000
0000
0000
0030
0000
0100
0000
0001
0000
,
0100
0100
0010
1000
0001
0001
1000
0100
,
1000
0000
0000
0010
0000
0000
1000
0000
0001
0000
0000
0100
0000
0000
0001
0000
,
0100
0000
0010
0000
0100
0000
0000
0000
0001
0000
0000
1000
0000
0000
0001
0000
,
1000
0000
0000
0010
0000
0000
0200
0000
0000
0000
0301
0000
0010
0000
0001
0000
,
1000
0000
0000
0010
0000
0000
1000
0000
0000
0000
0001
0000
0100
0000
0010
0000
,
1000
1000
0001
0100
0020
0000
1030
0100
,
0010
0000
0000
0001
0000
0000
1000
0000
0000
0000
0001
0000
0100
0000
0010
0000
,
1000
0100
0001
0100
1000
0000
0001
0000
,
1000
0010
0100
0002
0000
1003
0000
0001
,
0100
0100
0010
1000
0001
0000
1000
0100
,
0010
0001
0010
0001
1000
0010
1000
0000
,
0001
1000
0000
0010
0000
0001
0000
0200
,
0000
1300
0000
0001
0000
0100
0001
0010
,
0100
1000
0000
0001
0000
0100
0000
2000
,
0000
3010
0000
0001
0000
1000
0010
1000
,
0001
1000
0000
0100
0000
0001
0000
0020
,
0000
1030
0000
0001
0000
0100
0010
1000
,
0001
0000
0010
0000
0000
0000
0100
0000
1000
0000
0000
0010
0000
0000
1000
0000
,
0010
0100
0010
0100
0001
1000
0001
1000
,
0001
1001
2000
3002
,
1003
0010
0000
1000
0000
0001
0100
1000
,
0000
0200
0000
0310
0000
1000
0001
0001
,
1000
0100
1000
0100
0010
0000
0001
1000
,
0000
0000
0010
0000
0000
0000
1000
0000
0000
0000
0001
0000
0000
0100
0000
0000
,
0010
1000
0000
0100
0000
0010
0001
0100
,
0000
2000
0000
3100
0000
0010
0001
0001
,
1000
0100
1000
0100
1000
0010
0100
0001
,
1000
0100
0010
0001
2000
0000
3001
0000
,
1000
0100
0010
0001
0000
1000
0010
0100
,
0001
0010
0100
1000
0000
0001
0010
0001
,
0100
0010
1000
0001
0000
1000
0100
0010
,
0001
0100
0010
1000
0000
0001
0010
0100
,
1000
0001
0100
0010
0000
1000
0010
1000
,
0000
0001
0100
0001
0000
1000
0010
1000
,
0000
0001
0010
0100
0000
1000
0010
0100
,
0000
0001
0010
0001
0000
1000
0100
1000
,
0001
0100
0001
0100
0000
0010
1000
0010
,
1000
0000
0100
0000
0010
0000
0001
0000
2000
0000
0000
3010
0000
0000
0000
0000
,
1000
0100
0010
0001
0000
1000
0010
1000
,
0001
0000
0010
0000
0100
0000
1000
0000
0002
0000
0000
0103
0000
0000
0010
0000
,
1001
0000
0000
0000
;

//--------------- dance-single - ----------------
#NOTES:
     dance-single:
     :
     Hard:
     13:
     0,0,0,0,0:
0000
0000
0000
0000
,
0000
0000
0000
0000
,
0000
0000
0000
0000
,
0000
0000
0000
0000
,
0002
2003
3002
2003
3000
0000
0000
0000
,
0200
0000
0320
0000
0230
0000
0320
0000
0032
0000
0000
1003
0000
0000
0000
0000
,
0200
2300
3200
2300
3000
0000
0000
0000
,
0002
0000
2003
0000
3002
0000
2003
0000
3002
0000
0000
0013
0000
0000
0000
0000
,
0001
1001
2000
3001
,
1000
0000
0001
0100
0000
0000
0100
0010
0000
0000
1000
0000
0001
0000
1000
0000
,
0001
0000
0100
0010
0000
0000
0010
1000
0000
0000
1000
0000
0001
0000
0001
0000
,
1000
0010
0001
0010
1000
0001
0010
0100
,
1000
0000
0100
0000
0010
0000
0100
0000
0000
0000
1000
0000
0000
0001
0000
0000
,
1000
0000
0001
0100
0000
0000
0100
0010
0000
0000
0010
0000
1000
0000
0001
0000
,
0100
1000
0100
0001
0000
1000
0001
0001
,
1000
0010
0100
0001
2000
3020
0230
0320
,
1030
0100
1000
0100
0020
0000
0031
1000
,
0001
0000
0100
0000
0100
0000
0010
1000
0010
0000
1000
0000
0001
1000
0001
1000
,
0100
0000
0010
0000
0010
0000
0001
1000
0001
0000
1000
0000
0001
1000
0010
1000
,
0001
0000
1000
0000
1000
0000
0001
0100
0010
0000
1000
0000
0001
0010
0001
0010
,
0001
0000
1000
0000
1000
0000
0100
0010
0100
0000
1000
0000
0001
1000
0000
0100
,
1000
0000
0001
0000
0001
0000
1000
0100
0010
0000
0001
0000
1000
0100
1000
0100
,
0010
0000
0001
0000
0001
0000
0100
0010
1000
0000
0001
0000
1000
0010
1000
0001
,
1000
0000
0001
0000
0001
0000
0100
0010
0100
0000
0010
0000
1000
0000
0010
0000
,
1000
0001
1000
0001
1000
0001
1000
0001
0010
0000
0001
0000
1000
0000
0010
0000
,
1000
0000
0001
0100
0000
0001
2000
0000
0001
0000
3010
0000
1000
0000
0100
0000
,
1000
1000
0100
0010
0001
0001
0100
0010
,
1000
0000
0001
0010
0000
0001
0010
0000
0100
0000
1000
0001
0000
1000
0001
0000
,
1000
0000
0100
0000
0010
0000
1000
0000
0010
0000
0001
1000
0000
0000
0001
0000
,
1000
0000
0000
0100
0000
0000
0200
0000
0000
0000
1300
0000
0001
1000
0001
1000
,
0100
0000
0000
1000
0000
0000
0010
0000
0000
0000
0100
0000
0001
1000
0001
1000
,
0010
0100
0001
0010
1000
0010
0100
1000
,
0100
0000
0000
1000
0000
0000
0010
0000
0000
0000
0100
0000
0001
1000
0000
0001
,
1000
0000
0100
0000
0001
0000
0100
0000
1000
0000
1000
0000
0001
0010
0001
1000
,
0010
0000
0100
0000
0001
0000
0020
0000
0000
0000
0130
0000
1000
0001
1000
0001
,
1000
0100
0010
1000
0010
0100
0010
0001
,
1000
0100
1000
0100
1000
0100
1000
0100
1000
0000
0001
0000
0100
0000
0010
0000
,
1000
0001
0100
0010
1000
0001
0100
1000
,
0100
0001
0100
0010
1000
0100
0010
1000
,
0010
0100
1000
0001
0100
0010
0100
1000
,
0100
0000
0001
0000
0100
0000
0010
0000
1000
0000
0001
0000
1000
0001
0000
1000
,
0010
0100
0010
1000
0001
0100
0010
0001
,
0010
0100
0001
1000
0001
0010
0100
0001
,
0100
0000
0010
0000
1000
0000
0001
0000
1000
0000
0000
0001
0000
0000
0010
0000
,
0001
0100
0010
1000
0001
0010
0100
1000
,
0001
1001
2000
3200
,
1300
0000
0001
0100
0000
0000
0100
0010
0000
0000
0010
0000
1000
0000
0010
0000
,
1000
0000
0001
0010
0000
0000
0010
0100
0000
0000
1000
0000
0001
0000
0100
0000
,
1000
0000
0100
0000
0010
0000
0100
0000
0001
0000
0010
0000
0001
0000
1000
0100
,
0000
0000
0100
0010
0000
0000
0010
0100
0000
0000
1000
0000
0001
0000
0100
0000
,
0001
0000
1000
0100
0000
0000
0100
0010
0000
0000
0001
0000
0100
0000
0010
0000
,
0100
1000
0100
0010
0000
1000
0001
1000
,
0001
0100
0010
1000
0002
0023
0230
2300
,
3100
0000
0010
0000
1000
0000
0010
0000
0200
0000
0000
0000
1300
0001
0000
1000
,
0001
0000
0100
0000
0010
0000
1000
0001
0000
1000
0001
0000
0100
0000
0010
0000
,
0100
0000
0001
0000
1000
0000
0001
0010
0000
0001
0010
0000
0001
0000
0100
0001
,
0100
0000
0010
0000
1000
0000
0100
0010
0000
0001
0010
0000
0100
0000
1000
0000
,
0001
0000
0100
0000
0010
0000
1000
0001
0000
1000
0010
0000
0100
0000
0001
0000
,
1000
0100
1000
0100
1000
0001
0010
1000
,
0010
0000
0001
0000
0100
0000
1000
0000
0100
0000
0001
0000
1000
0000
0100
1000
,
0100
0010
1000
0010
0100
1000
0010
0100
,
0001
0000
0100
0000
1000
0000
0100
0000
0001
0000
0010
0000
0100
0000
1000
0001
,
2000
3020
2030
3020
0030
0100
1000
0100
,
0002
0000
2003
0000
3002
0000
2003
0000
3020
0000
0000
0130
0000
0000
0001
0000
,
0200
0320
0230
0302
0003
0100
1000
0100
,
0002
0023
0230
2300
3001
1000
0010
1000
,
1001
0000
0000
0000
;

//--------------- dance-double - ----------------
#NOTES:
     dance-double:
     :
     Easy:
     6:
     0,0,0,0,0:
00000000
00000000
00000000
00000000
,
00000000
00000000
00000000
00000000
,
00000000
00000000
00000000
00000000
,
00000000
00000000
00000000
00000000
,
00001000
00010000
00000000
00000000
,
00001000
01000000
00001000
00000000
,
01000000
00100000
00000000
00000000
,
10000000
00010000
10000000
00000000
,
00010000
10010000
10000000
01000000
,
00100000
00001000
00010000
00000100
,
00001000
00000001
00001000
00000001
,
00000100
00001000
00000100
00000001
,
00001000
00000010
00010000
00001000
,
00010000
00001000
00100000
00010000
,
01000000
10000000
01000000
00010000
,
10000000
10000000
00100000
00100000
,
01000000
01000000
00010000
00100000
,
00001000
00000000
00010000
00000000
00001000
00000000
00000000
00010000
,
00000000
00000000
00000010
00000000
00000100
00000000
00000000
00000001
,
00000000
00000000
00001000
00000000
00000100
00000000
00000000
00001000
,
00000000
00000000
00000001
00000000
00000100
00000000
00000000
00000010
,
00000000
00000000
00010000
00000000
00001000
00000000
00000000
00010000
,
00000000
00000000
00000100
00000000
00010000
00000000
00000000
00001000
,
00000000
01000000
00100000
00000000
,
10000000
00010000
01000000
00010000
,
10010000
10000000
02000000
03000000
,
10000000
00100000
01000000
00001000
,
02000000
03000000
00002000
00003000
,
00010000
00000100
00010000
00001000
,
00010000
00000000
00000000
00010000
00000000
00000000
00000100
00000000
,
00001000
00000000
00000000
00000010
00000000
00000000
00001000
00000000
,
00000001
00000100
00001000
00000100
,
00000001
00000000
00000000
00001000
00000000
00000000
00000010
00000000
,
00010000
00001000
00010000
00001000
,
00100000
00002000
00003000
00000000
,
00100000
00010000
00100000
00001000
,
00100000
00100000
00010000
01000000
,
00000000
00010000
00000000
10000000
00000000
00010000
00000000
20000000
,
00000000
30100000
00000000
10000000
00000000
00010000
00000000
00100000
,
00000000
00000000
00000000
00001000
00000000
00010000
00000000
00001000
,
00000000
00010000
00000000
00000100
00000000
00010000
00000000
00000000
,
00000000
00000100
00000000
00001000
00000000
00000001
00000000
00000200
,
00000000
00000310
00000000
00001000
00000000
00000001
00000000
00001000
,
00000000
00000000
00000010
00000000
,
00001000
00000001
00001000
00000010
,
00001000
00001001
00000001
00001000
,
00000010
00001000
00000100
00010000
,
00001000
00010000
00001000
01000000
,
00100000
01000000
00100000
10000000
,
00010000
00100000
00001000
00010000
,
00001000
01000000
00100000
01000000
,
00001000
00010000
00000100
00001000
,
00000010
00000010
00010000
00010000
,
00000010
00001000
00000001
00001000
,
00000001
00001000
00000000
00000010
,
00001000
00000001
00000000
00000100
,
00000010
00000100
00000000
00000001
,
00001000
00000100
00000000
00010000
,
00011000
00020000
00030000
00010000
,
00001000
02000000
03000000
00100000
,
10000000
00200000
00300000
01000000
,
00001000
00200000
00300000
00001000
,
00010000
00010000
00000100
00001000
,
00000001
00000001
00002000
00003000
,
00000010
00000010
00001000
00000001
,
00000100
00000100
00000010
00010000
,
00011000
00000000
00000000
00000000
;

//--------------- dance-double - ----------------
#NOTES:
     dance-double:
     :
     Medium:
     9:
     0,0,0,0,0:
00000000
00000000
00000000
00000000
,
00000000
00000000
00000000
00000000
,
00000000
00000000
00000000
00000000
,
00000000
00000000
00000000
00000000
,
00010000
00001000
00010000
00001000
00000000
00000000
00000000
00000000
,
00010000
00000010
00010000
00000010
00002000
00000000
00003000
00000000
,
00000001
00000100
00000001
00000100
00000000
00000000
00000000
00000000
,
00000010
00010000
00000010
00010000
00000020
00000000
00000000
00000000
,
00010030
00011000
00001000
00100000
,
00010000
10000000
00000000
00010000
00000000
10000000
01000000
10000000
,
00000000
00020000
00000000
01030000
00000000
00100000
10000000
00000000
,
00010000
00100000
00010000
00000000
01000000
00000000
00001000
00010000
,
00000000
00000000
00000010
00000000
00000000
00000000
00001000
00000000
00000000
00000000
00000001
00000000
00000000
00000010
00000000
00000000
,
00000100
00010000
00000000
00001000
00000000
00010000
00001000
00100000
,
00000000
00020000
00000000
10030000
00000000
00010000
00100000
00000000
,
01000000
10000000
01000000
00000000
00100000
00010000
00100000
00000000
,
00010000
10000000
00010000
00000000
02000000
00000000
03001000
00000000
,
00010000
00000010
00010000
00000000
00000010
00000100
00000000
00000001
,
00000000
00001000
00000100
00000000
00000010
00000001
00000000
00001000
,
00000000
00000001
00000100
00000000
00000010
00001000
00000000
00000100
,
00000000
00010000
00001000
00000000
00010000
00001000
00000000
00100000
,
00000000
00010000
10000000
00000000
00100000
10000000
00000000
00010000
,
00000000
10000000
01000000
00000000
00100000
00010000
00000000
10000000
,
00000000
00010000
00100000
00000000
00010000
00100000
00000000
00001000
,
00010000
00001000
00010000
00001000
00010000
00001000
00010000
00000100
,
00001000
00000000
00000000
00000010
00000000
00000000
00002000
00000000
00000000
00000000
00000000
00000000
00003001
00000000
00000010
00000000
,
00000001
00000000
00001000
00000010
00001000
00000000
00000100
00010000
,
00002000
00000000
00003000
00010000
00002000
00000000
00003000
00100000
,
00010000
01000000
00100000
10000000
00010000
00000000
10000000
00000000
,
01000000
00000000
00000000
01000000
00000000
00000000
01000000
00000000
00000000
00000000
00100000
00000000
00001000
00000000
00100000
00000000
,
00001000
00000000
00000000
00010000
00000000
00000000
00001000
00000000
00000000
00000000
00010000
00000000
00000010
00000000
00000000
00000000
,
00001000
00000100
00000010
00000000
00000001
00000010
00000100
00000000
,
00001000
00000000
00000000
00000001
00000000
00000000
00001000
00000000
00000000
00000000
00000010
00000000
00001000
00000000
00000000
00000000
,
00000001
00000100
00001000
00000000
00000100
00000010
00001000
00000000
,
00000100
00000000
00010000
00000200
00000000
00010300
00000000
00001000
,
00010000
00000000
00001000
00100000
00010000
00000000
01000000
00001000
,
01000000
00100000
01000000
00100000
01000000
00100000
01000000
00010000
,
10000000
01000000
00000000
00010000
00000000
00001000
00000000
00000020
,
00000000
00000031
00000000
00001000
00000000
00000100
00000000
00000002
,
00000000
00000103
00000000
00001000
00000000
00000010
00000000
00002000
,
00000000
00003001
00000000
00000100
00000000
00000010
00001000
00000001
,
00001000
00000001
00000000
00000100
00000000
00001000
00000000
00020000
,
00000000
00130000
00000000
10000000
00000000
00100000
00000000
01000000
,
00000000
00010000
00000000
10000000
01000000
10000000
00000000
00010000
,
00100000
00001000
00100000
00001000
00100000
00001000
00100000
00001000
,
00010000
00011000
00010000
00000100
,
00001000
00000100
00000000
00000001
00000000
00000100
00001000
00000020
,
00000000
00020030
00000000
00031000
00000000
00010000
00001000
00000000
,
01000000
00010000
01000000
00000000
00100000
10000000
00010000
01000000
,
00000000
00000000
00001000
00000000
00000000
00000000
01000000
00000000
00000000
00000000
00010000
00000000
00000000
10000000
00000000
00000000
,
00010000
01000000
00000000
00100000
00000000
10000000
01000000
00010000
,
00000000
01000000
00000000
00100000
00000000
00010000
00100000
00000000
,
00001000
00010000
00001000
00000000
00010000
00000100
00010000
00000000
,
00000100
00001000
00000010
00001000
00002000
00000000
00003100
00000000
,
00010000
00000000
00001000
00010000
00000000
00001000
00010000
00000000
,
00001000
00000000
01000000
00100000
00000000
01000000
00100000
00000000
,
10000000
00000000
00010000
01000000
00000000
00100000
10000000
00000000
,
01000000
00000000
00100000
00010000
00000000
00100000
00001000
00000000
,
00010000
00001000
00010000
00001000
00000000
00010000
00000100
00010000
,
00000000
00000100
00001000
00000100
00000000
00001000
00000001
00001000
,
00000000
00000001
00000010
00001000
00000000
00000010
00000001
00001000
,
00000000
00000100
00010000
00000100
00000000
00010000
00001000
00010000
,
00001000
00100000
00010000
01000000
00000000
00010000
10000000
00010000
,
10000000
01000000
00100000
00010000
01000000
00100000
10000000
00100000
,
10000000
00010000
10000000
00010000
00000000
00100000
00001000
00100000
,
00001000
00010000
00001000
00010000
00001000
00010000
00001000
00010000
,
00000001
00000000
00000000
00000000
;

//--------------- dance-double - ----------------
#NOTES:
     dance-double:
     :
     Hard:
     13:
     0,0,0,0,0:
00000000
00000000
00000000
00000000
,
00000000
00000000
00000000
00000000
,
00000000
00000000
00000000
00000000
,
00000000
00000000
00000000
00000000
,
00001000
00010000
00001000
00010000
00000000
00000000
00000000
00000000
,
00000001
00000000
00001000
00000000
00000001
00000000
00001000
00000000
00000002
00000000
00000000
00000103
00000000
00000000
00000000
00000000
,
00000010
00010000
00000010
00010000
00000000
00000000
00000000
00000000
,
00001000
00000000
00010000
00000000
00001000
00000000
00010000
00000000
00001000
00000000
00000000
01000000
00100000
00000000
10000000
00000000
,
10000000
01100000
00010000
01000000
,
00001000
00010000
00100000
00010000
00001000
00010000
00000020
00000100
,
00000000
00010000
00000000
00001030
00000000
00010000
00000010
00000100
,
00001000
00000100
00000010
00001000
00000001
00000100
00000010
00010000
,
00000000
00000000
00001000
00010000
00001000
00000000
00010000
00001000
00010000
00000000
00001000
00000000
00000000
01000000
00000000
00000000
,
00100000
10000000
01000000
00100000
00010000
10000000
00002000
01000000
,
00000000
00010000
00000000
00103000
00000000
00001000
00010000
00010000
,
00000010
00000100
00000001
00001000
00000001
00000010
00000100
00001000
,
00010000
00100000
01000000
10000000
00020000
00000000
01030000
01000000
,
00001000
00010000
00010000
00000100
00001000
00001000
00000001
00000010
,
00000000
00000000
00000001
00000000
00000001
00000000
00001000
00000000
00000100
00000000
00000100
00000000
00010000
00001000
00010000
00001000
,
00010000
00000000
00001000
00000000
00001000
00000000
00100000
00000000
00010000
00000000
00010000
00000000
10000000
01000000
10000000
01000000
,
10000000
00000000
00010000
00000000
00010000
00000000
01000000
00000000
00100000
00000000
00100000
00000000
10000000
00010000
00000000
10000000
,
00010000
00100000
00100000
00001000
00010000
00010000
00000010
00000100
,
00000000
00000010
00000010
00010000
00000100
00000100
00010000
00000010
,
00000000
00001000
00001000
00000001
00000010
00000010
00000001
00001000
,
00000001
00000010
00000001
00000010
00000001
00000010
00000001
00000010
00000001
00000000
00001000
00000000
00000100
00000000
00010000
00000000
,
00001000
00000000
00010000
00001000
00000000
00010000
00001000
00000000
01000000
00000000
00100000
00000000
10000000
00000000
01000000
00000000
,
00010000
01000000
10000000
00100000
00010000
00100000
01000000
00001000
,
00010000
00000000
00001000
00010000
00000000
00001000
00010000
00000000
00000100
00000000
00010000
00000100
00000000
00001000
00000100
00000000
,
00001000
00000000
00000010
00000000
00000100
00000000
00000001
00000000
00001000
00000000
00000001
00000200
00000000
00000000
00000310
00000000
,
00010000
00000000
00000000
00000100
00000000
00000000
02000000
00000000
00000000
00000000
03010000
00000000
01000000
00000000
00010000
00000000
,
00100000
00000000
00000000
00010000
00000000
00000000
00001000
00000000
00000000
00000000
00010000
00000000
00100000
00000000
00001000
00000000
,
00010000
00000100
00001000
00000001
00000010
00000100
00001000
00010000
,
00001000
00000000
00000000
00000100
00000000
00000000
00010000
00000000
00000000
00000000
00000100
00000000
00010000
00000000
00000010
00000000
,
00000100
00000010
00000100
00000010
00010000
00001000
00010000
00000100
,
00010000
00000000
00001000
00000000
01000000
00000000
00200000
00000000
00000000
00000000
01300000
00000000
00010000
00100000
00010000
00100000
,
00010000
00100000
10000000
00100000
01000000
00100000
00010000
00100000
,
00001000
00010000
00001000
00010000
00001000
00010000
00001000
00010000
00001000
00000000
00010000
00000000
00000010
00000000
00010000
00000000
,
00001000
00020000
00000000
00000010
00000000
00030100
00001000
00000002
,
00000000
00010000
00000000
00000100
00000000
00001003
00000100
02000000
,
00000000
03010000
00000000
10000000
00000000
00010000
00000000
00200000
,
00000000
00001000
00000000
00010000
00000000
00301000
01000000
00010000
,
01000000
00002000
00000000
00010000
00000000
00000100
00000000
00023000
,
00000000
00000010
00000000
00000100
00000000
00030001
00001000
00000010
,
00000000
00000000
00010000
00000000
00000000
00000000
00001000
00000000
00100000
00000000
00000000
00010000
00000000
00000000
10000000
00000000
,
00010000
10000000
00010000
10000000
00010000
10000000
00010000
10000000
01000000
00000000
00100000
00000000
00001000
00000000
00010000
00000000
,
00001000
00001100
00000200
00002300
,
00003001
00000100
00000010
00010000
00000010
00100000
00001000
00010000
,
00100000
10000000
00100000
00010000
00000000
10000000
00010000
00010000
,
10000000
01000000
00100000
00010000
00001000
00010000
00100000
00001000
,
00000000
00000000
00010000
00000000
00000000
00000000
00000100
00000000
00000000
00000000
00001000
00000000
00000000
00000001
00000000
00000000
,
00001000
00000010
00000100
00000001
00001000
00001000
00000100
00001000
,
00000100
00000001
00000100
00001000
00000000
00000100
00001000
00001000
,
00000001
00000010
00000100
00001000
00010000
00100000
01000000
10000000
,
00010000
01000000
00100000
10000000
00200000
00000000
10300000
00010000
,
10000000
00000000
01000000
00000000
00100000
00000000
00010000
00100000
00000000
00010000
00100000
00000000
00001000
00000000
00010000
00000000
,
00000010
00000000
00000100
00000000
00000010
00000000
00001000
00000100
00000000
00000000
00001000
00000000
00000100
00000000
00000010
00000001
,
00001000
00000000
00000100
00000000
00000010
00000000
00000001
00001000
00000000
00000100
00001000
00000000
00000100
00000000
00010000
00000000
,
00001000
00000000
00010000
00000000
00001000
00000000
01000000
00010000
00000000
10000000
00100000
00000000
10000000
00000000
00010000
00000000
,
10010000
10000000
01000000
00010000
00000000
00001000
00000010
00000001
,
00000000
00000000
00000001
00000000
00000100
00000000
00001000
00000000
00000000
00000000
00010000
00000000
00100000
00000000
10000000
00010000
,
10000000
00010000
01000000
10000000
00000000
10000000
01000000
00010000
,
00000000
00100000
00001000
00100000
00000000
00001000
00010000
00001000
,
00010000
00000010
00000100
00000001
00000000
00001000
00000100
00001000
,
00000001
00000000
00010000
00000000
00001000
00000000
01000000
00000000
00020000
00000000
00000000
01030000
00000000
00000000
00010000
00000000
,
10000000
01000000
00010000
00001000
00000000
00000010
00000001
00000010
,
00000001
00001000
00000001
00001000
00000001
00001000
00000001
00001000
00000100
00000000
00010000
00000000
00010000
00000000
00001000
00000000
,
00011000
00000000
00000000
00000000
;
