#TITLE:Always Smiling;
#SUBTITLE:;
#ARTIST:DDR MARIO MIX SOUND TEAM;
#TITLETRANSLIT:;
#SUBTITLETRANSLIT:;
#ARTISTTRANSLIT:;
#GENRE:;
#CREDIT:BGA is from official ZIv upload;
#MUSIC:always smiling.ogg;
#BANNER:always smiling bn.png;
#BACKGROUND:always smiling bg.png;
#CDTITLE:;
#SAMPLESTART:58.286;
#SAMPLELENGTH:10.000;
#SELECTABLE:YES;
#OFFSET:0.000;
#BPMS:0.000=140.000;
#STOPS:;
#BGCHANGES:0.000=Always Smiling.avi=1.000=1=0=0=StretchNoLoop==CrossFade==;
#FGCHANGES:;

//--------------- dance-single - KAYSTAR ----------------
#NOTES:
     dance-single:
     KAYSTAR:
     Beginner:
     2:
     0,0,0,0,0:
0000
0000
0000
0000
,
0000
0000
0000
0000
,
1000
0000
0000
0000
,
0001
0000
0000
0000
,
0010
0000
0010
0000
,
0010
0000
0000
0000
,
0001
0000
0001
0000
,
0001
0000
0000
0000
,
1000
0000
1000
0000
,
1000
0000
0000
0000
,
0010
0000
0010
0000
,
0010
0000
0000
0000
,
0100
0000
0100
0000
,
0100
0000
0000
0000
,
0001
0001
0001
0000
,
1000
0000
1000
0000
,
0100
0000
0100
0000
,
1000
0000
1000
0000
,
0010
0010
0010
0000
,
0100
0000
0100
0000
,
0001
0000
0001
0000
,
0100
0000
0000
0000
,
0010
0000
0010
0000
,
0010
0000
0000
0000
,
1000
0000
1000
0000
,
1000
0000
0000
0000
,
0001
0000
0001
0000
,
0001
0000
0000
0000
,
0010
0000
0010
0000
,
0010
0000
0000
0000
,
0100
0000
0100
0000
,
0100
0000
0000
0000
,
1000
0000
1000
0000
,
1000
0000
0000
0000
,
0010
0010
0010
0000
,
0100
0000
0100
0000
,
0001
0000
0001
0000
,
1000
0000
1000
0000
,
0100
0100
0100
0000
,
1000
0000
1000
0000
,
0010
0000
0010
0000
,
0100
0000
0000
0000
,
0001
0000
0010
0010
,
0010
0000
0100
0100
,
0100
0000
1000
1000
,
1000
0000
0010
0010
,
0010
0000
0100
0100
,
0100
0000
0001
0001
,
0001
0000
1000
0000
,
0010
0010
0010
0000
,
2002
0000
0000
0000
,
0000
0000
0000
0000
,
3003
0000
0000
0000
;

//--------------- dance-single - KAYSTAR ----------------
#NOTES:
     dance-single:
     KAYSTAR:
     Easy:
     5:
     0,0,0,0,0:
0000
0000
0000
0000
,
0000
0000
0000
0000
,
1000
0100
1000
1000
,
0001
0100
0001
0001
,
1000
0010
0100
0001
,
0010
0000
0000
0000
,
0001
0000
0001
0000
,
0001
0100
0010
0000
,
1000
0000
1000
0000
,
1000
0100
0010
0000
,
0100
0000
0100
0000
,
0100
1000
0010
0000
,
0100
0000
0100
0000
,
0100
0001
0010
1000
,
0010
0010
0010
0000
,
0001
1000
0100
0000
,
1000
0001
0100
0000
,
0001
1000
0100
0001
,
0100
0100
0100
0000
,
1000
0001
0010
0000
,
0001
1000
0010
0000
,
0100
0001
0010
0100
,
1000
0000
0001
0001
,
0100
0000
1000
1000
,
0100
0000
0001
0001
,
1000
0000
0000
0000
,
0001
0000
0001
0000
,
0010
0100
0001
0000
,
0100
0000
0100
0000
,
0010
0001
1000
0000
,
1000
0000
1000
0000
,
0010
0100
1000
0000
,
0100
0000
0100
0000
,
0010
1000
0100
0001
,
0100
0100
0100
0000
,
1000
0010
0100
0000
,
0001
0010
0100
0000
,
0010
0001
0100
1000
,
0100
0100
0100
0000
,
0001
0010
0100
0000
,
1000
0010
0100
0000
,
0001
0010
1000
0100
,
0001
0000
0010
0010
,
0100
0000
0001
0100
,
1000
0000
0010
0010
,
0100
0000
1000
0100
,
0001
0000
0010
0100
,
1000
0000
0010
0100
,
0001
1000
0100
1000
,
0010
0001
0100
1000
,
2002
0000
0000
0000
,
0000
0000
0000
0000
,
3003
0000
0000
0000
;

//--------------- dance-single - KAYSTAR ----------------
#NOTES:
     dance-single:
     KAYSTAR:
     Medium:
     10:
     0,0,0,0,0:
0000
0000
0000
0000
,
0000
0000
0000
0000
,
1000
0000
0000
0000
0010
0000
0000
0000
0100
0000
0000
0100
0000
0000
0100
0000
,
0000
0001
1000
0000
0100
0000
1001
0000
,
0000
0000
0001
0000
0100
0000
0000
0000
0010
0000
0000
0010
0000
0000
0010
0000
,
2000
0000
0000
3001
,
1000
0100
1000
0000
0001
0010
0001
0000
,
1000
0010
0100
0001
0001
0000
1001
0000
,
1000
0010
1000
0000
0001
0100
0001
0000
,
1000
0100
0010
0001
0001
0000
1001
0000
,
1000
0001
0100
0000
0001
1000
0100
0000
,
0010
0001
0100
0010
0010
0000
1001
0000
,
1000
0010
1000
0001
0010
0001
1000
0000
,
0200
0000
0000
0310
,
0001
1000
0100
0000
1100
0000
1000
0001
,
0000
0100
1000
0000
0000
0001
0010
0100
,
0000
0001
1000
0000
0000
0100
0010
1000
,
0000
0001
0100
0000
0110
0000
1001
0000
,
1000
0001
0100
0000
0101
0000
0001
1000
,
0000
0010
0001
0000
0000
1000
0100
0010
,
0000
1000
0001
0000
0000
1000
0100
0010
,
0001
1000
0010
0100
0001
0010
0100
1000
,
0001
0000
0000
0000
0100
0000
0010
0000
1000
0000
0000
1000
0000
0000
1000
0000
,
0000
0000
0100
0000
1000
0000
0000
0000
0001
0000
0000
0010
0000
0001
0000
0100
,
0000
0000
0001
0000
1000
0000
0000
0000
0010
0000
0000
0010
0000
0000
0010
0000
,
2000
0000
0000
3001
,
0010
0001
0100
0000
0010
1000
0100
0000
,
1000
0001
0100
1000
0100
0000
0110
0000
,
0010
1000
0100
0000
0010
0001
0100
0000
,
0001
1000
0100
0001
0100
0000
0110
0000
,
0010
0001
1000
0000
0100
1000
0001
0000
,
1000
0010
0001
0010
0100
0000
0001
1000
,
0100
0100
1000
0000
0010
0100
0001
0000
,
0020
0000
0100
0130
,
1000
0001
0100
0000
0101
0000
0100
1000
,
0000
0001
0010
0000
0001
1000
0100
0001
,
0000
1000
0010
0000
1000
0001
0010
1000
,
0000
0010
0001
0000
1001
0000
0110
0000
,
0001
1000
0100
0000
1100
0000
0100
0001
,
0000
1000
0010
0000
1000
0001
0100
1000
,
0001
0100
0010
1000
0001
0010
0100
1000
,
0001
0100
1000
0100
0001
0010
0100
1000
,
0001
0000
0000
0000
0100
0000
0010
0000
1000
0000
0000
1000
0000
0000
1000
0000
,
0100
0000
1000
0000
0010
0000
0100
0000
0001
0000
0000
0010
0000
0100
0000
1000
,
0000
0000
0010
0000
0100
0000
0001
0000
0010
0000
0000
0010
0000
0000
0010
0000
,
0000
0000
0001
0000
1000
0000
0100
0000
1000
0000
0000
0010
0000
0100
0000
0001
,
0000
0000
1000
0000
0100
0000
0010
0000
0001
0000
0000
0001
0000
0000
0001
0000
,
0100
0000
0001
0000
0010
0000
0100
0000
1000
0000
0000
0010
0000
0100
0000
0001
,
0000
1000
0100
1000
0100
0001
0100
0001
,
0100
1000
0010
0100
0001
0010
0100
1000
,
0020
0000
0000
0000
,
0000
0000
0000
0000
,
0030
0000
0000
0000
;

//--------------- dance-single - KAYSTAR ----------------
#NOTES:
     dance-single:
     KAYSTAR:
     Hard:
     13:
     0,0,0,0,0:
0000
0000
0000
0000
,
0000
0000
0000
0000
,
1000
0000
0100
0000
0100
0000
1000
0000
0001
0000
0000
0100
0000
0000
0010
0000
,
1000
0000
0001
0000
0001
0000
0100
0000
0001
0000
1000
0100
0000
1000
0000
0100
,
1000
0000
0001
0000
0100
0000
0001
0000
1000
0000
0100
0000
0010
0000
0001
1000
,
0001
0000
0000
0000
0000
0000
0000
0000
0000
1000
0010
0000
0100
0001
0100
0000
,
0001
1000
0100
0000
1000
0010
1000
0002
,
0000
0103
1000
0100
0001
0000
1001
0000
,
1000
0010
0100
0000
0001
0010
0001
2000
,
0000
0000
3100
0000
0001
0000
0100
0000
1000
0000
0000
0000
0001
0000
1000
0100
,
1000
0001
0100
0000
0010
1000
0010
0200
,
0000
1300
0100
0001
1000
0000
1001
0000
,
0001
0000
1000
0000
0100
0000
1000
0000
0010
0000
0100
0000
0001
0000
0100
0010
,
0100
0000
0000
0000
0000
0000
0000
0000
0000
0001
1000
0000
0100
1000
0000
1000
,
0001
0100
0101
0000
0001
1000
0100
0200
,
0000
0000
1000
0000
1300
0000
0000
0100
1000
0000
0010
0000
0100
0000
0002
0000
,
0000
1000
1003
0000
0001
0010
0100
0200
,
0000
0000
0010
0000
0310
0000
0000
0100
1000
0000
0001
0000
1000
0010
1000
0000
,
0001
1000
1100
0000
1000
0001
0100
0200
,
0000
0000
1000
0000
1300
0000
0000
0100
0010
0000
1000
0000
0001
0000
0010
0000
,
0001
0000
0100
0000
0101
0000
0000
0000
0001
0000
1000
0000
0100
0000
0000
0100
,
1000
0000
0010
0000
0100
0000
0001
0000
0100
0000
1000
0000
0100
0000
0010
1000
,
0010
0000
0100
0000
0100
0000
0001
0000
1000
0000
0100
1000
0000
0100
1000
0000
,
0001
0000
0010
0000
0010
0000
0001
0000
0100
0000
0010
1000
0000
0001
0000
1000
,
0100
0000
1000
0000
1000
0000
0010
0000
0100
0000
0001
1000
0000
0001
1000
0000
,
0100
0000
0000
0000
0000
0000
0000
0000
0000
0010
0001
0000
1000
0100
1000
0000
,
0001
0100
0101
0000
0001
1000
0100
0002
,
0000
0000
0103
0000
0010
0000
0100
1000
0100
0000
1000
0000
1001
0000
0000
0000
,
1000
0010
1010
0000
1000
0001
0100
2000
,
0000
0000
3100
0000
0010
0000
0100
0001
0100
0000
0010
0000
1000
0000
0001
1000
,
0001
1000
1100
0000
0001
1000
0100
0020
,
0000
0000
1030
0000
0010
0000
0001
1000
0001
0000
0000
0000
0100
0000
0100
0000
,
0001
0000
1000
0000
1001
0000
0000
0000
0001
0000
0001
0000
0010
0100
0000
0100
,
1000
0000
0000
0000
0000
0000
0000
0000
1001
0000
0000
0000
0001
0100
0000
0100
,
0010
1000
1100
0000
1000
0001
0100
0200
,
0000
0000
1000
0000
1300
0000
0000
0100
0001
0000
1000
0000
0100
0000
0020
0000
,
0000
1000
1030
0000
0010
0001
0100
0020
,
0000
0000
0001
0000
0031
0000
0000
0010
1000
0000
0001
0000
1000
0100
1000
0000
,
0010
0100
0101
0000
0001
1000
0100
0200
,
0000
0000
0001
0000
0301
0000
0000
0100
1000
0000
0001
0000
0010
0000
0010
0000
,
0001
0000
0100
0000
1000
0000
0100
0000
0001
0000
0010
0000
0100
0000
1000
0001
,
1000
0000
0010
0000
0100
0001
0100
0000
0001
0000
1000
0100
1000
0000
0010
0100
,
0001
0000
1000
0000
0100
0000
0100
0000
1000
0000
0001
0010
0000
0001
0100
0000
,
0001
0000
1000
0000
1000
0000
0010
0100
0010
0000
1000
0100
0000
0010
0000
0001
,
1000
0000
0100
0000
0100
0000
0001
0000
0100
0000
1000
0000
1001
0000
0000
0001
,
1000
0000
0010
0000
0010
0000
0100
0001
0100
0000
0010
1000
0000
0100
0000
0010
,
0001
0000
1000
0000
0001
0000
0001
0000
0100
0000
1000
0100
0000
0010
0100
0000
,
0001
0000
1000
0000
1000
0000
0100
0010
0100
0000
0001
0000
0100
0000
1000
0001
,
1000
0000
0010
0000
0100
0000
0001
0000
1000
0000
0100
1000
0100
1000
0001
0000
,
0010
0000
0001
0000
0100
0000
0010
1000
0010
0000
0100
0001
0100
0001
0000
2000
,
0200
0000
0000
0000
,
0000
0000
0000
0000
,
3300
0000
0000
0000
;
