#TITLE:Addicted to a Memory;
#SUBTITLE:;
#ARTIST:Zedd ft. Bahari;
#TITLETRANSLIT:;
#SUBTITLETRANSLIT:;
#ARTISTTRANSLIT:;
#GENRE:;
#CREDIT:;
#MUSIC:addicted to a memory.ogg;
#BANNER:addicted to a memory bn.png;
#BACKGROUND:addicted to a memory bg.png;
#CDTITLE:;
#SAMPLESTART:54.375;
#SAMPLELENGTH:10.000;
#SELECTABLE:YES;
#OFFSET:0.005;
#BPMS:0.000=128.000;
#STOPS:;
#BGCHANGES:35.896=addicted to a memory.avi=1.000=0=0=1===CrossFade_Fastest==,
232.000=addicted to a memory bg.png=1.000=0=0=1,
99999.000=-nosongbg-=1.000=0=0=0=StretchNoLoop====
;
#FGCHANGES:;

//--------------- dance-single - KAYSTAR ----------------
#NOTES:
     dance-single:
     KAYSTAR:
     Beginner:
     2:
     0,0,0,0,0:
0000
0000
0000
0000
,
0000
0000
0000
0000
,
0000
0000
0000
0000
,
0000
0000
0000
0000
,
0000
0000
0000
0000
,
0000
0000
0000
0000
,
0000
0000
0000
0000
,
0000
0000
0000
0000
,
0000
0000
0000
0000
,
0000
1000
0000
1000
,
0000
0000
0010
0000
,
0100
0000
0000
0001
,
0000
0000
0000
1000
,
2000
0000
3000
0000
,
0200
0000
0300
0000
,
0020
0000
0000
0000
,
0000
0000
0030
0000
,
0001
0000
0001
0000
,
1000
0000
1000
0000
,
0010
0010
0010
0000
,
0020
0000
0030
0000
,
0000
1000
0000
1000
,
0000
0001
0000
0010
,
0010
0000
0001
0001
,
0000
1000
0010
0010
,
0000
1000
0000
1000
,
0000
0001
0000
0100
,
0100
0000
0001
0001
,
0000
1000
0100
0100
,
0000
1000
0000
0010
,
0000
0100
0100
0100
,
0000
0001
0000
0010
,
0000
0100
0100
0100
,
0000
1000
0000
0001
,
0000
0010
0010
0010
,
0000
0001
0000
0100
,
0100
0100
0100
0000
,
0000
0000
0000
0000
,
0000
0000
0000
0000
,
0000
0000
0000
0000
,
0000
0000
0000
0000
,
0001
0000
0001
0000
,
1000
0000
0100
0100
,
0100
0000
1000
0000
,
0001
0000
0010
0010
,
0001
0000
1000
0000
,
0010
0000
0100
0000
,
0002
0000
0000
0000
,
0003
0000
0000
0000
,
1000
1000
0000
0010
,
0000
0100
0001
0001
,
0000
1000
0000
0100
,
0000
1000
0000
0000
,
0001
0001
0000
0010
,
0000
0001
0100
0100
,
0001
0000
0000
0001
0000
0000
1000
0000
,
0000
1000
0000
0000
0100
0000
0100
0000
,
0000
0000
0000
0000
,
1001
0000
0000
0000
;

//--------------- dance-single - KAYSTAR ----------------
#NOTES:
     dance-single:
     KAYSTAR:
     Easy:
     6:
     0,0,0,0,0:
0000
0000
0000
0000
,
0000
0000
0000
0000
,
0000
0000
0000
0000
,
0000
0000
0000
0000
,
0000
0000
0000
0000
,
0000
0000
0000
0000
,
0000
0000
0000
0000
,
0000
0000
0000
0000
,
0000
0000
0000
0000
,
2000
0100
0100
3100
,
0020
0031
2000
3010
,
0200
0000
0001
0000
0301
0000
1000
1000
,
0000
0000
0200
0000
0310
0000
0001
0001
,
2000
0100
0001
0100
,
3001
0100
0010
1000
,
0002
0010
1000
0010
,
1003
0010
0100
0001
,
1000
0000
0000
1000
0000
0000
0000
0000
0100
0000
0000
0100
0000
0000
0000
0000
,
0001
0000
0000
0001
0000
0000
0000
0000
0010
0000
0000
0010
0000
0000
0000
0000
,
2000
3200
0302
0023
,
1030
0000
0000
0000
,
1000
0000
0000
1000
0000
0000
0000
0000
0010
0000
0000
0000
0100
0000
0000
0000
,
0001
0000
0000
0001
0000
0000
0000
0000
0010
0000
0000
0000
0100
0000
0000
0000
,
1000
0000
0000
1000
0000
0000
0000
0000
0001
0000
0000
0000
0200
0000
0000
0000
,
1300
0100
0110
1001
,
0001
0000
0000
0001
0000
0000
0000
0000
0010
0000
0000
0000
0100
0000
0000
0000
,
1000
0000
0000
1000
0000
0000
0000
0000
0010
0000
0000
0000
0100
0000
0000
0000
,
0001
0000
0000
0001
0000
0000
0000
0000
1000
0000
0000
0000
0020
0000
0000
0000
,
0031
0010
0110
1001
,
1000
0000
0000
1000
0000
0000
0000
0000
0100
0000
0000
0000
0001
0000
0000
0000
,
1000
0000
0000
1000
0000
0000
0000
0000
0010
0000
0000
0000
0100
0000
0000
0000
,
0001
0000
0000
0001
0000
0000
0000
0000
0100
0000
0000
0000
0010
0000
0000
0000
,
0001
0000
0000
0001
0000
0000
0000
0000
1001
0000
0000
0000
0110
0000
0000
0000
,
0001
0000
0000
0001
0000
0000
0000
0000
0100
0000
0000
0000
1000
0000
0000
0000
,
0001
0000
0000
0001
0000
0000
0000
0000
0010
0000
0000
0000
0100
0000
0000
0000
,
1000
0000
0000
1000
0000
0000
0000
0000
0100
0000
0000
0000
0010
0000
0000
0000
,
1000
0001
1000
1001
,
0000
0002
0000
0000
0023
0000
0000
0230
,
0000
0000
2300
0000
0000
0001
0000
0100
,
0000
3002
0000
0000
0203
0000
0000
0320
,
0000
1030
0000
0000
,
1000
1000
1000
1000
,
0010
0100
0001
0001
,
0010
0010
0010
0010
,
0100
0100
0001
0100
,
2000
0001
0100
3001
,
0002
1000
0100
1003
,
0001
1000
0001
1000
0001
1000
0001
1000
,
0000
0000
0000
0000
,
0001
1000
0100
1100
,
1000
0000
0010
0000
0100
0000
0001
0001
,
1000
0001
0100
0101
,
0001
0020
0000
0000
,
0031
1000
0010
1010
,
1000
0100
0010
0001
,
0100
0000
0001
1000
0000
0100
0010
0000
,
1000
0001
0000
0010
0100
0010
0100
0001
,
0000
0000
0000
0000
,
1001
0000
0000
0000
;

//--------------- dance-single - KAYSTAR ----------------
#NOTES:
     dance-single:
     KAYSTAR:
     Medium:
     11:
     0,0,0,0,0:
0000
0000
0000
0000
,
0000
0000
0000
0000
,
0000
0000
0000
0000
,
0000
0000
0000
0000
,
0000
0000
0000
0000
,
0000
0000
0000
0000
,
0000
0000
0000
0000
,
0000
0000
0000
0000
,
0000
0000
0000
0000
,
1000
0000
0001
0010
0000
0000
0001
1000
,
0100
0000
0000
1000
0010
0100
0001
0020
,
0000
0000
0100
0130
0000
0000
1000
0001
,
0000
0000
0200
0000
0310
0000
1000
0001
,
0020
0100
0001
0130
,
2000
0100
0001
3010
,
0200
0010
0001
0310
,
1000
0010
0100
0001
0010
0100
1000
0000
,
2100
0000
0000
3001
0000
0000
0000
0000
0102
0000
0000
0103
0000
0000
0000
0000
,
2010
0000
0000
3001
0000
0000
0000
0000
0021
0000
0000
0031
0000
0000
1000
0000
,
0100
0100
1000
1000
0010
0100
0001
0010
,
0002
0000
0000
0000
,
0103
0000
0000
0001
0000
0001
0000
1000
0000
1000
0000
0100
1000
0000
0000
0000
,
0001
0000
0001
1000
0000
1000
0000
0010
0000
0100
0000
0100
0002
0000
1000
0000
,
1003
0000
0000
0001
0000
0010
0000
0010
0000
0001
0000
0001
0200
0000
0000
0000
,
0310
0000
0000
1000
0000
1000
0000
0100
2000
0000
0000
0000
3001
0000
0000
0000
,
0100
0000
0000
0001
0000
0001
0000
1000
0000
1000
0000
0010
1000
0000
0000
0000
,
0001
0000
0001
0010
0000
0001
0000
0100
0000
0010
0000
0010
2000
0000
0001
0000
,
3001
0000
0000
1000
0000
0100
0000
0100
0000
0010
0000
0010
0002
0000
0000
0000
,
1003
0000
0000
0010
0000
0100
0000
0100
0002
0000
0000
0000
1003
0000
0000
0000
,
1010
1000
0010
1000
0010
0100
0001
0010
,
0100
0001
0100
0001
0100
1000
0100
1000
,
0001
0010
0001
0010
0100
1000
0010
0100
,
0001
0100
1000
0100
0020
0000
1030
0000
,
0101
0001
1000
0001
1000
0100
0010
0001
,
0100
1000
0100
1000
0100
0001
0100
0001
,
1000
0010
1000
0010
0100
0001
0010
0000
,
0200
0301
0200
0310
0200
1300
1001
0000
,
1000
2000
0000
3100
2000
0000
3010
2000
,
0000
3001
2000
0000
3100
2000
3001
2000
,
3001
0002
0000
0103
0002
0000
0013
0002
,
0000
1003
0002
0000
0000
0000
0000
0000
,
0103
0010
0010
0000
1000
1000
0000
0100
,
0100
0000
0010
0001
0100
0010
1000
0100
,
1000
0010
0010
0000
0100
0100
0000
1000
,
1000
0000
0100
0010
1000
0001
0010
0100
,
1000
0010
0010
0100
0100
0001
0001
1000
,
1000
0100
0100
1000
1000
0001
0001
0001
,
0100
0000
0010
0000
1000
0000
0100
0000
0010
0000
0001
0000
1000
0001
1000
0001
,
0000
0000
0000
0000
0000
0000
0002
2003
,
3001
0000
1000
0000
1000
0100
0000
0000
0010
0000
0010
0100
0000
0000
0001
0000
,
0001
0100
0000
0000
0010
0000
0001
0000
1000
0000
0100
0000
1000
0000
1010
0000
,
0000
0000
0001
0000
0001
0100
0000
0000
0010
0000
0010
0100
0000
0000
1000
0000
,
1000
0100
0000
0000
0010
0000
1000
0000
0100
0000
0001
0000
1000
0000
0010
0000
,
0001
0000
1000
0000
1000
0100
0000
0000
1000
0000
1000
0010
0000
0000
0100
0000
,
0100
1000
0000
0000
0100
0000
0001
0000
1000
0000
0100
0000
0010
0000
0001
0000
,
0100
0000
0001
1000
0001
1000
0000
0000
0100
1000
0100
1000
0000
0000
0001
1000
,
0001
1000
0000
0000
0010
0000
0100
0000
0001
0000
0100
0000
1000
0000
0100
0000
,
0000
0000
0000
0000
,
1001
0000
0000
0000
;

//--------------- dance-single - KAYSTAR ----------------
#NOTES:
     dance-single:
     KAYSTAR:
     Hard:
     15:
     0,0,0,0,0:
0000
0000
0000
0000
,
0000
0000
0000
0000
,
0000
0000
0000
0000
,
0000
0000
0000
0000
,
0000
0000
0000
0000
,
0000
0000
0000
0000
,
0000
0000
0000
0000
,
0000
0000
0000
0000
0000
1000
1000
0000
,
0200
0320
0031
1000
,
0020
0000
1030
0001
0200
0000
0301
1000
,
0200
0000
1300
0100
1000
0010
0100
0002
,
1000
0000
0103
0001
0100
0000
1000
0100
,
0001
0000
2000
0000
3200
0000
0301
0100
,
2000
0001
0010
0100
,
3002
0010
0100
1000
,
0203
0000
1000
0000
0010
0000
0301
1000
,
0100
0001
0100
1000
0010
0100
0001
0000
,
0001
0010
0001
1000
0100
1000
0000
0000
0001
0100
0001
0010
0000
0000
0001
0000
,
1000
0010
1000
0001
0100
0001
0000
0000
1000
0100
1000
0010
0000
0000
1000
0000
,
0001
0010
0001
0000
1000
0100
1000
0000
0001
0100
0001
1000
0010
1000
0100
0000
,
0000
0000
0000
0000
,
2001
0000
0000
3010
0000
1000
0001
0100
0001
1000
0001
0100
1000
0000
0000
0100
,
0010
0000
0000
0000
0000
0000
0010
0000
0000
1000
0000
0000
0000
0000
0000
1000
0000
0000
0001
0000
0000
0010
0000
0000
0001
0000
0000
1000
0000
0000
0100
0000
0000
1000
0000
0000
0020
0030
0000
0000
0000
0000
0020
0030
0000
0000
0000
0000
,
0001
0000
0000
0100
0000
0001
1000
0100
1000
0001
1000
0100
0002
0000
0000
0000
,
0103
0000
0010
0001
0000
1000
0100
1000
0020
0000
0000
0000
0230
0000
0000
0000
,
0301
0000
0000
0010
0000
0001
1000
0100
1000
0001
1000
0100
0001
0000
0000
0100
,
1000
0000
0000
0000
0000
0000
1000
0000
0000
0010
0000
0000
0000
0000
0000
1000
0000
0000
0001
0000
0000
0010
0000
0000
0000
0000
0000
0001
0000
0000
1000
0000
0000
0001
0000
0000
0200
0300
0000
0000
0000
0000
0200
0300
0000
0000
0000
0000
,
1000
0000
0000
0010
0000
1000
0001
0100
0001
1000
0001
0100
2000
0000
0000
0000
,
3100
0000
0010
1000
0000
0001
0100
0001
0020
0000
0000
0000
0230
0000
0000
0000
,
1300
0001
0100
0001
0000
1000
0010
1000
0000
0001
0010
0001
0100
0010
1000
0100
,
1000
0000
0001
0100
0000
0001
1000
0100
0000
0001
0100
1000
0002
0000
0000
0000
,
0103
0000
0000
0000
0001
0000
1000
0000
0000
0000
0100
1000
0100
0000
1000
0000
0000
0000
0001
0000
0010
0000
0001
0000
1000
0000
0010
0000
0100
0000
0001
0000
,
1000
0000
0001
0010
0000
1000
0010
0001
2000
0000
0000
0000
3002
0000
0000
0000
,
1003
0100
1000
0001
0000
1000
0010
1000
0000
0001
0010
0001
1000
0010
0100
0001
,
1000
0010
1000
0100
0000
1000
0001
0100
0000
1000
0100
0001
2000
0000
0000
0000
,
3100
0000
0000
0000
1000
0000
0001
0000
0000
0000
0010
0100
0010
0000
0100
0000
0000
0000
1000
0000
0010
0000
0100
0000
0001
0000
0010
0000
0100
0000
1000
0000
,
0001
0000
0010
0001
0100
0000
0010
1000
0100
0000
1000
0001
1000
0000
0000
0000
,
1000
0200
0000
0301
0200
0000
1300
0200
,
0000
0301
0200
0000
1300
0002
1003
0002
,
1003
0020
0000
0031
0020
0000
1030
0020
,
0000
0031
0020
0000
0000
0000
0000
0000
,
1030
0000
0001
0100
0010
0100
0000
0000
1000
0100
0010
0100
0000
0000
0001
0100
,
0001
1000
0000
0000
0001
1000
0100
1000
0000
0010
1000
0100
0000
1000
0001
0100
,
0001
0000
1000
0100
0010
0100
0000
0000
0001
0100
0010
0100
0000
0000
1000
0100
,
1000
0001
0000
0000
0100
0001
0100
0010
1000
0100
0100
0001
1000
0100
0010
0001
,
0200
0000
0301
1000
0200
0000
1300
0001
0200
0000
0301
1000
0200
0000
1300
0001
,
0020
0000
0031
1000
0020
0000
1030
0001
0020
0000
0031
1000
0020
0000
0130
0001
,
1000
0100
1000
0001
0100
0010
0100
0001
1000
0100
0010
0001
1000
0010
0100
0001
,
0010
0000
0000
0000
0000
0000
0002
2003
,
3100
0000
1000
0010
0100
1000
0000
0000
0001
0010
0100
0001
0000
0000
1000
0100
,
0010
1000
0000
0000
0001
0100
0010
0001
0000
1000
0010
1000
0001
0100
2000
0000
,
3000
0000
0100
0010
1000
0001
0000
0000
0010
0100
0001
1000
0000
0000
0010
0100
,
1000
0000
0001
0000
0000
0000
0000
0000
0100
0000
0001
0000
0100
0000
0001
0000
1000
0010
1000
0000
0001
0000
0010
0000
0100
0000
1000
0000
0001
0000
0100
0000
,
0001
0000
1000
0100
0010
1000
0000
0000
0001
0100
0010
0001
0000
0000
1000
0010
,
0100
1000
0000
0000
0001
0010
0100
0001
0000
1000
0100
1000
0010
0100
0001
0100
,
2000
3000
0000
0000
0100
0000
0001
0000
0100
0000
0001
0000
2000
3000
0000
0000
0100
0000
0010
0000
0100
0000
0010
0000
2000
3000
0000
0000
0001
0000
0100
0000
,
0001
0000
0100
0000
2000
3000
0000
0000
0001
0000
0010
0000
0001
0000
1000
0000
0010
0100
0010
0000
1000
0000
0001
0000
0010
0000
0100
0000
1000
0000
0001
0000
,
0000
0000
0000
0000
,
1001
0000
0000
0000
;
