#TITLE:AZE GAG;
#SUBTITLE:;
#ARTIST:MAMAMOO;
#TITLETRANSLIT:;
#SUBTITLETRANSLIT:;
#ARTISTTRANSLIT:;
#GENRE:K-Pop;
#CREDIT:Melody Love;
#MUSIC:AZE GAG.ogg;
#BANNER:AZE GAG.png;
#BACKGROUND:AZE GAG-bg.png;
#CDTITLE:;
#SAMPLESTART:96.313;
#SAMPLELENGTH:29.398;
#SELECTABLE:YES;
#OFFSET:-0.443;
#BPMS:0.000=133.000;
#STOPS:130.000=1.353
,255.000=1.353
;
#JACKET:AZE GAG-jacket.png;
#BGCHANGES:-1.543=AZE GAG.mp4=1.000=1=0=0=StretchNoLoop==CrossFade==,
99999.000=-nosongbg-=1.000=0=0=0=StretchNoLoop====
;
#FGCHANGES:;

//--------------- dance-single - Melody Love ----------------
#NOTES:
     dance-single:
     Melody Love:
     Beginner:
     3:
     0,0,0,0,0:
0000
0000
0000
0000
,
0000
0000
0000
0000
,
0000
0000
0000
0000
,
0000
0000
0000
0000
,
0000
0000
0000
0000
,
0000
0000
1000
0000
,
1000
0000
0001
0000
,
0001
0000
0100
0000
,
0010
0000
1000
0000
,
0001
0000
0010
0000
,
0010
0000
0100
0000
,
0100
0000
1000
0000
,
0001
0000
0100
0100
,
0100
0000
0010
0000
,
0100
0000
0010
0000
,
0100
0000
0001
0000
,
0001
0000
1000
1000
,
1000
0000
0100
0000
,
0100
0000
0010
0000
,
0010
0000
0001
0000
,
1000
0000
0001
1000
,
0001
0000
0010
0000
,
0010
0000
0100
0000
,
0100
0000
0010
0010
,
0010
0000
0100
0000
,
0100
0000
1000
0000
,
0001
0000
0100
0000
,
0010
0000
1000
0000
,
0001
0000
1001
0000
,
0000
0000
0001
0000
,
0100
0000
0010
0000
,
0010
0000
1000
0000
,
0001
0000
1001
0002
,
0000
0003
0000
2000
,
0000
3000
0000
0010
,
0010
0010
0000
0100
,
0000
0010
0000
1000
,
0000
0000
0000
0001
,
0000
0000
0000
1000
,
0000
0000
0000
0010
,
0000
0000
0000
0010
,
0000
0100
0000
0001
,
0000
1000
0000
0001
,
0000
0100
0000
0001
,
0000
0010
0000
0001
,
0001
0001
0000
1000
,
1000
1000
0000
0010
,
0010
0010
0000
0100
,
0100
0100
0000
0001
,
0000
0100
0000
0010
,
0000
1000
0000
0010
,
0000
0100
0000
0110
,
0000
0000
0000
0010
,
0010
0010
0000
0100
,
0100
0100
0000
0001
,
0000
0001
0000
1000
,
0100
1000
0000
0020
,
0000
0030
0000
0200
,
0000
0300
0000
0001
,
0000
1000
0000
2002
,
0000
3003
0000
1000
,
1000
0010
0000
0001
,
0001
0010
0000
0100
,
0000
0010
0000
1001
,
2000
0000
3100
0000
,
0002
0000
0103
0000
,
0100
0100
0010
0010
,
0000
1000
0001
0000
,
1001
0000
0010
0000
,
1001
0000
0100
0000
,
1001
0000
0100
0000
,
0010
0000
0000
0000
,
0220
0000
0000
0330
,
1001
0000
0000
0000
,
0220
0000
0000
0330
,
1001
0000
0000
0000
,
0200
0000
0000
0000
0000
0000
0000
0000
0000
0000
0000
0000
0000
0000
0000
0000
0000
0000
0000
0300
0000
0000
0000
0000
0000
0000
0000
0000
0000
0000
0000
0000
0000
0000
0000
0000
0000
0000
0000
0000
0000
0000
0000
0000
0000
0000
0000
0000
0000
0000
0000
0000
0000
0000
0000
0000
0000
0000
0000
0000
0000
0000
0000
0000
0000
0000
0000
0000
0000
0000
0000
0000
0000
0000
0000
0000
0000
0000
0000
0000
0000
0000
0000
0000
0000
0000
0000
0000
0000
0000
0000
0000
0000
0000
0000
0000
0000
0000
0000
0000
0000
0000
0000
0000
0000
0000
0000
0000
0000
0000
0000
0000
0000
0000
0000
0000
0000
0000
0000
0000
0000
0000
0000
0000
0000
0000
0000
0000
0000
0000
0000
0000
0000
0000
0000
0000
0000
0000
0000
0000
0000
0000
0000
0000
0000
0000
0000
0000
0000
0000
0000
0000
0000
0000
0000
0000
0000
0000
0000
0000
0000
0000
0000
0000
0000
0000
0000
0000
0000
0000
0000
0000
0000
0000
0000
0000
0000
0000
0000
0000
0000
0000
0000
0000
0000
0000
0000
0000
0000
0000
0000
0000
;

//--------------- dance-single - Melody Love ----------------
#NOTES:
     dance-single:
     Melody Love:
     Easy:
     5:
     0,0,0,0,0:
0000
0000
0000
0000
,
0000
0000
0000
0000
,
0000
0000
0000
0000
,
0000
0000
0000
0000
,
0000
0000
0000
0000
,
0000
0000
0001
0100
,
0001
0000
1000
0100
,
1000
0000
0001
0001
,
1000
1000
0010
0100
,
0010
0000
2000
0100
,
3001
0000
0002
0100
,
1003
0000
0010
0100
,
0010
0010
0100
0010
,
0100
0000
0001
0100
,
0001
0000
1000
0100
,
1000
0000
0001
0001
,
1000
1000
0001
1000
,
0200
0300
0010
0010
,
0010
0000
0001
1000
,
0001
0000
1000
1000
,
1000
0000
0001
0010
,
0001
1000
0100
0000
,
0110
0000
0010
0000
,
0011
0000
0001
0001
,
0001
1001
1000
1000
,
1000
1001
0020
0001
,
0230
1000
0320
0001
,
0230
1000
0310
0001
,
1000
0100
1001
0000
,
0000
0000
0100
0100
,
0110
0000
0001
0001
,
0011
0000
1000
1000
,
1100
0000
0110
2000
,
0100
3001
0000
0002
,
0100
1003
0000
1100
,
0000
0101
0000
2000
,
3100
0002
0103
0001
,
0000
0000
0000
1000
,
0000
0000
0000
0100
,
0000
0100
0100
0010
,
0000
0000
0000
0001
,
0000
1000
0000
0010
,
0010
0100
0000
0001
,
0100
1000
0100
0001
,
0000
1001
0000
1000
,
1000
0001
0001
0100
,
0100
0010
0010
0100
,
0100
0001
0001
0010
,
0010
0100
0100
0100
,
0200
0000
0300
0010
,
0001
0010
0001
1000
,
1000
0010
0100
0110
,
0000
0000
0000
1000
,
1000
1010
0000
0001
,
0001
0011
0000
0001
,
0100
1000
0000
1000
,
0100
0001
0001
2000
,
0100
3001
0000
0002
,
0100
1003
0000
1010
,
0000
0011
0000
2002
,
0000
3003
0000
1000
,
0100
1100
0000
0001
,
0100
0101
0000
1000
,
0001
0200
0000
0310
,
2000
0010
3001
0100
,
0002
0010
1003
0100
,
1000
1000
0001
0001
,
0100
0020
0030
0110
,
1010
0000
1010
0000
,
0101
0000
0101
0000
,
1100
0000
1100
0000
,
0011
0000
0000
0000
,
0220
0000
0330
0001
,
0220
0000
0330
1000
,
0220
0000
0330
0001
,
0220
0330
0001
0100
,
2000
0000
0000
0000
0000
0000
0000
0000
0000
0000
0000
0000
0000
0000
0000
0000
0000
0000
0000
3000
0000
0000
0000
0000
0000
0000
0000
0000
0000
0000
0000
0000
0000
0000
0000
0000
0000
0000
0000
0000
0000
0000
0000
0000
0000
0000
0000
0000
0000
0000
0000
0000
0000
0000
0000
0000
0000
0000
0000
0000
0000
0000
0000
0000
0000
0000
0000
0000
0000
0000
0000
0000
0000
0000
0000
0000
0000
0000
0000
0000
0000
0000
0000
0000
0000
0000
0000
0000
0000
0000
0000
0000
0000
0000
0000
0000
0000
0000
0000
0000
0000
0000
0000
0000
0000
0000
0000
0000
0000
0000
0000
0000
0000
0000
0000
0000
0000
0000
0000
0000
0000
0000
0000
0000
0000
0000
0000
0000
0000
0000
0000
0000
0000
0000
0000
0000
0000
0000
0000
0000
0000
0000
0000
0000
0000
0000
0000
0000
0000
0000
0000
0000
0000
0000
0000
0000
0000
0000
0000
0000
0000
0000
0000
0000
0000
0000
0000
0000
0000
0000
0000
0000
0000
0000
0000
0000
0000
0000
0000
0000
0000
0000
0000
0000
0000
0000
0000
0000
0000
0000
0000
0000
;

//--------------- dance-single - Melody Love ----------------
#NOTES:
     dance-single:
     Melody Love:
     Medium:
     11:
     0,0,0,0,0:
0000
0000
0000
0000
,
0000
0000
0000
0000
,
0000
0000
0000
0000
,
0000
0000
0000
0000
,
0000
0000
0000
0000
,
0000
0000
0000
0000
1001
1000
0100
0010
,
0001
0000
0000
0001
0001
1000
0100
0010
,
0001
0000
0000
0001
0001
1000
0100
0010
,
0001
0100
0010
1000
1000
0010
0100
0001
,
1000
0000
0200
0000
0300
0000
0000
0000
1000
0000
0000
0100
0000
0000
0001
0000
,
0000
0000
0000
0000
1001
0000
1000
0000
0001
0000
0000
0100
0000
0000
1000
0000
,
0000
1001
0000
0000
1000
0100
0010
0010
,
0001
0100
0010
0020
1000
0100
0000
0031
,
0000
0110
0000
1000
0001
0100
0001
1000
,
0001
0101
0000
0001
1000
0100
1000
0001
,
1000
0000
0100
0010
0000
0000
0000
0000
0110
0000
0010
0000
0001
0000
0010
0000
,
0100
0010
1000
0010
0001
1000
0010
0100
,
1000
0000
0100
0000
0001
0000
0001
0000
1100
0000
0000
0010
0000
0000
0001
0000
,
0000
0000
0000
0000
0101
0000
0000
0000
0001
0000
0000
0100
0000
0000
1000
0000
,
0000
1001
0000
0000
0100
0010
0100
1000
,
0100
0001
0100
0010
1000
0020
0000
0100
,
0100
0000
0130
0000
0000
0000
0000
0000
1001
0000
0000
0001
0000
0000
0100
0000
,
0010
0000
0000
0000
0100
0000
0000
0000
1001
0000
0000
1000
0000
0000
0100
0000
,
0010
0000
0100
0000
1000
0100
1000
0100
,
0001
0100
0001
0100
1000
0010
1000
0010
,
0001
0010
0001
0010
1000
0001
0100
0000
,
1000
0001
0100
0000
1000
0001
0010
0000
,
1000
0001
0010
0000
1000
0001
0100
0010
,
2000
3002
0013
0000
,
0100
0100
0100
0010
0110
0000
1000
1100
,
0000
1000
0010
0100
0001
0000
0001
0101
,
0000
0001
1000
0100
0002
0000
0103
1000
,
0000
0000
0000
0010
0000
0000
1000
0000
0000
0001
0000
0000
0220
0330
0000
0000
0000
0000
2000
0000
0000
0000
0000
0000
,
0100
3001
1001
0002
,
0100
1003
1001
2100
,
3010
0000
0102
0000
0013
0100
0000
0010
,
0100
0000
2000
0000
0000
0000
3001
0000
1001
0000
0000
0000
0100
0000
0000
0100
,
0000
0000
0100
0000
0000
0000
1010
0000
0000
0000
0000
0000
1000
0000
0000
1000
,
0000
0000
1000
0000
0000
0000
0000
0000
0011
0000
0000
0000
0001
0000
0000
0001
,
0000
0000
0001
0000
0000
0000
0000
0000
1100
0000
0000
0000
0100
0000
0000
0100
,
0000
0100
0000
1000
0001
0100
0020
0000
,
1000
0130
0000
0001
1000
0000
0200
0000
,
0001
0310
0000
0110
0000
0000
0100
0010
,
0010
0001
1000
0010
0010
0001
0010
1000
,
0000
0001
0002
0003
1000
1000
0100
0001
,
0100
1000
0010
0100
1000
0000
0100
1000
,
0100
0001
0010
0100
0001
0000
0100
0001
,
0100
1000
0010
0100
1000
0000
0100
1000
,
0100
0001
0010
0010
0010
0020
0030
0000
,
2002
0000
3003
0000
0000
0002
0100
2003
,
0100
3002
0100
2003
0100
3000
0001
0001
,
0100
1000
2000
3000
0100
0010
1000
1000
,
0100
0001
0002
0003
0100
0010
0110
0000
,
1000
1100
0000
0001
0100
0010
1000
0001
,
0001
0001
0000
0010
0100
0010
0200
0000
,
1300
1000
0000
0010
0001
0010
1000
0000
,
0001
0001
0000
1000
0100
0010
0002
0000
,
0100
1003
1001
2000
,
0100
3001
1001
0102
,
1003
0000
2100
0000
3001
0000
1000
0001
,
1000
1002
0000
0100
0103
0010
0110
0000
,
0001
0011
0000
0001
0100
0010
1000
0000
,
1000
1010
0000
1000
0001
0010
2000
0000
,
3010
0002
0000
0000
0000
0000
1003
0000
,
2000
0010
3001
1001
,
0002
0010
1003
1001
,
2100
0000
3010
0000
0102
0000
0013
0100
,
0000
0000
1000
0001
1000
0000
0002
0000
0000
0000
1003
0000
0110
0000
0000
0000
,
1010
1010
1010
1010
,
0101
0101
0101
0101
,
1100
1100
1100
1100
,
0011
0000
0000
0000
,
0110
0100
0010
0001
,
0110
0010
0100
1000
,
0110
0100
0010
0001
,
0220
0000
0330
0100
0010
0100
0000
0000
,
0002
0000
0000
0000
0000
0000
0000
0000
0000
0000
0000
0000
0000
0000
0000
0000
0000
0000
0000
0003
0000
0000
0000
0000
0000
0000
0000
0000
0000
0000
0000
0000
0000
0000
0000
0000
0000
0000
0000
0000
0000
0000
0000
0000
0000
0000
0000
0000
0000
0000
0000
0000
0000
0000
0000
0000
0000
0000
0000
0000
0000
0000
0000
0000
0000
0000
0000
0000
0000
0000
0000
0000
0000
0000
0000
0000
0000
0000
0000
0000
0000
0000
0000
0000
0000
0000
0000
0000
0000
0000
0000
0000
0000
0000
0000
0000
0000
0000
0000
0000
0000
0000
0000
0000
0000
0000
0000
0000
0000
0000
0000
0000
0000
0000
0000
0000
0000
0000
0000
0000
0000
0000
0000
0000
0000
0000
0000
0000
0000
0000
0000
0000
0000
0000
0000
0000
0000
0000
0000
0000
0000
0000
0000
0000
0000
0000
0000
0000
0000
0000
0000
0000
0000
0000
0000
0000
0000
0000
0000
0000
0000
0000
0000
0000
0000
0000
0000
0000
0000
0000
0000
0000
0000
0000
0000
0000
0000
0000
0000
0000
0000
0000
0000
0000
0000
0000
0000
0000
0000
0000
0000
0000
;

//--------------- dance-single - Melody Love ----------------
#NOTES:
     dance-single:
     Melody Love:
     Hard:
     13:
     0,0,0,0,0:
0000
0000
0000
0000
,
0000
0000
0000
0000
,
0000
0000
0000
0000
,
0000
0000
0000
0000
,
0000
0000
0000
0000
0000
0000
0000
0000
1000
0001
0000
1000
0001
0000
0100
0010
,
0000
0100
0020
0000
0000
0000
0000
0000
1030
0000
0100
0000
0001
0000
0100
0000
,
1000
0000
0000
1000
1000
0100
0001
0100
,
1000
0000
0000
1000
1000
0100
0001
1000
,
0010
0001
0010
1000
0010
0001
0100
1000
,
0100
0000
0020
0000
0000
0000
1030
0000
0100
0000
0000
0010
0000
0000
0002
0000
,
0003
0000
0100
0010
0100
0000
1000
0000
0100
0000
0000
0010
0000
0000
0002
0000
,
0003
0000
2000
3000
0000
0000
0000
0000
0000
0000
0000
0000
0100
0000
0000
0000
0001
0000
0000
0000
0100
0000
0000
0000
0001
0000
0000
0000
0010
0000
0000
0000
,
0001
0010
0100
0010
1000
0010
0000
0120
,
0000
0130
0000
1000
0001
0100
0010
0100
,
0001
1001
0000
0001
1000
0100
0010
0100
,
1000
0000
0000
0000
0000
0000
0001
0000
0000
0100
0000
0000
0000
0000
0000
0000
0002
0000
0000
0000
0000
0003
0000
0000
0100
0000
0000
0000
0000
0000
1000
0000
0000
0000
0000
0000
0100
0000
0000
0000
0000
0000
1000
0000
0000
0000
0000
0000
,
0100
1000
0100
0001
0010
0001
0100
0001
,
0010
0000
0010
0000
0100
0000
0100
0000
0001
0000
0000
0100
0000
0000
2000
0000
,
3000
0000
0010
0100
0010
0000
0001
0000
0010
0000
0000
0100
0000
0000
2000
0000
,
3000
1100
0000
0100
0001
0010
0001
0100
,
0001
0010
0001
0100
1000
0200
0000
0010
,
0001
0000
0310
0000
0000
0000
1000
0000
0100
0000
0000
0001
0000
0000
0100
0000
,
0010
0000
0000
0000
0001
0000
0000
0000
0010
0000
0000
0000
0000
0000
0000
0000
0000
0000
0001
0000
0000
0000
0000
0000
0100
0000
0000
0000
0000
0000
0000
0000
0000
1000
0000
0000
0000
0000
0000
0100
0000
0000
1000
0000
0000
0000
0000
0000
,
0100
0000
0001
0000
0000
0000
1000
0000
0100
0010
0001
0000
0001
0010
0100
0000
,
0100
1000
0010
0000
0010
0000
0001
0000
0010
0000
1000
0000
0100
0000
0010
0100
,
0010
0001
1000
1001
0000
0100
0020
0000
,
0031
0010
1000
0000
0001
0010
1000
0000
,
0001
0100
1000
0000
0001
0100
0010
1000
,
0001
0000
0000
0200
0000
0000
1300
0000
0100
0010
0100
0000
0002
0000
0000
0000
,
1003
0000
0001
0000
1000
0000
0001
0000
1001
0000
0000
0100
1000
0000
1100
0000
,
0000
0000
0001
0000
1000
0000
0001
0000
2000
0000
0000
3100
0001
0000
0100
0000
,
0000
0000
0010
0000
0001
0000
0010
0000
1000
0000
0000
0010
0100
0000
0010
0000
,
0000
0000
0000
0100
0000
0000
1000
0000
0000
0001
0000
0000
0220
0330
0000
0000
0000
0000
2000
0000
0000
0000
0000
0000
,
0100
0001
3100
0002
,
0100
0000
0000
0000
1000
0000
0000
0000
0103
0000
0000
0000
2100
0000
3000
0010
,
0100
0000
0000
0000
0102
0000
0003
0010
0100
0000
0010
0000
0000
0000
0100
0010
,
0001
0000
0200
0000
0000
0000
1000
0000
0310
0000
0000
0000
1000
0000
0000
1000
,
0000
0000
1000
0000
0000
0000
0110
0000
0000
0000
0000
0000
0001
0000
0000
0001
,
0000
0000
0001
0000
0000
0000
1000
0001
1000
0000
0000
0000
0100
0000
0000
0100
,
0000
0000
0100
0000
0000
0000
1000
0000
0001
0000
0100
0000
0010
0000
0000
0010
,
0000
0000
0010
0100
0000
0100
0010
0000
1000
0000
0001
0000
1001
0000
0000
0001
,
1000
0000
0200
0000
0300
0000
0010
0001
0010
0000
0100
0000
1000
0000
0000
1000
,
0010
0200
0000
0310
0100
0001
0001
0010
,
0100
0001
0001
1000
0010
0001
0001
0200
,
0000
1000
0001
0000
0310
0010
1000
0100
,
0001
0100
1000
0010
0100
0000
1000
0100
,
0001
0100
1000
0010
0100
0000
1000
0100
,
0001
0100
0001
0000
0100
0000
1000
0000
0010
0000
0000
0000
0100
0010
0100
0000
,
0001
0010
0100
0100
0100
0200
0300
0000
,
0220
0000
0330
0001
1000
0100
0001
0100
,
1000
0100
0001
0100
2000
3000
0010
0100
,
1000
0000
1000
0000
0200
0000
0300
0010
0100
0000
0001
0000
0010
0000
0010
0000
,
0200
0000
0300
0010
0100
0000
1000
0000
0001
0000
1000
0000
1001
0000
0000
0100
,
0001
0000
0101
0000
0000
0000
0100
0000
0001
0000
1000
0000
0002
0000
0000
0013
,
0100
0000
0010
0000
0000
0000
0100
0000
1000
0000
0100
0000
0001
0000
0000
0001
,
0100
0000
1000
0000
0000
0000
0010
0000
0001
0000
1000
0000
0100
0000
0000
0100
,
0010
0100
0000
0001
0001
0001
2000
0000
,
0100
0001
3100
0002
,
0100
0000
0000
0000
1000
0000
0000
0000
0103
0000
0000
0000
2100
0000
3000
0001
,
0100
0000
0000
0000
0102
0000
0003
1000
0100
0000
0010
0000
0100
0000
0100
0000
,
0100
0000
0020
0000
0000
0000
0031
0000
1000
0000
0001
0000
1001
0000
0000
0010
,
0001
0000
0011
0000
0000
0000
1000
0000
0010
0000
0001
0000
0010
0000
0100
0010
,
0100
0000
0020
0000
0030
0000
1000
0000
1000
0000
0001
0000
0100
0000
0000
0100
,
0010
0000
0000
0200
0000
0000
0000
0000
0000
0001
0000
0000
1000
0000
0000
0000
0000
0000
0020
0330
0000
0000
0000
0000
,
2000
0010
0001
3100
,
0002
0010
1000
0103
,
2010
0000
3000
0001
0100
0000
0000
0000
0012
0000
0003
1000
0100
0000
1000
0000
,
0000
0000
0010
0100
0001
0000
2000
0000
0000
0000
3001
0000
1001
0000
0000
0000
,
1100
0101
1100
1100
,
1010
0011
1010
1010
,
0101
1100
0101
0101
,
0011
0000
0000
0000
,
0120
1000
0100
0031
,
0210
0001
0010
1300
,
0120
1000
0100
0031
,
0220
0000
0330
0100
0010
0100
0000
0000
,
2000
0000
0000
0000
0000
0000
0000
0000
0000
0000
0000
0000
0000
0000
0000
0000
0000
0000
0000
3000
0000
0000
0000
0000
0000
0000
0000
0000
0000
0000
0000
0000
0000
0000
0000
0000
0000
0000
0000
0000
0000
0000
0000
0000
0000
0000
0000
0000
0000
0000
0000
0000
0000
0000
0000
0000
0000
0000
0000
0000
0000
0000
0000
0000
0000
0000
0000
0000
0000
0000
0000
0000
0000
0000
0000
0000
0000
0000
0000
0000
0000
0000
0000
0000
0000
0000
0000
0000
0000
0000
0000
0000
0000
0000
0000
0000
0000
0000
0000
0000
0000
0000
0000
0000
0000
0000
0000
0000
0000
0000
0000
0000
0000
0000
0000
0000
0000
0000
0000
0000
0000
0000
0000
0000
0000
0000
0000
0000
0000
0000
0000
0000
0000
0000
0000
0000
0000
0000
0000
0000
0000
0000
0000
0000
0000
0000
0000
0000
0000
0000
0000
0000
0000
0000
0000
0000
0000
0000
0000
0000
0000
0000
0000
0000
0000
0000
0000
0000
0000
0000
0000
0000
0000
0000
0000
0000
0000
0000
0000
0000
0000
0000
0000
0000
0000
0000
0000
0000
0000
0000
0000
0000
;
