#TITLE:8bit Princess;
#SUBTITLE:;
#ARTIST:seiya-murai feat. ALT;
#TITLETRANSLIT:;
#SUBTITLETRANSLIT:;
#ARTISTTRANSLIT:;
#GENRE:;
#CREDIT:;
#MUSIC:8bit Princess.ogg;
#BANNER:8bit Princess.png;
#BACKGROUND:8bit Princess-bg.png;
#CDTITLE:;
#SAMPLESTART:76.929;
#SAMPLELENGTH:15.000;
#SELECTABLE:YES;
#OFFSET:1.471;
#BPMS:0.000=150.000;
#STOPS:;
#BGCHANGES:3.000=8bit Princess.mp4=1.000=0=0=0=StretchNoLoop====,
99999.000=-nosongbg-=1.000=0=0=0=StretchNoLoop====
;
#FGCHANGES:;

//--------------- dance-single - P1989 ----------------
#NOTES:
     dance-single:
     P1989:
     Beginner:
     3:
     0,0,0,0,0:
0000
0000
0000
0000
,
0000
0000
0000
0000
,
0000
0000
0000
0000
,
0000
0000
0000
0000
,
0000
0000
0000
0000
,
0001
0000
0000
0000
,
0100
0000
0000
0000
,
0001
0000
0000
0000
,
0010
0000
0000
0000
,
0100
0000
0000
0000
,
1000
0000
0000
0000
,
0010
0000
0000
0000
,
1000
0000
0000
0000
,
0001
0000
0000
0000
,
0001
0000
0001
0000
,
1000
0000
0000
0000
,
0010
0000
0100
0000
,
0001
0000
0000
0000
,
1000
0000
1000
0000
,
1000
0000
0000
0000
,
0100
0100
0100
0000
,
0010
0000
0000
0000
,
0001
0000
0000
0000
,
1000
0000
0000
0000
,
0010
0000
0000
0000
,
0100
0000
0000
0000
,
0001
0000
0001
0000
,
0010
0000
0000
0000
,
0100
0100
0100
0100
,
0000
0000
0000
0000
,
1000
0000
1000
0000
,
0010
0000
0000
0000
,
1000
0000
0001
0000
,
0010
0000
0000
0000
,
0100
0000
0000
0000
,
1000
0000
0000
0000
,
0001
0000
0000
0000
,
0100
0000
0000
0000
,
0010
0000
0000
0000
,
1000
0000
0000
0000
,
0001
0000
0000
0000
,
0020
0000
0000
0000
,
0030
0000
0000
0000
,
0200
0000
0000
0000
,
0300
0000
0000
0000
,
2000
0000
0000
0000
,
3000
0000
0000
0000
,
0002
0000
0003
0000
,
2002
0000
3003
0000
,
1000
1000
1000
0000
,
0001
0000
0000
0000
,
0001
0001
0001
0000
,
1000
0000
0000
0000
,
0010
0010
0010
0000
,
0100
0000
0000
0000
,
0100
0100
0100
0000
,
0010
0000
0000
0000
,
1000
1000
0001
0000
,
1000
0000
0000
0000
,
0001
0001
1000
0000
,
0001
0000
0000
0000
,
0010
0010
0100
0000
,
0010
0000
0000
0000
,
0100
0100
0010
0000
,
0100
0000
0000
0000
,
1000
0000
0000
0000
,
0010
0000
0000
0000
,
0100
0000
0000
0000
,
0001
0000
0000
0000
,
1000
0000
0000
0000
,
0100
0000
0000
0000
,
0010
0000
0000
0000
,
0001
0000
0000
0000
,
0100
0000
0010
0000
,
0100
0000
0010
0010
;

//--------------- dance-single - P1989 ----------------
#NOTES:
     dance-single:
     P1989:
     Easy:
     7:
     0,0,0,0,0:
0000
0000
0000
0000
,
0000
0000
0000
0000
,
0000
0000
0000
0000
,
0000
0000
0000
0000
,
0000
0000
0000
0000
,
1000
0001
1000
0000
,
0010
0000
0100
0000
,
0001
1000
0001
0000
,
0010
0000
0100
0000
,
1000
0001
0100
0000
,
0010
0000
1000
0000
,
0001
1000
0100
0000
,
0020
0000
0030
0000
,
0000
0001
0100
0001
,
0100
0001
1000
0020
,
0030
1000
0100
1000
,
0010
0010
0100
0100
,
0000
0001
0010
0001
,
0010
0001
1000
0100
,
0000
1000
0010
1000
,
0100
0100
0010
0010
,
0001
0000
0100
0010
,
2000
3000
0002
0003
,
1000
0000
0100
0010
,
0002
0000
0003
0200
0000
0300
0020
0000
,
0030
1000
0100
1000
,
0100
1000
0001
0020
,
0030
0001
0100
0001
,
0010
0010
0010
0010
,
0000
0100
1000
0100
,
1000
0100
0010
0001
,
0000
0100
0001
0100
,
0020
0000
0000
0030
1000
0000
0000
0000
,
0001
1000
1001
0000
,
0001
0100
0001
0000
,
1000
0001
1001
0000
,
1000
0100
1000
0000
,
0010
0100
0110
0000
,
0001
1000
0100
0000
,
0010
0100
0110
0000
,
1000
0001
0100
0000
,
0020
0000
1030
0000
,
0002
0000
0103
0000
,
2000
0000
3100
0000
,
0002
0003
2000
3000
,
0020
0000
0130
0000
,
2000
0000
3001
0000
,
0200
0000
0310
0000
,
2002
0000
3003
0000
,
0001
1000
0001
1001
,
0000
0001
0010
0100
,
1000
0001
1000
1001
,
0000
1000
0010
0100
,
0001
1000
0001
1001
,
0000
0001
0010
0100
,
1000
0001
1000
1001
,
0000
1000
0001
0100
,
0010
0100
0010
0110
,
0000
0010
1000
0001
,
0010
0100
0010
0110
,
0000
0010
0001
1000
,
0100
0010
0100
0110
,
0000
0100
1000
0001
,
0100
0010
0100
0110
,
0000
0100
0001
1000
,
0200
0000
0010
0000
,
1000
0000
0010
0300
,
0100
1000
0100
0000
,
0100
0010
0001
0000
,
0200
0000
0010
0000
,
0001
0000
0010
0300
,
0100
0001
0100
0000
,
0100
0010
1000
0000
,
1002
0000
0100
0003
,
2001
0000
0100
3100
;

//--------------- dance-single - P1989 ----------------
#NOTES:
     dance-single:
     P1989:
     Medium:
     10:
     0,0,0,0,0:
0000
0000
0000
0000
,
0000
0000
0000
0000
,
0000
0000
0000
0000
,
0000
0000
0000
0000
,
0000
0000
0000
0000
,
0001
0100
0001
0000
0010
0000
0001
0000
,
1000
0010
0000
0200
0000
0300
0001
0000
,
1000
0100
1000
0000
0010
0000
1000
0000
,
0001
0010
0000
0200
0000
0300
1000
0001
,
1000
0010
1000
0000
0100
0000
1000
0000
,
0001
0100
0000
0020
0000
0030
1000
0000
,
0001
0010
0001
0000
0100
0000
0001
0000
,
1000
0100
0000
0020
0000
0030
0001
0000
,
0000
1010
1000
1100
,
1000
1010
0002
2003
,
3000
0011
0001
0101
,
1000
1000
1000
0000
0010
0100
0010
0000
,
0000
1100
1000
1010
,
1000
0000
1100
0000
0001
1000
0001
1000
,
0000
0101
0001
0011
,
0100
0100
0100
0000
0001
1000
0001
0000
,
0010
0100
0010
0000
0001
0000
1000
0000
,
0100
1000
0000
0002
0000
0003
1000
0000
,
0010
0100
0010
0000
1000
0000
0001
0000
,
0020
0000
0030
0200
0000
0300
2000
0000
,
3000
0101
1000
1100
,
0001
0101
2000
3002
,
0003
1100
1000
0101
,
0100
0010
0100
0010
0100
0010
0100
0010
,
0000
1010
1000
0011
,
0001
0000
1010
0000
0001
1000
0001
1000
,
0000
0011
0001
1010
,
2000
0000
0000
3000
0100
0100
0100
0000
,
1000
0000
0010
0000
0110
0000
0001
1000
,
0001
0010
0110
1001
,
0000
0000
0010
0000
0110
0000
0001
1000
,
0001
0010
0110
1001
,
0000
0000
1100
0000
0110
0000
1000
0001
,
1000
0010
0110
1001
,
0000
0000
0101
0000
0110
0000
0001
1000
,
0001
0010
0110
1001
,
2000
3200
2300
3000
,
0002
0203
0302
0003
,
0020
0230
2300
3020
,
0230
0300
0002
0003
,
0020
0032
0203
0300
,
0020
2030
3200
0300
,
2000
3002
0203
0310
,
2002
3003
0220
0330
,
1001
0000
0110
0000
1001
0000
1000
0020
,
0000
0130
0001
0000
0100
0010
0100
0000
,
1001
0000
0110
0000
1001
0000
0001
0020
,
0000
0130
1000
0000
0100
0010
0100
0000
,
1100
0000
0011
0000
1100
0000
1000
0020
,
0000
0130
0001
0000
1000
0001
1000
0000
,
0101
0000
1010
0000
0101
0000
0001
0020
,
0000
0130
1000
0000
0110
0000
1001
0000
,
1010
0000
1100
0000
1010
0000
1000
0002
,
0000
0103
0010
0000
1000
0001
1000
0000
,
0101
0000
0011
0000
0101
0000
0001
2000
,
0000
3100
0010
0000
0001
1000
0001
0000
,
1010
0000
1100
0000
1010
0000
0010
0200
,
0000
0301
0010
0000
0100
1000
0100
0000
,
0011
0000
0101
0000
0011
0000
0010
0200
,
0000
1300
0010
0000
0110
0000
1001
0000
,
2000
0100
0001
0010
,
0001
0100
0001
3010
,
1000
0001
1000
0000
0010
0000
0100
0002
,
0000
0013
0001
0000
0100
0000
1001
0000
,
0002
0100
1000
0010
,
1000
0100
1000
0013
,
0001
1000
0001
0000
0010
0000
0100
2000
,
0000
3010
1000
0000
0100
0000
1001
0000
,
1000
0100
0001
0000
0100
0000
1000
0000
,
0001
0100
1000
0000
0100
0100
0001
0100
;

//--------------- dance-single - P1989 ----------------
#NOTES:
     dance-single:
     P1989:
     Hard:
     13:
     0,0,0,0,0:
0000
0000
0000
0000
,
0000
0000
0000
0000
,
0000
0000
0000
0000
,
0000
0000
0000
0000
,
0000
0000
0000
0000
,
1000
0100
0001
0000
0100
0000
1001
0000
,
0001
0010
0001
2000
0000
3100
0010
0000
,
0001
0100
1000
0000
0100
0000
1001
0000
,
1000
0010
1000
0002
0100
0103
0001
0100
,
0001
0010
1000
0000
0010
0000
1001
0000
,
1000
0100
1000
0002
0000
0013
0100
0000
,
1000
0010
0001
0000
0010
0000
1001
0000
,
0001
0100
0000
0020
1000
1030
0001
0000
,
1000
0100
0001
0100
1000
0001
0010
1000
,
0010
0001
1000
0100
0010
0000
1001
0000
,
0001
0100
1000
0100
0001
1000
0010
0001
,
0010
0100
0110
0000
0001
1000
1001
0000
,
0001
0010
1000
0010
0001
1000
0100
0001
,
0100
1000
0001
0010
0100
0001
0100
1000
,
0000
0001
0100
1000
0100
0001
1000
0010
,
0100
0001
0100
0001
0100
0000
0000
0000
0010
0000
0100
0000
1001
0000
0000
0000
,
1000
0100
0001
0000
0101
0000
1100
0000
,
0001
0010
1000
0020
0000
0031
1000
0000
,
0001
0100
1000
0000
1100
0000
0101
0000
,
0002
0000
0013
0200
0000
1300
0020
0000
,
0130
1000
0100
0001
1000
0010
0001
0010
,
1000
0001
0100
0010
0110
0000
2001
0000
,
3100
0001
0100
1000
0001
0010
1000
0010
,
0002
0100
2003
0100
3002
0100
2003
0100
,
3001
0010
1000
0010
0100
0001
0100
1000
,
0001
0010
0001
1000
0010
0001
0010
1000
,
0000
0001
0100
1000
0100
0001
1000
0010
,
0210
0000
0301
1000
0100
0100
0010
0000
,
0001
0000
0011
0000
1200
0000
0301
0100
,
1000
0010
1000
0002
0000
0103
0110
0000
,
0010
1000
0100
1000
0002
0000
0103
0010
,
2000
0000
3100
0002
0000
0103
0110
0010
,
0001
0101
1020
0031
,
0010
1000
0100
2000
0000
3001
0101
0000
,
0001
0010
1000
0010
0001
0000
0110
0000
,
1000
0001
0100
2000
0000
3100
0101
0000
,
0002
0000
0010
0000
2003
0000
3001
0100
,
0020
0000
0100
0000
2030
0000
3100
0010
,
0002
0000
0100
0000
0023
0000
0130
1000
,
0020
0000
0000
1030
2000
0000
0000
3001
,
0002
0000
0010
0000
0203
0000
0301
1000
,
0020
0000
0100
0000
2030
0000
3010
0100
,
0002
0000
0013
0100
2000
0000
3010
0100
,
2002
3003
0220
0330
,
1000
0000
0100
0000
0001
0000
0100
0000
1000
0000
0100
0000
1000
0001
0020
0000
,
0000
0130
1000
0010
0100
0001
0010
0010
,
0001
0000
0100
0000
1000
0000
0100
0000
0001
0000
0100
0000
0001
1000
0020
0000
,
0000
0130
0001
0010
0001
1000
0100
0100
,
1000
0000
0010
0000
0001
0000
0010
0000
1000
0000
0010
0000
1000
0001
0200
0000
,
0000
0310
1000
0100
0010
0001
0100
0100
,
0001
0000
0010
0000
1000
0000
0010
0000
0001
0000
0010
0000
0001
1000
0200
0000
,
0000
0310
0001
0100
0110
0000
1001
0000
,
0001
0000
0100
0000
1000
0000
0001
0000
0010
0000
1000
0000
0010
0100
0002
0000
,
0000
1003
0100
0010
0100
1000
0010
0010
,
1000
0000
0100
0000
0001
0000
1000
0000
0010
0000
0001
0000
0010
0100
2000
0000
,
0000
3001
0010
0100
0010
0001
0100
0100
,
0001
0000
0010
0000
1000
0000
0001
0000
0100
0000
1000
0000
0100
0010
0002
0000
,
0000
1003
0010
0100
0010
1000
0100
0100
,
1000
0000
0010
0000
0001
0000
1000
0000
0100
0000
0001
0000
0100
0010
2000
0000
,
0000
3001
0010
0100
0110
0000
1001
0000
,
0201
0000
0001
0000
0010
0010
0010
0000
,
1000
1000
1000
0000
0010
0010
0310
0000
,
0100
0001
0010
0001
0100
0001
0010
0200
,
0000
1300
0010
0100
0001
0010
0110
0000
,
1200
0000
1000
0000
0010
0010
0010
0000
,
0001
0001
0001
0000
0010
0010
0310
0000
,
0100
1000
0010
1000
0100
1000
0010
0200
,
0000
0301
0010
0100
1000
0010
0110
0000
,
0100
0001
0020
0000
0100
0000
0001
0000
,
0130
0000
1000
0000
0020
0000
0000
0000
0130
0000
0100
0000
0010
0000
0100
0010
;

//--------------- dance-double - P1989 ----------------
#NOTES:
     dance-double:
     P1989:
     Easy:
     7:
     0,0,0,0,0:
00000000
00000000
00000000
00000000
,
00000000
00000000
00000000
00000000
,
00000000
00000000
00000000
00000000
,
00000000
00000000
00000000
00000000
,
00000000
00000000
00000000
00000000
,
00001000
00010000
00001000
00000000
,
01000000
00000000
00010000
00000000
,
10000000
00010000
10000000
00000000
,
00010000
00000000
00100000
00000000
,
00001000
00010000
00001000
00000000
,
00010000
00000000
00000100
00000000
,
00001000
00000001
00001000
00000000
,
00000020
00000000
00000030
00000000
,
00000000
00000100
00000001
00000100
,
00000001
00000100
00000010
00002000
,
00003000
00000100
00001000
00000100
,
00010000
00010000
00001000
00001000
,
00000000
01000000
00010000
01000000
,
00010000
01000000
00100000
10000000
,
00000000
01000000
10000000
01000000
,
00100000
00100000
00010000
00100000
,
00001000
00000000
00010000
00000100
,
00002000
00003000
00000002
00000003
,
00000100
00000000
00000010
00001000
,
00000200
00000000
00000300
00020000
00000000
00030000
00002000
00000000
,
00003000
01000000
00010000
01000000
,
00010000
01000000
00100000
20000000
,
30000000
00010000
00100000
00010000
,
01000000
01000000
01000000
01000000
,
00000000
00001000
00010000
00001000
,
00010000
00001000
00100000
00010000
,
00000000
01000000
00010000
01000000
,
00002000
00000000
00000000
00003000
00010000
00000000
00000000
00000000
,
00000100
00001000
00001100
00000000
,
00000001
00000000
00000010
00000000
,
00000001
00000100
00000101
00000000
,
00001000
00000000
00000010
00000000
,
00010000
00001000
00011000
00000000
,
01000000
00000000
00010000
00000000
,
10000000
00100000
10100000
00000000
,
00010000
00000000
00100000
00000000
,
00002000
00000000
00013000
00000000
,
00020000
00000000
00031000
00000000
,
00000200
00000000
00001300
00000000
,
00000002
00000003
00000020
00000030
,
00000002
00000000
00000103
00000000
,
00002000
00000000
00003010
00000000
,
00020000
00000000
00031000
00000000
,
00022000
00000000
00033000
00000000
,
01000000
01000000
00010000
01010000
,
00000000
00010000
10000000
00100000
,
10000000
10000000
01000000
11000000
,
00000000
00010000
00100000
00001000
,
00010000
00010000
00001000
00011000
,
00000000
00000100
00001000
00000001
,
00000010
00000010
00000100
00000110
,
00000000
00000010
00000001
00001000
,
00000010
00000010
00001000
00001010
,
00000000
00010000
00001000
01000000
,
00010000
00010000
00100000
00110000
,
00000000
10000000
00100000
10000000
,
00010000
00010000
01000000
01010000
,
00000000
00001000
00010000
00000100
,
00001000
00001000
00000001
00001001
,
00000000
00001000
00000010
00010000
,
00002000
00000000
00010000
00000000
,
00010000
00000000
00010000
00003000
,
00001000
00010000
00001000
00000000
,
00100000
00100000
00001000
00000000
,
00020000
00000000
00001000
00000000
,
00001000
00000000
00001000
00030000
,
00010000
00001000
00010000
00000000
,
00000100
00001000
00000100
00000000
,
00000020
00000000
00000001
00000030
,
00000200
00000000
00001000
00001300
;

//--------------- dance-double - P1989 ----------------
#NOTES:
     dance-double:
     P1989:
     Medium:
     10:
     0,0,0,0,0:
00000000
00000000
00000000
00000000
,
00000000
00000000
00000000
00000000
,
00000000
00000000
00000000
00000000
,
00000000
00000000
00000000
00000000
,
00000000
00000000
00000000
00000000
,
00010000
00001000
00010000
00000000
00100000
00000000
10000000
00000000
,
01000000
00010000
00000000
00002000
00000000
00003000
00000010
00000000
,
00001000
00010000
00001000
00000000
00000010
00000000
00000001
00000000
,
00000100
00001000
00000000
00020000
00000000
00030000
00100000
00000000
,
00010000
00001000
00010000
00000000
01000000
00000000
10000000
00000000
,
00100000
00010000
00000000
00002000
00000000
00003000
00000100
00000000
,
00001000
00010000
00001000
00000000
00000100
00000000
00000001
00000000
,
00000010
00001000
00000000
00020000
00000000
00030000
01000000
00000000
,
10000000
00000000
00100000
00000000
10000000
01000000
00100000
00000000
,
00110000
00001000
00020000
00030100
,
00001000
00000000
00000001
00000000
00000100
00000010
00001000
00000000
,
00000001
00000001
00000001
00000000
00000010
00000100
00000010
00000000
,
00000100
00000000
00001000
00000000
00000100
00010000
00001000
00000000
,
00110000
00000000
10000000
00000000
00100000
01000000
00100000
01000000
,
00000000
00000000
00010000
00000000
00100000
00001000
00010000
00000000
,
00000100
00000100
00000100
00000000
00001000
00000001
00001000
00000000
,
00000010
00000100
00000010
00000000
00001000
00000000
00000100
00000000
,
00010000
00001000
00000000
00200000
00000000
00300000
00010000
00000000
,
01000000
00100000
01000000
00000000
00010000
00000000
00100000
00000000
,
00002000
00000000
00003000
00020000
00000000
00030000
00000020
00000000
,
00000030
00000000
00000100
00000000
00000001
00001000
00000010
00000000
,
00011000
01000000
00020000
00230000
,
00300000
00000000
10000000
00000000
00010000
00100000
00001000
00000000
,
00010000
00001000
00010000
00001000
00010000
00001000
00010000
00001000
,
00000000
00000000
00100000
00000000
00010000
00100000
00001000
00000000
,
00011000
00000000
00000010
00000000
00001000
00000001
00001000
00000001
,
00000000
00000000
00000010
00000000
00000100
00001000
00000100
00000000
,
00020000
00000000
00000000
00030000
00001000
00001000
00001000
00000000
,
01000000
00000000
00010000
00000000
10010000
00000000
00000000
10000000
,
00010000
00000000
00100000
00010000
00000000
00100000
00001000
00000000
,
00000000
00010000
00011000
00001000
,
00010000
00000000
00000100
00001000
00000000
00000100
00000010
00000000
,
00000000
00001001
00000101
00001010
,
00001000
00000000
00000100
00010000
00000000
00001000
00010000
00000000
,
00000000
00000000
00011000
00000000
00101000
00000000
00100000
00010000
,
00100000
00000000
01000000
10000000
00000000
00010000
10000000
00000000
,
00020000
02030000
03002000
00003000
,
00020000
00030200
00002300
00003000
,
00000020
00020030
00032000
02003000
,
03020000
00030000
00200000
00300000
,
02000000
23000000
30200000
00300000
,
02000000
03020000
00230000
00300000
,
00002000
00023000
00030200
00002300
,
00003020
00000030
00000220
00000330
,
00000001
00000100
00000001
00000000
00001000
00000100
00001000
00000000
,
00000010
00000000
00010000
00000000
00001000
01000000
00010000
00000000
,
10000000
01000000
10000000
00000000
00010000
01000000
00010000
00000000
,
00100000
00000000
00001000
00000000
00010000
00000100
00001000
00000000
,
00000001
00000010
00000001
00000000
00001000
00000010
00001000
00000000
,
00000100
00000000
00010000
00000000
00001000
00100000
00010000
00000000
,
10000000
00100000
10000000
00000000
00010000
00100000
00010000
00000000
,
01000000
00001000
00011000
00010100
,
00000001
00000010
00000100
00000000
00001000
00000010
00000100
00000000
,
00001000
00000000
00010000
00000000
00001000
01000000
00010000
00000000
,
10000000
00100000
01000000
00000000
00010000
00100000
01000000
00000000
,
00010000
00000000
00001000
00000000
00010000
00000100
00001000
00000000
,
00000001
00000100
00000010
00000000
00001000
00000100
00000010
00000000
,
00000100
00000000
00010000
00000000
00001000
00100000
00010000
00000000
,
10000000
01000000
00100000
00000000
00010000
01000000
00100000
00000000
,
10000000
00010000
00110000
00101000
,
00002000
01000000
00010000
00100000
,
00010000
01000000
00010000
00103000
,
00001000
00010000
00001000
00000000
00010000
00000000
00000100
00002000
,
00000000
00003001
00001000
00000000
00000010
00000000
00010010
00000000
,
00020000
00000100
00001000
00000010
,
00001000
00000100
00001000
00030010
,
00010000
00001000
00010000
00000000
00001000
00000000
00100000
00020000
,
00000000
10030000
00010000
00000000
01000000
00000000
00011000
00000000
,
00100000
00010000
01000000
00000000
00001000
00000000
00010000
00000000
,
00000010
00001000
00000100
00000000
00010000
00010000
00001000
00010000
;

//--------------- dance-double - P1989 ----------------
#NOTES:
     dance-double:
     P1989:
     Hard:
     13:
     0,0,0,0,0:
00000000
00000000
00000000
00000000
,
00000000
00000000
00000000
00000000
,
00000000
00000000
00000000
00000000
,
00000000
00000000
00000000
00000000
,
00000000
00000000
00000000
00000000
,
00010000
00001000
00000010
00000000
00000001
00000000
00001100
00000000
,
00000001
00000100
00001000
00000200
00000000
00001300
00010000
00000000
,
00001000
00010000
00100000
00000000
10000000
00000000
01010000
00000000
,
10000000
00000000
01000000
00000000
00010000
00000000
02000000
00000000
00000000
00000000
03010000
00000000
00001000
00000000
00010000
00001000
,
00010000
00001000
00000010
00000000
00000001
00000000
00001100
00000000
,
00000001
00000100
00001000
00000200
00000000
00001300
00010000
00000000
,
00001000
00010000
00100000
00000000
10000000
00000000
01010000
00000000
,
10000000
02000000
00000000
03020000
00000000
00031000
00000020
00000000
,
00000030
00000001
00000100
00001000
00000100
00000001
00000100
00001000
,
00010000
00100000
10000000
00010000
01000000
00000000
20020000
00000000
,
30030000
10000000
01000000
00010000
01000000
10000000
01000000
00010000
,
00001000
00001000
00001000
00000000
00000010
00000100
00000110
00000000
,
00000000
00000001
00000100
00001000
00000100
00000001
00000100
00001000
,
00010000
00100000
10000000
00100000
01000000
10000000
01000000
00010000
,
00000000
10000000
01000000
00010000
01000000
10000000
01000000
00010000
,
00001000
00010000
00001000
00010000
00001000
00000000
00000000
00000000
00000010
00000000
00000100
00000000
00000110
00000000
00000000
00000000
,
00010000
00001000
00000010
00000000
00000001
00000000
00001100
00000000
,
00000001
00000100
00001000
00000200
00000000
00001300
00010000
00000000
,
00001000
00010000
00100000
00000000
10000000
00000000
01010000
00000000
,
20000000
00000000
31000000
00020000
00000000
00031000
00000200
00000000
,
00000300
00000001
00000010
00001000
00000010
00000001
00000010
00001000
,
00010000
01000000
10000000
00010000
00100000
00000000
20020000
00000000
,
30030000
10000000
00100000
00010000
00100000
10000000
00100000
00010000
,
00002000
00100000
00023000
00000010
00032000
00100000
00023000
00000010
,
00030000
00000001
00000010
00001000
00000010
00000001
00000010
00001000
,
00010000
01000000
10000000
00010000
01000000
00001000
00010000
00100000
,
00000000
10000000
00100000
00010000
00100000
10000000
00100000
00010000
,
00002000
00000000
00003100
00000010
00001000
00001000
00000001
00000000
,
00000011
00000110
00002200
00003300
,
00000001
00000100
00001000
00000200
00000000
00001300
00010000
00000000
,
00100000
10000000
01000000
10000000
00020000
00000000
00130000
01000000
,
20000000
00000000
31000000
00020000
00000000
00031000
00011000
00000000
,
00100000
00110000
00011000
00001100
,
00000001
00000010
00001000
00000020
00000000
00000031
00000100
00000000
,
00000001
00000010
00001000
00010000
00001000
00000000
00011000
00000000
,
00010000
00100000
10000000
00020000
00000000
01030000
01100000
00000000
,
20000000
00000000
30200000
00000000
00320000
00000000
00031000
00010000
,
00002000
00000000
00003020
00000000
00000032
00000000
00000103
00000001
,
00000020
00002030
00023000
02030000
,
23000000
30000000
00020000
00030000
,
20000000
00000000
30200000
00000000
00320000
00000000
00031000
00010000
,
00002000
00000000
00003020
00000000
00000032
00000000
00000103
00000001
,
00000200
00002300
00023000
00230000
,
02300000
03000000
20020000
30030000
,
10000000
00000000
01000000
00000000
00010000
00000000
01000000
00000000
10000000
00000000
01000000
00000000
00010000
00001000
00020000
00000000
,
00000000
00030100
00001000
00000010
00000100
00000001
00000010
00000010
,
00000001
00000000
00000100
00000000
00001000
00000000
00000100
00000000
00000001
00000000
00000100
00000000
00001000
00010000
00002000
00000000
,
00000000
01003000
00010000
00100000
00010000
10000000
01000000
01000000
,
10000000
00000000
00100000
00000000
00010000
00000000
00100000
00000000
10000000
00000000
00100000
00000000
00010000
00001000
00020000
00000000
,
00000000
00030010
00001000
00000100
00000010
00000001
00000100
00000100
,
00000001
00000000
00000010
00000000
00001000
00000000
00000010
00000000
00000001
00000000
00000010
00000000
00001000
00010000
00002000
00000000
,
00000000
00103000
00010000
01000000
01100000
00000000
10010000
00000000
,
10000000
00000000
01000000
00000000
00010000
00000000
00001000
00000000
00100000
00000000
00010000
00000000
01000000
00001000
00020000
00000000
,
00000000
00030100
00001000
00000010
00000100
00000001
00000010
00000010
,
00000001
00000000
00000100
00000000
00001000
00000000
00010000
00000000
00000010
00000000
00001000
00000000
00000100
00010000
00002000
00000000
,
00000000
01003000
00010000
00100000
01000000
10000000
00100000
00100000
,
10000000
00000000
00100000
00000000
00010000
00000000
00001000
00000000
01000000
00000000
00010000
00000000
00100000
00001000
00020000
00000000
,
00000000
00030010
00001000
00000100
00000010
00000001
00000100
00000100
,
00000001
00000000
00000010
00000000
00001000
00000000
00010000
00000000
00000100
00000000
00001000
00000000
00000010
00010000
00002000
00000000
,
00000000
00103000
00010000
01000000
01100000
00000000
10010000
00000000
,
10000000
00000000
01000000
00000000
00010000
00000000
00001000
00000000
00100000
00000000
00010000
00000000
00100000
00001000
00010000
00000000
,
00000100
00000000
00001000
00000000
00000001
00000000
00000010
00000000
00000001
00000000
00001000
00000000
00000010
00000100
00000001
00000000
,
00001000
00000100
00000001
00000100
00001000
00000100
00000010
00002000
,
00000000
00013000
01000000
00100000
00001000
00010000
00000100
00001000
,
00000001
00000000
00000100
00000000
00001000
00000000
00010000
00000000
00000010
00000000
00001000
00000000
00000010
00010000
00001000
00000000
,
01000000
00000000
00010000
00000000
10000000
00000000
00100000
00000000
10000000
00000000
00010000
00000000
00100000
01000000
10000000
00000000
,
00010000
01000000
10000000
01000000
00010000
01000000
00100000
00020000
,
00000000
00031000
00000100
00000010
00010000
00001000
01000000
00010000
,
00100000
01000000
00020000
00000000
00032000
00000000
00003200
00000000
,
00000310
00000000
00000100
00000000
00002000
00000000
00000000
00000000
00013000
00000000
00010000
00000000
00001000
00000000
00010000
00001000
;
