#TITLE:[Alternate] Mushroom Hill Zone Act 1;
#SUBTITLE:;
#ARTIST:John Tay;
#TITLETRANSLIT:;
#SUBTITLETRANSLIT:;
#ARTISTTRANSLIT:;
#GENRE:;
#CREDIT:;
#BANNER:[Alternate] Mushroom Hill Zone Act 1.png;
#BACKGROUND:[Alternate] Mushroom Hill Zone Act 1-bg.png;
#LYRICSPATH:;
#CDTITLE:cdtitle.png;
#MUSIC:[Alternate] Mushroom Hill Zone Act 1.ogg;
#OFFSET:-0.170000;
#SAMPLESTART:92.322998;
#SAMPLELENGTH:15.340000;
#SELECTABLE:YES;
#BPMS:0.000000=124.999992
;
#STOPS:
;
#BGCHANGES:;
#KEYSOUNDS:;
#ATTACKS:;

//---------------dance-double - Pandemonium X----------------
#NOTES:
     dance-double:
     :
     Easy:
     8:
     0.320344,0.381544,0.294525,0.240975,0.006694,335.000000,291.000000,44.000000,36.000000,0.000000,0.000000,0.320344,0.381544,0.294525,0.240975,0.006694,335.000000,291.000000,44.000000,36.000000,0.000000,0.000000:
// measure 0
00000000
00000000
00000000
00000000
,  // measure 1
00000000
00000000
00000000
00000000
,  // measure 2
00000000
00000000
00000000
00000000
,  // measure 3
00000000
00000000
00000000
00000000
,  // measure 4
00001000
00001000
00001000
00001000
,  // measure 5
00001000
00001000
00001000
00011000
,  // measure 6
00011000
00010000
00010000
00010000
,  // measure 7
00022000
00000000
00000000
00000000
00000000
00030000
00003000
00000000
,  // measure 8
00110000
00110000
00010000
01000000
,  // measure 9
10000000
01000000
00001000
00010000
,  // measure 10
00001100
00000000
00001100
00000000
00001000
00001000
00000000
00000001
,  // measure 11
00000000
00000100
00000000
00000002
00000000
00000010
00000013
00000000
,  // measure 12
00000110
00000110
00000001
00001000
,  // measure 13
00000100
00010000
00001000
01000000
,  // measure 14
01010000
00000000
01010000
00000000
00010000
00010000
00000000
10000000
,  // measure 15
00000000
01000000
00000000
00100000
00000000
01000000
10000000
00000000
,  // measure 16
10020000
00100000
00130000
00001000
,  // measure 17
00010000
00000100
00001100
00000011
,  // measure 18
00001100
00000000
00001000
00000000
00000001
00000001
00000000
00000100
,  // measure 19
00000000
00000010
00000000
00010000
00000000
00001000
01000000
00100000
,  // measure 20
20000000
01000000
01000000
31000000
,  // measure 21
00010000
01000000
01100000
00110000
,  // measure 22
00101000
00000000
00001000
00000000
00010000
00010000
00000000
00000100
,  // measure 23
00000000
00001000
00000000
00000010
00000000
00000100
00000001
00000010
,  // measure 24
00000200
00010000
00010000
00010300
,  // measure 25
00001000
01000000
01100000
01010000
,  // measure 26
00020000
00000000
00000000
00230000
00000000
00000000
00302000
00000000
,  // measure 27
00000000
00000000
00000000
00000000
00013000
00000100
00010000
00001000
,  // measure 28
02000000
00010000
00010000
03010000
,  // measure 29
01000000
00100000
10100000
01010000
,  // measure 30
00210000
00000000
00301000
00000000
00010000
00010000
00000000
00001000
,  // measure 31
02000000
03010000
20000000
30100000
,  // measure 32
10010000
00000000
00010000
00200000
00000000
00301000
00020000
00000000
,  // measure 33
00000000
00000000
00000000
00000000
00030000
00000100
00001000
00000200
,  // measure 34
00000000
00000000
00000000
00000300
,  // measure 35
00001000
00000100
00000001
00000100
,  // measure 36
00011000
00000000
00000000
00001000
00000000
01000000
00200000
00000000
,  // measure 37
00000000
00000000
00000000
00000000
00000000
00000000
01300000
00000000
00010000
00000000
00000000
00010000
00000000
00000000
00020000
00000000
,  // measure 38
00000000
00000000
00000000
20030000
30000000
02000000
03000000
00020000
,  // measure 39
00030000
01000000
00100000
00020000
00030000
00200000
00300000
00000000
,  // measure 40
00011000
00000000
00000000
00001000
00000000
01000000
00200000
00000000
,  // measure 41
00000000
00000000
00000000
00000000
00000000
01300000
00010000
20000000
,  // measure 42
00000000
00000000
00000000
00000000
00000000
00000000
00000000
30010000
,  // measure 43
00100000
10000000
00100000
00001000
,  // measure 44
00011000
00000000
00000000
00020000
00000000
00030100
00002000
00000000
,  // measure 45
00000000
00000000
00000000
00000000
00000000
00000000
00003100
00000000
00001000
00000000
00000000
00001000
00000000
00000000
00002000
00000000
,  // measure 46
00000000
00000000
00000000
00003002
00000003
00000200
00000300
00000020
,  // measure 47
00000030
00001000
00000100
00010000
00000000
00011000
00000000
00000000
,  // measure 48
00110000
00110000
11000000
11000000
,  // measure 49
10000000
00000000
00100000
01000000
00010000
00000000
00100000
00001000
,  // measure 50
00000000
00010000
00000100
00010000
00000000
00001000
00000000
01000000
,  // measure 51
00000000
00100000
01000000
00100000
00000000
01000000
00010000
10000000
,  // measure 52
11000000
11000000
00110000
00110000
,  // measure 53
00100000
00001000
00010000
00000100
,  // measure 54
00001100
00000000
00000000
00000011
00000000
00001100
00000000
00020200
,  // measure 55
00000000
00000000
00030300
00000000
,  // measure 56
00001000
01000000
00001000
01000000
00001000
01000000
00001000
00100000
,  // measure 57
00000000
01000000
00000000
20000000
00000000
00000000
30010000
00000000
,  // measure 58
00010000
00100000
00010000
00100000
00010000
00100000
00010000
02000000
,  // measure 59
00000000
00000000
03000000
00001000
,  // measure 60
00010000
00000100
00010000
00000100
00010000
00000100
00010000
00001000
,  // measure 61
00000000
01000000
00000000
00010000
00000000
00100000
00001000
00010000
,  // measure 62
00000000
00000000
00000000
00001000
00000000
00010000
00000000
00011000
,  // measure 63
00000000
00001000
01000000
10010000
00000000
00000000
00000000
00000000
,  // measure 64
01000000
00001000
01000000
00001000
01000000
00001000
01000000
00010000
,  // measure 65
00000000
00100000
00000000
00001000
00000000
00000000
00010000
00000000
,  // measure 66
00000100
00001000
00000100
00001000
00000100
00000010
00000001
00001000
,  // measure 67
00000000
00000000
00000000
00000000
,  // measure 68
00000001
00000001
00000100
00001000
00010000
00100000
00000000
10100000
,  // measure 69
00000000
00010000
01000000
00100000
00000000
10000000
01000000
00010000
,  // measure 70
00001000
00001000
00001000
00001000
,  // measure 71
00001000
00000000
00001000
00000000
00001000
00010000
00001000
00000000
,  // measure 72
00011000
00000000
00000000
00000100
00000000
00000100
00000000
00010000
,  // measure 73
00000000
00010000
00000000
00001000
00000000
01000000
00100000
02000000
,  // measure 74
00000000
00000000
00000000
00000000
,  // measure 75
00000000
00000000
00000000
00000000
,  // measure 76
03000000
00000000
00000000
00000000
;

//---------------dance-double - Pandemonium X----------------
#NOTES:
     dance-double:
     :
     Medium:
     11:
     0.415969,0.505378,0.287831,0.341381,0.127181,435.000000,392.000000,43.000000,51.000000,0.000000,0.000000,0.415969,0.505378,0.287831,0.341381,0.127181,435.000000,392.000000,43.000000,51.000000,0.000000,0.000000:
00000000
00000000
00000000
00000000
,
00000000
00000000
00000000
00000000
,
00000000
00000000
00000000
00000000
,
00000000
00000000
00000000
00000000
,
00010000
00000000
00000000
00000000
00010000
00000000
00000000
00000000
00010000
00000000
00000000
00010000
00000000
00000000
00010000
00000000
,
00000000
00000000
00010000
00000000
00000000
00010000
00000000
00000000
00010000
00000000
00000000
00000000
00011000
00000000
00000000
00000000
,
00011000
00001000
00001000
00001000
,
00010000
00000000
00000000
00000100
00000000
00000000
00001000
00000000
00000010
00000000
00000100
00000000
00001001
00000000
00000000
00000000
,
00001100
00000000
00000000
00000000
00001100
00000000
00000000
00000000
00001000
00000100
00000000
00010000
00000000
00001000
00000000
00010000
,
00000000
00000100
00010000
00000000
00000000
00000000
00001000
00000000
02000000
00000000
00000000
00000000
03100000
00000000
10000000
00000000
,
01000000
00000000
01000000
00000000
00100000
00100000
00000000
01100000
,
00000000
00110000
00000000
00011000
00000000
00010000
00000100
00000000
,
00001010
00000000
00000000
00000000
00001010
00000000
00000000
00000000
00000010
00010000
00000000
00001000
00000000
01000000
00000000
00100000
,
00000000
01000000
00010000
00000000
00000000
00000000
00100000
00000000
02000000
00000000
00000000
00000000
13000000
00000000
01000000
00000000
,
01100000
00000000
01100000
00000000
00010000
00010000
00000000
00110000
,
00000000
00011000
00000000
00000200
00000000
00010300
00000010
00010000
,
00002000
00010000
00100000
00010000
,
00103000
00010000
02010000
03002000
,
00023000
00000000
00000100
00000000
00001000
00001000
00000000
00000100
,
00000000
00030100
00000000
00001000
00000000
00000010
00000100
00001000
,
00000200
00000001
00000001
00000301
,
00001000
00000100
00001100
00011000
,
01020000
00000000
00100000
00000000
10000000
10030000
00000000
00010000
,
00000000
00100000
00000000
01000000
10000000
01000000
00010000
00001000
,
00001200
00010000
00001000
00010300
,
00000100
00001000
00001010
00010100
,
00012000
00000000
01003000
00200000
00000000
01300000
00002000
00000000
,
00010000
00000000
00100000
00000000
00013000
00000100
00001000
00000010
,
00000200
00000001
00000010
00000301
,
00000100
00000010
00001010
00010100
,
00012000
00000000
00100000
00000000
00013000
00000000
00001000
00100000
,
00020000
00000000
00130000
01000000
20000000
00000000
30010000
00000000
,
00110000
00100000
00001000
00020000
00000000
00000100
00030200
00000000
,
00000000
00000000
00000000
00000000
00000300
00001000
00000010
00000200
,
00000010
00000000
00000000
00000000
00000001
00000000
00000000
00000000
00000310
00000000
00000000
00001000
00000000
00000100
00000000
00000010
,
00000001
00000000
00000000
00000010
00000000
00000100
00000000
00001000
00000000
00000100
00010000
00000000
00001000
00000000
01000000
00000000
,
10010000
00000000
00000000
00020000
00000000
01030000
00002000
00000000
,
00000000
00000000
00000000
00000000
00003000
00000000
00010000
00000100
00001000
00000000
00000000
00000010
00000000
00000000
00000200
00000000
,
00000000
00000000
00000300
00000101
00000000
00001010
00000000
00001001
,
00000000
00000001
00000010
00000100
00000000
00011000
00000000
00000000
,
01001000
00000000
00000000
02000000
00000000
03010000
00200000
00000000
,
01000000
00000000
00010000
00000000
01300000
00100000
00001000
00020000
,
00000100
00000000
00000000
00000000
00000100
00000000
00000000
00000000
00030100
00000000
00000000
00000100
00000000
00000100
00010000
00000000
,
00001000
00000000
01000000
00010000
00000000
00100000
00000000
00001000
00000000
00100000
00001000
00000000
00100000
00000000
00010000
00000000
,
10010000
00000000
00000000
00020000
00000000
00130000
00002000
00000000
,
00010000
00000000
00000000
00000000
00013000
00000000
00010000
00000010
00000200
00000000
00000000
00000001
00000000
00000000
00000302
00000000
,
00000000
00000000
00000003
00001100
00000000
00011000
00000000
01001000
,
00000000
01000000
00010000
00100000
00000000
00011000
00000000
00000000
,
00010000
00000000
00000000
00000000
00100000
00000000
00000000
00000000
10000000
00000000
00000000
00010000
00000000
00000000
00100000
01000000
,
00000000
00100000
01000000
00000000
00010000
00000000
00010000
00000000
00100000
00000000
00001000
00000000
00010000
00000000
00000200
00000000
,
00000000
00010300
00001000
02000000
00000000
03020000
00000000
02030000
,
00000000
03001000
00010000
00002000
00000000
00013000
00000100
00001000
,
00000010
00000000
00000000
00000000
00000001
00000000
00000000
00000000
00000010
00000000
00000000
00001000
00000000
00000000
00000100
00000010
,
00000000
00000100
00000010
00000000
00000100
00000000
00000100
00000000
00001000
00000000
00000100
00000000
00010000
00000000
00001000
00000000
,
01001000
01000000
00100000
10100000
00000000
01010000
00000000
00210000
,
00000000
00001000
00001000
00001000
00301000
00000000
00000000
00000000
,
00001000
00100000
00010000
00100000
00001000
00010000
00000100
00002000
,
00000000
00003010
00010000
00002000
00000000
00013000
00001000
00010000
,
00001000
00100000
00010000
00100000
00001000
00010000
00000100
00002000
,
00000000
00003010
00001000
00000020
00000000
00010030
00001000
00010000
,
00001000
00100000
00010000
00100000
00001000
00010000
00000100
00002000
,
00000000
00003010
00010000
00002000
00000000
00103000
00010000
02000000
,
00000000
00000000
03100000
20000000
00000000
30010000
00100000
00200000
,
00000000
00301000
00010000
00011000
00000000
00000100
00010000
00001000
,
00010000
00000100
00001000
00000100
00010000
00000100
00001000
00000200
,
00000000
00010300
00001000
02000000
00000000
03001000
00010000
00001000
,
00010000
00000100
00010000
00001000
00100000
00001000
00100000
02000000
,
00000000
00000000
10000000
00000000
13000000
00000000
00020000
00000000
00000000
00000000
20000000
00000000
30030000
00000000
00010000
01000000
,
00010000
00100000
00001000
00010000
00000100
00000010
00000000
00000110
,
00000000
00000001
00000100
00001000
00000000
00010000
00100000
10000000
,
00010000
00100000
00001000
00010000
00000010
00010000
00001000
00100000
,
00001000
00000000
00010000
00000000
00000010
00000000
00010000
00000000
00001000
00000000
00100000
00000000
00100000
00000000
00010000
00100000
,
01000000
10000000
01000000
00010000
00000000
01000000
00000000
00100000
,
00000000
00010000
00001000
00000100
00000000
00001000
00000100
00000020
,
00000000
00000000
00000000
00000000
,
00000000
00000000
00000030
00000000
;

//---------------dance-double - Pandemonium X----------------
#NOTES:
     dance-double:
     :
     Hard:
     14:
     0.486732,0.635907,0.314606,0.515419,0.351422,509.000000,462.000000,47.000000,77.000000,0.000000,0.000000,0.486732,0.635907,0.314606,0.515419,0.351422,509.000000,462.000000,47.000000,77.000000,0.000000,0.000000:
00000000
00000000
00000000
00000000
,
00000000
00000000
00000000
00000000
,
00000000
00000000
00000000
00000000
,
00000000
00000000
00000000
00000000
,
00001000
00000000
00000000
00000000
00001000
00000000
00000000
00000000
00002000
00000000
00000000
00013000
00000000
00010000
00001000
00000000
,
00000000
00000000
00010000
00000000
00000000
00010000
00000000
00010000
00002000
00000000
00000000
00000000
00013000
00000000
00000000
00000000
,
00011000
00000000
00000000
00000000
00010000
00000000
00000000
00000000
00010000
00000000
00000000
00010000
00002000
00000000
00000000
00000000
,
00013000
00000000
00000000
00000000
00000000
00000000
00000000
00000000
00000000
00001000
00000000
00000000
00000000
00000000
00000000
00000000
00000000
00000000
01000000
00000000
00000000
00100000
00000000
00000000
10000000
00000000
00000000
00000000
00000000
00000000
00010000
00000000
10000000
00000000
00010000
00000000
10000000
00000000
00000000
00000000
00000000
00000000
00000000
00000000
00000000
00000000
00000000
00000000
,
11000000
00000000
00000000
00000000
11000000
00000000
00000000
00000000
01000000
00100000
00000000
01000000
00000000
00100000
00000000
00010000
,
00000000
00001000
00010000
00000000
00000000
00000000
00010000
00000100
00002000
00000000
00000000
00003010
00000100
00000001
00000010
00000001
,
00001000
00000000
00000000
00000000
00001010
00000000
00000000
00000000
00000010
00000100
00000010
00000100
00000000
00000000
00000100
00000000
,
00000000
00001000
00000000
00020000
00000000
00031000
01000000
00000000
,
10010000
00000000
00000000
00000000
10010000
00000000
00000000
00000000
00010000
00100000
00000000
00010000
00000000
00100000
00000000
00001000
,
00000000
00010000
00000100
00000000
00000000
00000000
00001000
00000010
00000200
00000000
00000000
00000310
00000100
00000001
00000010
00000001
,
00000100
00000000
00000000
00000000
00000110
00000000
00000000
00000000
00001000
00000001
00001000
00000001
00000000
00000000
00000010
00000000
,
00000000
00000100
00000000
00020000
00000000
00031000
00010000
00000000
,
00001200
00000000
00000000
00000000
00010000
00000000
00000000
00000000
00001000
00000000
00000000
00010000
00000300
00010000
00000000
00010000
,
00000000
00001000
01000000
00000000
00000000
00000000
00100000
01000000
00020000
00000000
00000000
00000000
00230000
00000000
00000000
00000000
,
00302000
00000000
00010000
00000000
01000000
01003000
00000000
00100000
,
00000000
00000000
01000000
00000000
00000000
00000000
00002000
00000000
00000000
00000000
00013000
00000000
00000100
00010000
00001000
00010000
,
00002000
00000000
00000000
00000000
00100000
00000000
00000000
00000000
00010000
00000000
00000000
00103000
00000000
00010000
00000000
00100000
,
00000000
00001000
01000000
00000000
00000000
00000000
00100000
01000000
00020000
00000000
00000000
00000000
00230000
00000000
00000000
00000000
,
00302000
00000000
00010000
00000000
00100000
00103000
00000000
00001000
,
00000000
00000000
00010000
00000000
00000000
00000000
00002000
00000000
00000000
00013000
00001000
00010000
00000100
00001000
00000010
00000100
,
00000002
00000000
00000000
00000000
00000010
00000000
00000000
00000000
00000100
00000000
00000000
00001003
00000000
00000001
00000000
00001000
,
00000000
00001000
00000100
00000000
00000000
00000000
00010000
00000000
00011000
00000000
00000000
00000000
00110000
00000000
00000000
00000000
,
21000000
00000000
00000000
00000000
00000000
00000000
00000000
00000000
00000000
00000000
00000000
00000000
30010000
00000000
00000000
00000000
00000000
00000000
00200000
00300000
00000000
00000000
00000000
00000000
00000000
00000000
00000000
00000000
00000000
00000000
00200000
00300000
00000000
00000000
00000000
00000000
10000000
00000000
00000000
00000000
00000000
00000000
00010000
00000000
00000000
00000000
00000000
00000000
,
00000000
01000000
00000000
00010000
02000000
03002000
00023000
00030200
,
00002300
00000000
00000000
00000000
00000010
00000000
00000000
00000000
00000001
00000000
00000000
00003100
00000000
00000100
00000000
00000010
,
00000000
00000001
00000100
00000000
00000000
00000000
00000010
00000000
00001001
00000000
00000000
00000000
00001010
00000000
00000000
00000000
,
00002001
00000000
00000000
00000000
00003100
00000000
00000000
00000000
00010000
00001000
00010000
00000010
00000000
00000000
00010000
00000000
,
00002000
01000000
00000000
01003000
00020000
10000000
00000000
00000000
,
10030000
01000000
00010000
00002000
00000000
01003000
02000000
00000000
,
00100000
00000000
00010000
00000000
03100000
01000000
00001000
00020000
,
00000100
00000000
00000000
00000000
00001000
00000000
00000000
00000000
00000100
00000000
00000000
00030100
00000000
00001000
00000010
00000100
,
00000001
00001000
00000100
00010000
00000000
00011000
00000000
00101000
00000000
00001000
01000000
00100000
10000000
01000000
00100000
00010000
,
10000000
00000000
00010000
00200000
00000000
00301000
00020000
00000000
,
00001000
00000000
00000000
00000000
00031000
00000000
00010000
00001000
00200000
00000000
00000000
00010000
00000000
00000000
00320000
00000000
,
01000000
00000000
01030000
01010000
00000000
00001100
00000000
00021000
,
00000000
00030100
00001000
00001010
00000000
00000202
00000000
00000303
,
00001001
00000000
00001001
00000002
00000000
00000103
00000020
00000000
,
00010000
00000000
00010000
00000000
00010030
00001000
00100000
02000000
,
10000000
00000000
00000000
00000000
00100000
00000000
00000000
00000000
10000000
00000000
00000000
13000000
00000000
01000000
10000000
00100000
,
01000000
00010000
00100000
00001000
00000000
00011000
00000000
00010100
00000000
00000100
00001000
00000010
00001000
00000100
00000010
00000001
,
00001000
00000000
00001000
00000100
00000000
00010000
00002000
00000000
,
01000000
00000000
00000000
00000000
01003000
00000000
00100000
10000000
02000000
00000000
00000000
00100000
00000000
00000000
00200000
00000000
,
00000000
00000000
03300000
00110000
00000000
00001010
00000000
00010100
,
00000000
00010000
00001000
00010000
00000000
00001010
00000000
00000000
,
00001001
00000000
00000000
00000000
00000000
00000000
00000000
00000000
00000000
00000000
00000000
00000000
00001100
00000000
00000000
00000000
00000000
00000000
00000000
00000000
00000000
00000000
00000000
00000000
00000101
00000000
00000000
00000000
00000000
00000000
00000000
00000000
00000000
00001100
00000000
00000000
00000000
00000000
00000000
00000000
00000000
00000000
00000001
00000000
00000000
00000020
00000030
00000000
,
00000000
00000000
00000000
00000020
00000030
00000000
00001000
00000000
00000000
00000000
00000000
00000000
00000001
00000000
00000000
00000000
00000000
00000000
00000001
00000000
00000000
00000000
00000000
00000000
00001001
00000000
00000000
00000000
00000000
00000000
00001000
00000000
00000000
00000000
00000000
00000000
00000100
00000000
00000000
00000000
00000000
00000000
00020000
00000000
00000000
00000000
00000000
00000000
,
00000000
00031000
01000000
00200000
00000000
02300000
00000000
03020000
,
00000000
10030000
01000000
00020000
00000000
01030000
10000000
00010000
,
10010000
00000000
00000000
00000000
00000000
00000000
00000000
00000000
00000000
00000000
00000000
00000000
00110000
00000000
00000000
00000000
00000000
00000000
00000000
00000000
00000000
00000000
00000000
00000000
10100000
00000000
00000000
00000000
00000000
00000000
00000000
00000000
00000000
00110000
00000000
00000000
00000000
00000000
00000000
00000000
00000000
00000000
10000000
00000000
00000000
00200000
00300000
00000000
,
00000000
00000000
00000000
00200000
00300000
00000000
00010000
00000000
00000000
00000000
00000000
00000000
10000000
00000000
00000000
00000000
00000000
00000000
00010000
00000000
00000000
00000000
00000000
00000000
00100000
00000000
00000000
00000000
00000000
00000000
10000000
00000000
00000000
00000000
00000000
00000000
00100000
00000000
00000000
00000000
00000000
00000000
00010000
00000000
00000000
00000000
00000000
00000000
,
00101000
00001000
00010000
00011000
00000000
00010100
00000000
00002001
,
00000000
00000001
00000001
00000001
00003001
00000100
00000010
00010000
,
00001000
00001000
00001000
00001000
00001000
00001000
00010000
00000200
,
00000000
00010300
00001000
00020000
00000000
00031000
00100000
00001000
,
00010000
00010000
00010000
00010000
00010000
00010000
00001000
02000000
,
00000000
03100000
01000000
00010000
00000000
00010000
01000000
00100000
,
10000000
10000000
10000000
10000000
10000000
10000000
01000000
20000000
,
00000000
30010000
00100000
02000000
00000000
03100000
00001000
00020000
,
00000000
00030000
00000100
00020000
00000000
00031000
00010000
00000020
,
00000000
00000000
00000130
00000000
00000001
00000000
00001002
00000000
00000000
00000000
00001003
00000000
00000001
00001000
00000001
00001000
,
00000001
00000100
00001000
00010000
00100000
10000000
00010000
20000000
,
00000000
01000000
00000000
00100000
00000000
30010000
00100000
00010000
,
10000000
01000000
00100000
00010000
00001000
00000100
00000001
00000200
,
00000000
00000000
00000310
00000000
00000100
00000000
00002000
00000000
00000000
00000000
00003200
00000000
00000000
00000000
00010300
00001000
,
00010000
00001000
01000000
01001000
01000000
00100000
00000000
01020000
,
00000000
00130000
00001000
00021000
00000000
00031000
00010000
00000020
,
00000000
00000000
00000130
00000010
00000100
00000000
00000010
00001000
00000010
00000000
00001000
00000100
00001000
00000000
00000100
00010000
,
00000100
00000000
00010000
00001000
00010000
00000000
00001000
01000000
00001000
00000000
01000000
00000000
10010000
00000000
10000000
01000000
,
00100000
01000000
00100000
00020000
00000000
00032000
00000000
00023000
,
00000000
00031000
00000010
00000002
00000000
00001003
00000010
00000200
,
00000002
00000000
00000000
00000000
,
00000000
00000000
00000000
00000003
,
00000300
00000000
00000000
00000000
;
