#TITLE:smile;
#SUBTITLE:;
#ARTIST:miru_maki.gjw;
#TITLETRANSLIT:;
#SUBTITLETRANSLIT:;
#ARTISTTRANSLIT:;
#GENRE:ELE POP;
#CREDIT:;
#BANNER:;
#BACKGROUND:;
#LYRICSPATH:;
#CDTITLE:;
#MUSIC:smile.ogg;
#OFFSET:-0.413605;
#SAMPLESTART:61.366001;
#SAMPLELENGTH:11.429000;
#SELECTABLE:YES;
#BPMS:0.000000=189.000000
;
#STOPS:
;
#BGCHANGES:;
#KEYSOUNDS:;
#ATTACKS:;

//---------------dance-single - ----------------
#NOTES:
     dance-single:
     :
     Hard:
     13:
     0.616414,0.719150,0.181954,0.381236,0.090977,498.000000,477.000000,21.000000,44.000000,0.000000,0.000000,0.616414,0.719150,0.181954,0.381236,0.090977,498.000000,477.000000,21.000000,44.000000,0.000000,0.000000:
// measure 0
0000
0000
0000
0000
,  // measure 1
0000
0000
0000
0000
,  // measure 2
0000
0000
0000
0000
,  // measure 3
0000
0000
0000
0000
,  // measure 4
1000
0000
0001
0000
1000
0000
0001
0000
0000
0000
0010
0000
0100
0000
1000
0100
,  // measure 5
1000
0100
0010
0100
1000
0100
0010
0001
,  // measure 6
1000
0000
0010
0000
0200
0000
0000
0000
0000
0000
0301
0000
0001
0000
0001
0100
,  // measure 7
0001
0100
0010
0100
0001
0100
0010
1000
,  // measure 8
1100
0011
1010
0101
,  // measure 9
1000
0100
1000
0001
0010
0001
0100
0200
,  // measure 10
0000
0010
0310
0000
1000
0001
0101
0000
,  // measure 11
0001
0010
0001
0100
0001
0010
0100
1000
,  // measure 12
0010
1000
0100
1000
0010
0100
0001
0000
,  // measure 13
0001
0100
0001
1000
0010
1000
0100
0200
,  // measure 14
0000
0010
0310
0000
0001
1000
1100
0000
,  // measure 15
1000
0010
1000
0100
0010
0001
0100
0001
,  // measure 16
1000
0000
1000
0000
0000
0000
0000
0000
0001
0000
0001
0000
0100
0010
0100
0010
,  // measure 17
2000
0000
0000
3100
,  // measure 18
0000
0000
0020
0032
,  // measure 19
0203
0000
0000
1300
,  // measure 20
0000
0000
0200
0320
,  // measure 21
2030
0000
0000
3001
,  // measure 22
0010
1000
0001
0100
,  // measure 23
1000
0010
1000
0001
1000
0100
1000
0001
,  // measure 24
0100
0000
0010
0000
0100
0000
0000
0010
1000
0000
0001
0000
0001
0000
1000
0100
,  // measure 25
0010
1000
0010
0001
0010
1000
0010
0100
,  // measure 26
1000
0100
0010
0100
1000
0001
0100
0010
,  // measure 27
0001
0010
1000
0010
0001
0010
1000
0010
,  // measure 28
0100
0001
0100
0010
0100
0001
1000
0100
,  // measure 29
0010
0001
0100
0001
0010
0001
0100
0010
,  // measure 30
1000
0100
1000
0010
1000
0100
0010
0001
,  // measure 31
0200
1000
0010
0301
,  // measure 32
0001
0000
1000
0000
0001
0000
0000
0010
0100
0000
1000
0000
0100
0000
1000
0000
,  // measure 33
0000
1000
0010
1000
0000
0001
0100
0001
,  // measure 34
0000
0001
0010
0001
0000
0010
0100
1000
,  // measure 35
0000
0010
0100
0001
0000
1000
0100
0010
,  // measure 36
0000
0001
0100
0010
0000
1000
0001
0010
,  // measure 37
0000
0100
1000
0010
1000
0100
0010
0001
,  // measure 38
0000
0100
0001
0010
0001
0100
0010
1000
,  // measure 39
0002
0000
0023
0000
0230
0000
1300
0010
,  // measure 40
0100
0000
0001
0000
0100
0000
0000
0001
1000
0000
0100
0000
0010
0000
0001
0000
,  // measure 41
0000
1000
0010
0101
0000
1000
0100
0011
,  // measure 42
0000
0001
0100
1010
0000
0001
0010
1100
,  // measure 43
0000
0001
1000
1010
0000
1000
0001
0101
,  // measure 44
0000
0001
1000
0011
0000
1000
0001
1100
,  // measure 45
0000
1000
0100
1000
0000
0001
0010
0001
,  // measure 46
0000
0001
0100
0001
0000
0100
0010
1000
,  // measure 47
0002
0023
2030
3020
,  // measure 48
0230
0000
2300
0000
3020
0000
0130
0001
,  // measure 49
0000
0000
1000
0100
1000
0000
0100
0010
0100
0000
0010
0001
0010
0000
0001
1000
,  // measure 50
0010
0001
0010
0100
0000
0001
0001
0101
,  // measure 51
0000
0000
0001
0010
0001
0000
0010
0100
0010
0000
0100
1000
0100
0000
1000
0001
,  // measure 52
0100
1000
0100
0010
0000
1000
0100
0010
,  // measure 53
0001
0100
0010
0100
1000
0100
0010
0100
,  // measure 54
0001
0010
0100
1000
0010
0100
0001
1000
,  // measure 55
0100
0001
0100
0010
0100
1000
0100
0010
,  // measure 56
0001
0100
0010
1000
0100
0010
0001
1000
,  // measure 57
0020
0000
1000
1030
0000
0100
1100
0000
,  // measure 58
0020
0000
0001
0031
0000
0100
0101
0000
,  // measure 59
0200
0000
0010
0310
0000
1000
1100
0000
,  // measure 60
0200
0000
0010
0310
0000
0001
0100
0010
,  // measure 61
2000
0100
3200
0001
,  // measure 62
0302
0100
0203
0010
,  // measure 63
0320
0000
0000
0031
1000
0000
0001
0100
,  // measure 64
0010
0000
1000
0000
0010
0000
0000
1000
0001
0000
0010
0000
0100
0000
1000
0100
,  // measure 65
2000
0000
3020
0000
,  // measure 66
0230
0000
0302
0000
,  // measure 67
0023
0000
0230
0000
,  // measure 68
1300
0000
0000
0000
0010
0000
0000
0000
1000
0000
0100
0000
0010
0000
0001
1000
,  // measure 69
0010
0100
0010
0200
0000
0000
0301
0000
,  // measure 70
0010
0100
0010
0200
0000
0000
1300
0000
,  // measure 71
0002
0203
0320
2030
,  // measure 72
3100
0000
0010
0000
0001
0000
1000
0020
,  // measure 73
0000
0000
0000
0030
,  // measure 74
1000
0100
1000
0001
0010
0001
0100
0010
,  // measure 75
0100
0001
1000
0000
1001
0000
0000
0000
,  // measure 76
0001
0100
0001
1000
0010
1000
0100
0010
,  // measure 77
0100
1000
0001
0000
1001
0000
0000
0000
,  // measure 78
0001
0010
1000
0001
0100
1000
0010
0001
,  // measure 79
1000
0100
0001
0000
1001
0000
0000
0000
,  // measure 80
1000
0100
0001
1000
0010
0001
0100
1000
,  // measure 81
0001
0000
0010
0000
1000
0000
0001
0000
1000
0000
0100
0000
0010
0100
0010
0100
,  // measure 82
0020
0000
0000
0000
,  // measure 83
0030
0000
0000
0000
;

//---------------dance-single - ----------------
#NOTES:
     dance-single:
     :
     Medium:
     9:
     0.404754,0.467448,0.034658,0.225276,0.000000,327.000000,323.000000,4.000000,26.000000,0.000000,0.000000,0.404754,0.467448,0.034658,0.225276,0.000000,327.000000,323.000000,4.000000,26.000000,0.000000,0.000000:
0000
0000
0000
0000
,
0000
0000
0000
0000
,
0000
0000
0000
0000
,
0000
0000
0000
0000
,
1000
0001
1000
0001
0000
0010
0100
0000
,
1000
0100
0010
0100
,
0001
0000
0100
0000
0000
1000
0001
0000
,
0100
1000
0100
0010
,
0200
0001
0001
0301
,
1000
1000
0000
0001
0001
0000
0010
0010
,
0000
0000
0100
0000
1000
0001
1000
0000
,
0001
0100
0010
1000
,
0100
0010
0001
1000
,
0001
0001
0000
1000
1000
0000
0010
0010
,
0000
0000
0100
0000
0001
1000
0001
0000
,
1000
0100
0010
0001
,
1000
1000
0000
0000
0001
0001
0000
0000
,
2000
0000
0000
3010
,
0000
0000
0100
0001
,
0020
0000
0000
1030
,
0000
0000
0010
0100
,
2000
0000
0000
3001
,
0100
0001
0010
0100
,
0001
0100
1000
0100
,
0010
0001
0010
0000
0001
1000
0001
0000
,
1000
0100
1000
0010
,
0100
0001
1000
0100
,
0010
0001
0100
0001
,
0010
0100
1000
0001
,
1000
0000
0100
0010
0000
0000
0001
0000
,
0001
0000
0100
0010
0000
0000
1000
0000
,
1000
0100
1000
0010
,
0100
0000
0001
0000
1000
0100
0010
0001
,
0000
1000
0010
1000
0000
1000
0100
1000
,
0000
0001
0010
0001
0000
0001
0100
0001
,
0000
0100
0010
0100
0000
0010
0100
0010
,
0000
1000
0001
1000
0000
0001
1000
0001
,
0000
0000
1000
0100
1000
0100
0010
0000
,
0000
0000
0001
0100
0001
0100
0010
0000
,
0001
0010
1000
0001
,
0010
0100
1000
0000
0001
0100
0010
1000
,
0000
0100
0010
0001
0000
0100
0010
1000
,
0000
0001
0010
0100
0000
1000
0010
0100
,
0000
0001
1000
0100
0000
1000
0001
0100
,
0000
0010
1000
0001
0000
0010
0001
1000
,
0000
0001
0100
0001
0000
0001
0010
0001
,
0000
1000
0100
1000
0000
1000
0010
1000
,
0001
0010
0100
1000
,
0020
0000
0100
0000
0130
0000
0001
1000
,
0000
0100
0010
0001
,
1000
0010
1000
0010
0000
0000
0100
0001
,
0000
0010
0100
1000
,
0001
0100
0001
0100
0000
0010
1000
0000
,
0002
0000
0203
0000
,
2300
0000
3200
0000
,
0320
0000
0000
0000
0000
0030
1000
0001
,
0000
0100
0010
1000
,
0001
0000
0100
0020
0000
0000
0030
0000
,
1000
0000
0100
0020
0000
0000
0030
0000
,
0010
0000
0001
2000
0000
0000
3000
0000
,
0010
0000
1000
0002
0000
0000
0003
0000
,
1000
0100
0010
0100
,
0001
0100
0010
0100
,
2000
0000
0000
0000
3001
1000
0000
0000
,
0010
0000
0100
0000
0001
1000
0000
0000
,
0002
0000
0023
0000
,
0230
0000
2300
0000
,
3020
0000
0230
0000
,
0302
0000
2003
0000
,
3010
0000
1000
0001
0000
0000
0000
0000
,
0100
0000
0001
1000
0000
0000
0010
0000
,
0100
1000
0001
0100
,
0010
0100
1000
0100
,
0020
0000
0000
0030
,
1000
0010
0000
1000
0001
0000
1000
0100
,
0000
1000
0001
0000
1010
0000
0000
0000
,
0001
0100
0000
0001
1000
0000
0001
0010
,
0000
0001
1000
0000
0101
0000
0000
0000
,
1000
0100
0000
0010
0100
0000
0001
0100
,
0000
0010
0100
0000
1100
0000
0000
0000
,
0001
0100
0000
0010
0100
0000
1000
0100
,
0000
0010
0100
0000
0001
0000
1000
0000
,
2002
0000
0000
0000
,
3003
0000
0000
0000
;

//---------------dance-single - ----------------
#NOTES:
     dance-single:
     :
     Easy:
     6:
     0.243843,0.358492,0.025993,0.112638,0.000000,197.000000,194.000000,3.000000,13.000000,0.000000,0.000000,0.243843,0.358492,0.025993,0.112638,0.000000,197.000000,194.000000,3.000000,13.000000,0.000000,0.000000:
0000
0000
0000
0000
,
0000
0000
0000
0000
,
0000
0000
0000
0000
,
0000
0000
0000
0000
,
1000
1000
0000
0001
,
0010
0000
0001
0000
,
0100
0000
0000
0001
,
1000
0000
0010
0000
,
1000
0100
0010
0001
,
1000
0000
0010
0000
,
1000
0000
0100
0010
,
0001
0000
0100
0000
,
0001
0000
0010
0000
,
0100
0000
1000
0000
,
0100
0000
1000
0010
,
0100
0000
0001
0000
,
0100
0100
0010
0010
,
2000
0000
0000
3000
,
0000
0000
0001
0010
,
0200
0000
0000
0300
,
0000
0000
1000
0001
,
0200
0000
0300
0010
,
1000
0010
0001
0010
,
1000
1000
0001
0001
,
1100
0000
0101
0000
,
1000
0100
0010
0100
,
1000
0000
0001
0001
,
0100
0010
0100
0001
,
0100
0000
0010
1000
,
0001
0001
0000
0000
,
1000
1000
0000
0000
,
0100
0010
0100
1000
,
0001
0001
1000
1000
,
0010
0000
1000
0000
,
0010
0000
0100
0000
,
0010
0000
0001
0000
,
0010
0000
0100
0000
,
1000
0000
0001
0001
,
0000
0000
1000
1000
,
0200
0000
0000
0300
,
0010
0000
0100
0000
,
1000
0000
0100
0000
,
0010
0000
0100
0000
,
0001
0000
0100
0000
,
0010
0000
0100
0000
,
1000
0000
0001
0000
,
0100
0000
0010
0000
,
1000
0010
1000
0100
,
0010
0000
0001
0000
1000
0000
0010
0100
,
0000
0001
0001
0001
,
0010
0001
0100
0001
,
0000
1000
1000
1000
,
0010
1000
0100
1000
,
0020
0000
0130
0000
,
0002
0000
1003
0000
,
0002
0000
0000
0003
,
1000
0100
0010
0001
,
1000
1000
0000
0000
,
0001
0001
0000
0000
,
0010
0010
0000
0000
,
0100
0100
0000
0000
,
1000
0000
0010
0000
,
0100
0000
0001
0000
,
1000
0100
1000
0000
,
0010
0100
0001
1000
,
0200
0000
0300
0000
,
0020
0000
0030
0000
,
0002
0000
0003
0000
,
1000
0010
0100
0001
,
1000
0100
1000
0000
,
0001
0010
0001
0000
,
1000
0010
1000
0100
,
0010
0001
1000
0020
,
0000
0000
0000
0030
,
1000
0000
0010
0000
,
1000
0000
0100
0000
,
0010
0000
0001
0000
,
0100
0000
0001
0000
,
1000
0000
0100
0000
,
0010
0000
0100
0000
,
1000
0000
0001
0000
,
0100
0000
0010
0000
,
2002
0000
0000
3003
;
