#TITLE:Whenever, Wherever;
#ARTIST:Shakira;
#BANNER:Whenever, Wherever-bn.png;
#BACKGROUND:Whenever, Wherever-bg.png;
#JACKET:Whenever, Wherever-jacket.png;
#MUSIC:Whenever, Wherever.ogg;
#SAMPLESTART:41;
#SAMPLELENGTH:20;
#DISPLAYBPM:90:108;
#BPMS:0=95,4=90,7=93,8=100,12=107.7,206=105,207=90;
#BGCHANGES:;

//---------------dance-single - ----------------
#NOTES:
     dance-single:
     :
     Beginner:
     3:
     :
0000
0000
0000
0000
,
0000
0000
0000
0000
,
0000
0000
0000
0000
,
0000
0001
0000
1000
,
0000
0010
0000
0100
,
0000
0001
0000
0100
,
0000
0000
1001
0000
,
0010
0000
0010
0000
,
1000
0000
0001
0000
,
0010
0000
0100
0000
,
0010
0000
0001
0000
,
0100
0000
0010
0000
,
0100
0000
0001
0000
,
0010
0000
0100
0000
,
1000
0000
0010
0000
,
1000
1000
1000
0000
,
0001
0001
0001
0000
,
0100
0000
0010
0000
,
0100
0000
0110
0000
,
0000
0001
0000
1000
,
0000
0010
0000
0100
,
0000
0000
0001
0001
,
0000
0000
0010
0010
,
0000
0100
0000
0010
,
0000
0001
0000
1000
,
0000
0000
0100
0100
,
0000
0000
1000
0000
,
0010
0000
0110
0000
,
0100
0000
0110
0000
,
0001
0000
1001
0000
,
1000
0000
1001
0000
,
0020
0000
0030
0000
,
0200
0000
0300
0000
,
0002
0000
0003
0000
,
2000
0000
3000
0000
,
0010
0010
0010
0000
,
0100
0100
0100
0000
,
0001
0000
1000
0000
,
0010
0000
0110
0000
,
1001
0000
0000
0000
,
0000
1000
0000
0001
,
0000
0100
0000
0010
,
0000
0000
1000
1000
,
0000
0000
0010
0010
,
0000
0100
0000
0010
,
0000
1000
0000
0001
,
0000
0000
0100
0100
,
0000
0000
0001
0000
,
0010
0000
0110
0000
,
0001
0000
1001
0000
,
1000
0000
1001
0000
,
0100
0000
0110
0000
,
0000
0000
0000
0000
0000
0000
0000
0000
0000
0000
0000
0000
0000
1000
0000
0000
0000
0000
0000
0000
0000
0000
0000
0000
;

//---------------dance-single - ----------------
#NOTES:
     dance-single:
     :
     Easy:
     7:
     :
0000
0000
0000
0000
,
0000
0000
0000
0000
,
0000
0000
0000
0000
,
0001
0100
0010
1000
,
0100
0010
0001
1000
,
0010
1000
0100
0010
,
0001
1000
2002
0003
,
3010
0010
1000
0001
,
0010
0001
0100
1000
,
0010
0010
0100
0001
,
1000
0100
1000
0001
,
0010
0001
0100
0100
,
0010
0100
0001
0010
,
0100
1000
1000
0001
,
0010
0001
1000
1000
,
0010
0100
0220
0330
,
1000
0001
2002
3003
,
0010
1000
0002
0003
,
0110
0001
1001
1001
,
0010
0110
1000
0110
,
0001
0010
0001
0100
,
1000
0001
0100
0110
,
0010
1000
0100
1001
,
0010
1001
0100
1001
,
0010
1000
0100
0001
,
0010
0001
0100
0110
,
1000
0010
0100
0110
,
0001
0010
0100
1100
,
1000
0010
0100
0101
,
0010
0001
1000
1010
,
1000
0100
0010
0011
,
0100
0010
0200
0300
,
0001
1000
0002
0003
,
0010
0001
0200
0300
,
0010
1000
0100
0100
,
1000
0001
0010
0110
,
1000
0010
0100
1001
,
0001
0010
2000
3000
,
1001
1000
0110
0110
,
2002
0000
0000
3003
,
1000
1001
0001
1001
,
0010
0100
0010
1000
,
0100
0010
0001
0011
,
1000
0001
0100
1010
,
0100
0110
0010
0110
,
1000
0001
1001
1001
,
0010
0100
1000
1100
,
1000
0001
0110
0110
,
0010
0001
0100
0101
,
0010
0001
1000
1010
,
0100
1000
0001
0011
,
0100
0000
0010
0000
0110
0000
0000
1002
,
0000
0000
0000
0000
0000
2000
0000
0000
,
0000
0000
0000
3003
;

//---------------dance-single - ----------------
#NOTES:
     dance-single:
     :
     Medium:
     10:
     :
0000
0000
0000
0000
,
0000
0000
0000
0000
,
0000
0000
0000
0000
,
0001
0000
1000
0100
2000
0000
0100
0000
0000
0000
0001
0000
0000
0000
0100
0000
,
3000
1000
0000
0010
0000
0100
0001
0010
,
0001
0000
1000
0100
2000
0000
0100
0000
0000
0000
0001
0000
0000
0000
3100
0000
,
1000
0000
0000
0001
0000
0000
0100
0000
2002
0000
0000
0000
3000
0000
0000
0000
,
0013
0001
0010
0100
1000
0100
1000
0001
,
0000
0100
0110
0000
1000
0001
0010
0000
,
0100
1000
0001
1000
0100
0010
0001
0010
,
0000
0100
1000
0001
0010
0000
0011
0000
,
0001
0100
0001
0010
1000
0010
0100
1000
,
0000
0010
1010
0000
0001
0100
1000
0000
,
0010
1000
0100
0010
0001
0100
0001
1000
,
0000
0010
1000
0001
0100
0000
0101
0000
,
1000
0001
0000
1000
0001
0000
1000
0002
0000
0000
0000
0000
0000
0000
0000
0000
,
0103
0010
0000
0100
0010
0000
0100
0020
0000
0000
0000
0000
0000
0000
0000
0000
,
1030
0000
0000
0100
0000
0000
1100
0000
0000
0000
0000
0000
0000
0000
0000
0000
,
0001
0000
0000
1000
0000
0000
0100
0000
0110
0000
0000
0100
1000
0000
1001
0000
,
0000
0000
0010
2000
0000
0000
3100
0000
0000
0000
0010
0002
0000
0000
0103
0000
,
0000
0001
0011
0000
1000
0100
1000
0001
,
0100
0010
0100
1000
0100
0001
0101
0000
,
0000
0010
0001
0100
0001
1000
1100
0000
,
0000
0000
1000
0200
0000
0000
0310
0000
0000
0000
0001
0200
0000
0000
0310
0000
,
0000
1000
1010
0000
0010
0100
0001
1000
,
0100
0001
0100
1000
0010
0100
0110
0000
,
0000
0010
1000
0001
1000
0100
1001
0000
,
0010
0000
0000
0001
0000
0000
1000
0000
0100
0000
1100
0000
1100
0000
0000
0000
,
0010
0000
0000
0100
0000
0000
0001
0000
1000
0000
0101
0000
0101
0000
0000
0000
,
0010
0000
0000
0100
0000
0000
1000
0000
0001
0000
0011
0000
0011
0000
0000
0000
,
0100
0000
0000
0001
0000
0000
1000
0000
0010
0000
1010
0000
1010
0000
0000
0000
,
1000
0001
0000
1000
0001
0000
1000
0002
0000
0000
0000
0000
0000
0000
0000
0000
,
0103
0010
0000
0100
0010
0000
0100
0020
0000
0000
0000
0000
0000
0000
0000
0000
,
1030
0000
0000
0001
0000
0000
1001
0000
0000
0000
0000
0000
0000
0000
0000
0000
,
1000
0000
0000
0100
0000
0000
0010
0000
0001
0000
0000
0000
0110
0000
0000
0000
,
1000
0010
1000
0001
0100
0010
0110
0000
,
0001
0000
0000
1000
0000
0000
0001
0000
0000
1100
0000
1100
0000
0000
0000
0000
,
0001
0000
0000
0010
0000
0000
0002
0000
2000
0000
0000
0000
3003
0000
0000
0000
,
1000
0000
0000
0001
0000
0000
0010
0000
0011
0000
0000
0000
0101
0000
0000
0000
,
1002
0203
2300
3200
,
0301
0000
1000
0002
0000
0000
0103
0000
0000
0000
0010
2000
0000
0000
3100
0000
,
0000
1000
1010
0000
1000
0001
1000
0100
,
0010
1000
0010
0001
0100
0010
0110
0000
,
0000
1000
0001
1000
0100
0010
0011
0000
,
0000
0000
0001
0020
0000
0000
0130
0000
0000
0000
1000
0020
0000
0000
0130
0000
,
0001
0000
0000
1000
0000
0000
0001
0000
0012
0000
0000
0000
1003
0000
0001
0100
,
0000
0010
1000
0001
0010
0110
0110
0000
,
0000
0000
1000
0100
1000
0000
0010
0000
0101
0000
0000
0000
1100
0000
0000
0000
,
0001
0000
0000
0010
0000
0000
0100
0000
1000
0000
1100
0000
1100
0000
0000
0000
,
0010
0000
0000
1000
0000
0000
0001
0000
0100
0000
0101
0000
0101
0000
0000
0000
,
1000
0000
0000
0010
0000
0000
0100
0000
0001
0000
0011
0000
0011
0000
0000
0000
,
1000
0000
0100
0000
1000
0000
0001
0000
0020
0000
0000
0230
0000
0000
2000
0000
,
0000
0000
0000
0000
0000
0000
0000
0000
0000
0300
0000
0000
0000
3002
0000
2000
0000
0000
0000
0000
0000
0000
0000
0000
,
0000
0000
0000
3003
;

//---------------dance-single - ----------------
#NOTES:
     dance-single:
     :
     Hard:
     13:
     :
0000
0000
0000
0000
,
0000
0000
0000
0000
,
0000
0000
0000
0000
,
0001
0000
0010
0100
1000
0000
0001
0000
0000
0000
0100
0010
0100
0000
0001
0000
,
0000
0000
1000
0001
1000
0000
0010
0000
0000
0000
0100
0000
0010
0000
1000
0000
,
0100
0000
1000
0001
0100
0000
0010
0000
0000
0000
1000
0001
1000
0000
0010
0000
,
1010
0000
0000
1100
0000
0000
0101
0000
1001
0000
0000
0010
0000
0000
0100
0000
,
0001
0010
0100
0010
0001
0000
1000
0000
0010
0000
1000
0000
0100
0000
0110
0000
,
0000
0000
0001
1000
0100
0000
0010
0000
0100
0000
0001
0000
0100
0000
1000
0000
,
0010
1000
0001
1000
0010
0000
0100
0000
1000
0000
0100
0000
0001
0000
0011
0000
,
0000
0001
0100
0001
1000
0000
0010
0000
0100
0000
1000
0000
0100
0000
0010
0000
,
1000
0001
0100
0001
1000
0000
0010
0000
0001
0000
0010
0000
0100
0000
0110
0000
,
0000
0010
1000
0100
1000
0000
0001
0000
0100
0000
0010
0000
0001
0000
0010
0000
,
1000
0100
0010
0100
1000
0000
0001
0000
0010
0000
0100
0000
1000
0000
1010
0000
,
0000
0100
0001
1000
0010
0000
0100
0000
1000
0000
0100
0000
0001
0000
0010
0000
,
0100
1000
0000
0100
1000
0000
0100
2000
0000
0000
0000
0000
3001
0000
0001
0000
,
0010
0001
0000
0010
0001
0000
0010
0002
0000
0000
0103
0010
2000
0000
0000
0000
,
3020
0000
0000
2030
0000
0000
3001
0100
0002
0000
0000
0000
1003
0000
0010
0000
,
1010
0000
0000
1100
0000
0000
0110
0000
0011
0000
0000
0001
1000
0000
1001
0000
,
1001
0000
0010
1000
0000
0010
0100
0000
0000
0000
0001
0010
0000
0001
1000
0000
,
0000
0000
1000
0100
0000
0010
0001
0000
0100
0000
0100
0000
0110
0000
0110
0000
,
0010
0000
1000
0001
0000
1000
0001
0000
0100
0000
0100
0000
0102
0000
0000
0000
,
1003
0000
0010
0100
0000
0010
0100
0000
0001
0000
0011
0000
1100
0000
0000
0000
,
1001
0000
0100
0001
0000
0100
0010
0000
0000
0000
1000
0001
0000
1000
0010
0000
,
0000
0000
0100
0010
0000
1000
0001
0000
0010
0000
0010
0000
0011
0000
0011
0000
,
0001
0000
1000
0100
0000
0100
1000
0000
0010
0000
0010
0000
2010
0000
0000
0000
,
3100
0000
1000
0001
0000
0001
1000
0000
1100
0000
0110
0000
0011
0000
0000
0000
,
0001
0000
1000
0100
0000
0100
0010
0000
0110
0000
1100
0000
1010
0000
0000
0000
,
0100
0000
0001
0010
0000
0010
0100
0000
1100
0000
1001
0000
0101
0000
0000
0000
,
0010
0000
0001
1000
0000
1000
0010
0000
1010
0000
0101
0000
0011
0000
0000
0000
,
0100
0000
0001
1000
0000
1000
0010
0000
0110
0000
0101
0000
1001
0000
0000
0000
,
0010
1000
0000
0010
1000
0000
0010
2000
0000
0000
0000
0000
3001
0000
0001
0000
,
0100
0001
0000
0100
0001
0000
0100
0002
0000
0000
0013
0100
2000
0000
0000
0000
,
3020
0000
0000
0230
0000
0000
0301
1000
0002
0000
0000
0000
0103
0000
0010
0000
,
1000
0000
0000
0001
0000
0000
1000
0000
1100
0000
0000
0000
0101
0000
0000
0000
,
1000
0100
0000
0100
0010
0000
0010
0001
0000
1001
0000
0220
0000
0000
0000
0300
,
1000
0000
0000
0001
0000
0000
0130
0000
0000
1010
0000
1010
0000
0002
0000
0000
,
2003
0000
0000
3002
0000
0000
0013
0100
0020
0000
0000
0031
1000
0000
0100
0000
,
1100
0000
0000
0011
0000
0000
0101
0000
1010
0000
0000
0000
0110
0000
0000
0000
,
1001
0100
1000
0100
0001
0100
1000
0010
,
0110
0000
0100
0001
0000
0001
0010
0000
0000
0000
0100
1000
0000
1000
0010
0000
,
0000
0000
1000
0010
0000
0100
0001
0000
0010
0000
0010
0000
0011
0000
0011
0000
,
0001
0000
0100
0010
0000
0010
1000
0000
1100
0000
1100
0000
2100
0000
0000
0000
,
3010
0000
1000
0001
0000
0001
0100
0000
0101
0000
1010
0000
0101
0000
0000
0000
,
1001
0000
1000
0010
0000
0100
0010
0000
0000
0000
0100
0001
0000
1000
0001
0000
,
0020
0000
0000
0031
0000
0000
0011
0000
2100
0000
0000
0000
3001
0000
1000
0100
,
0000
0100
0010
0000
0001
0000
1000
0000
1000
0000
1010
0000
1020
0000
0000
0000
,
0130
0000
0001
0010
0100
0010
0001
0010
0200
0000
2300
0000
3002
0000
2003
0000
,
3010
0000
1000
0001
0000
1000
0100
0000
0110
0000
0011
0000
0101
0000
0000
0000
,
0010
0000
1000
0001
0000
0100
0001
0000
0011
0000
0110
0000
1100
0000
0000
0000
,
0100
0000
1000
0001
0000
0010
0100
0000
1100
0000
1001
0000
1010
0000
0000
0000
,
0010
0000
1000
0100
0000
0010
0001
0000
0011
0000
0000
1100
0000
0000
0202
0000
,
0000
0000
0000
0000
0000
0000
0300
0000
0000
0000
0000
0003
0000
1000
0002
2000
0000
0000
0000
0000
0000
0000
0000
0000
,
0000
0000
0000
3003
;
