#TITLE:U.A.D;
#SUBTITLE:;
#ARTIST:HAYAKO;
#TITLETRANSLIT:;
#SUBTITLETRANSLIT:;
#ARTISTTRANSLIT:;
#GENRE:;
#CREDIT:NOWHERE Dance Club;
#MUSIC:UAD.ogg;
#BANNER:UAD-bn.png;
#BACKGROUND:UAD-bg.png;
#CDTITLE:;
#SAMPLESTART:39.734;
#SAMPLELENGTH:19.535;
#SELECTABLE:YES;
#OFFSET:-0.199;
#BPMS:0.000=129.000;
#STOPS:;
#DISPLAYBPM:129.000;
#BGCHANGES:-0.428=U.A.D.avi=1.000=0=0=0=StretchNoLoop====,
99999.000=-nosongbg-=1.000=0=0=0=StretchNoLoop====
;
#FGCHANGES:;

//--------------- dance-single - NOWHERE Dance Club ----------------
#NOTES:
     dance-single:
     NOWHERE Dance Club:
     Beginner:
     4:
     0,0,0,0,0:
0000
0000
0000
0000
,
0000
0000
0000
0000
,
0000
0000
0000
0000
,
0000
0000
0000
0000
,
0000
1000
0000
0010
,
0000
0100
0000
0100
,
0000
0001
0000
0100
,
0000
0001
0000
1000
,
0000
0100
0000
1000
,
0000
0100
0000
0010
,
0000
0001
0000
0000
,
0000
1000
0000
0000
,
0000
0010
0000
0000
,
0000
1000
0000
0010
,
0000
0100
0000
0001
,
0000
0010
0000
0100
,
0000
0010
0000
0001
,
0000
0100
0000
0010
,
0000
1000
0000
1000
,
0000
0001
0000
0001
,
0000
0010
0000
0001
,
0000
1000
1000
1000
,
0000
0010
0000
1000
,
0000
0010
0000
1000
,
0001
1000
0000
0001
,
0000
0010
0010
0010
,
0001
1000
0000
0010
,
0000
0100
0000
0001
,
1000
0001
0000
0100
,
0000
0001
0000
1000
,
0000
0100
0000
0010
,
0000
0001
0000
0100
,
0000
0010
0000
1000
,
0000
0100
0000
0010
,
0000
0001
0000
0001
,
0000
0010
0100
1000
,
0000
0001
1000
0001
,
0000
0100
0010
1000
,
0000
0020
0000
0000
,
0000
0130
0000
0000
,
0000
0020
0000
0000
,
0000
1030
0000
0001
,
0000
0010
0000
0100
,
0000
0010
0000
0100
,
0000
0010
0000
0001
,
0000
1000
0100
0010
,
0001
0100
0000
0010
,
0000
0100
0100
0010
,
0000
1000
0000
0100
,
0000
0010
0010
0100
,
0010
0001
0000
0100
,
0000
0010
0000
1000
,
0000
0100
0000
0010
,
0000
0001
0010
0100
,
1000
0000
0000
0000
0002
0000
0000
0000
0000
0000
0000
1003
0000
0000
0000
0000
,
0000
0000
0000
0200
0000
0000
0310
0000
,
0000
0000
0000
0000
0002
0000
0000
0000
0000
0000
0000
0103
0000
0000
0000
0000
,
0000
0000
0000
0020
0000
0000
0000
0000
,
1030
0100
0010
0001
,
0000
0100
0010
1000
,
0000
0010
1000
0001
,
0000
1000
0010
0100
,
0000
0010
0000
1010
,
1000
0000
0100
0110
,
0000
0000
0010
0000
0011
0000
0000
0001
,
0000
0000
1000
0000
0000
0000
0000
1001
;

//--------------- dance-single - NOWHERE Dance Club ----------------
#NOTES:
     dance-single:
     NOWHERE Dance Club:
     Easy:
     6:
     0,0,0,0,0:
0000
0000
0000
0000
,
0000
0000
0000
0000
,
0000
0000
0000
0000
,
0000
0000
0000
0000
,
0000
0000
0000
0000
,
0000
1000
0000
0001
,
0000
0100
0000
0010
,
0000
0100
0000
0001
,
0000
1000
0000
0100
,
0000
0010
0000
0100
,
0000
1000
0001
1000
,
0000
0001
0100
0001
,
0000
1000
0100
1000
,
0000
0001
0010
0001
,
0000
0010
0000
0001
,
0000
0100
0000
0010
,
0000
1000
0000
0100
,
0000
0010
0000
0001
,
0000
1000
1000
0001
,
0001
0100
0100
0010
,
0010
2000
0000
0000
,
0000
3001
0000
0001
,
0000
1001
0000
0001
,
0100
0010
0000
1000
,
0100
0010
0000
0001
,
0001
1000
0000
0001
,
0000
1001
0000
1000
,
0100
0010
0000
0001
,
0100
0010
0000
1000
,
1000
0001
0000
1000
,
0000
0100
0000
0110
,
0000
0010
0000
0110
,
0000
0001
1000
1001
,
0000
0001
0100
0010
,
1000
0001
0000
1001
,
0000
1000
0100
0110
,
0000
0001
0000
1001
,
0000
0001
0000
0100
,
0000
0010
1000
0100
,
0000
0010
0001
0100
,
0010
1000
0100
0010
,
0000
0001
1000
0010
,
0000
0100
0010
1000
,
0000
0100
0010
0001
,
0100
0010
1000
0001
,
0000
1000
0001
1000
,
0001
1000
0000
0100
,
0000
1000
0000
0001
,
0000
0010
0000
0001
,
0000
1000
0010
0100
,
0001
1000
0000
0010
,
1000
0001
0000
0010
,
0001
1000
0000
0010
,
0100
0010
1000
0001
,
0010
0200
0000
0320
,
0000
0000
0000
0032
0000
0000
0023
0000
,
0000
0032
0000
2003
,
0000
0000
0000
3200
0000
0000
2300
0000
,
3001
2000
0000
0001
,
3001
1000
0100
1000
,
0001
0020
0000
0130
,
0100
0020
0000
0001
,
0031
0100
0100
0020
,
1030
1000
0200
0310
,
0010
0000
0000
0000
0002
0000
0000
0000
2003
0000
0000
3000
0000
0000
0002
0000
,
0000
0003
0000
0000
2000
0000
0000
3000
0000
0000
0000
0000
0000
0000
2002
0000
,
0000
0000
0000
3003
;

//--------------- dance-single - NOWHERE Dance Club ----------------
#NOTES:
     dance-single:
     NOWHERE Dance Club:
     Medium:
     8:
     0,0,0,0,0:
0000
0000
0000
0000
,
0000
0000
0000
0000
,
0000
0000
0000
0000
,
0000
0000
0000
0000
,
0000
0001
0010
0100
,
0100
1000
0010
0100
,
0001
0010
0010
0001
,
0000
0100
0010
1000
,
0000
0100
0100
0010
,
0000
0001
0100
0001
,
1000
0000
0000
0000
0010
0000
1000
0000
0010
0000
0000
0100
0000
0000
0010
0000
,
0000
0000
1000
0000
0010
0000
0000
0000
0010
0000
0000
1000
0000
0000
0100
0000
,
0000
0000
0000
0000
0100
0000
0000
0000
0100
0000
0000
0010
0000
0000
0001
0000
,
0000
0000
0001
0000
0010
0100
0000
1000
,
0100
0010
0001
0000
0100
0200
0000
0000
,
0310
0020
0000
0000
0000
0000
1030
0000
,
0100
0000
0100
0000
0010
0020
0000
0000
,
0000
0032
0203
0320
,
1030
0001
1000
0100
,
0010
0001
1000
0020
,
2030
3200
0000
0000
,
0000
0010
0000
0310
,
0001
0000
1001
0000
0001
0001
0100
0000
,
0010
0010
1000
0000
0010
1000
0010
0000
,
1000
0000
1001
0000
2000
0000
3100
0010
,
0010
0001
1001
0001
,
0100
0000
1010
0000
0010
0000
1000
0010
,
1000
0010
0200
0320
,
1030
1100
0010
0001
,
0010
0001
0001
1000
,
0010
0110
0000
1001
,
0000
0100
0000
1001
,
0000
0010
0000
0011
,
0000
0001
0100
0010
,
1000
1010
0000
0110
,
0000
0101
0000
0110
,
0000
1000
0100
0110
,
0000
0001
0000
0100
,
0000
0020
0000
1030
,
0100
0020
0000
1000
,
0031
2000
0000
3010
,
0100
0002
0000
0010
,
1003
2000
0000
0001
,
3100
0200
0000
0010
,
0310
0002
0000
0010
,
1003
1000
0100
0010
,
0001
0000
0000
0000
1000
0000
0000
0000
0001
0000
1000
0000
0001
0000
0000
1000
,
0000
1010
1000
0100
,
0010
0000
0001
0000
0100
0010
1000
0000
,
0010
0100
0010
1000
,
0100
0010
0000
0002
,
1003
1000
0000
0020
,
0130
0100
0000
0020
,
1030
0001
0100
0010
,
1000
0000
0000
0000
1100
0000
0000
0000
2000
0000
0000
3002
0000
0000
2003
0000
,
0000
3001
0000
0000
0000
0000
0101
0000
0000
0002
0000
0000
2003
0000
0000
3002
,
0000
0000
1003
0000
1001
0000
0000
0000
2000
0000
0000
3020
0000
0000
2030
0000
,
0000
3010
0000
0000
0000
0000
2000
0000
0000
3200
0000
0000
0320
0000
0000
0031
,
0000
0000
0001
0000
0100
0000
0001
1000
,
1000
0001
0100
1000
,
0100
0001
1000
0010
,
1000
0100
0100
0020
,
0001
0000
0000
0000
0031
0000
0000
1000
0000
0000
0001
0000
0020
0000
0000
0000
,
0031
0000
0000
1000
0000
0000
0001
0000
0200
0000
0000
0000
0310
0000
0000
1000
,
0000
0000
0010
0000
2000
0000
0000
0000
3001
0000
0000
1000
0000
0000
0100
0000
,
0000
0010
0000
0000
0001
0000
0000
1000
0000
0000
0000
0000
2000
0000
3020
0000
,
0000
0000
0000
0030
;

//--------------- dance-single - NOWHERE Dance Club ----------------
#NOTES:
     dance-single:
     NOWHERE Dance Club:
     Hard:
     11:
     0,0,0,0,0:
0000
0000
0000
0000
,
0000
0000
0000
0000
,
0000
0000
0000
0000
,
0000
0000
0000
0000
,
0000
0002
1003
2000
,
3001
0001
0100
0010
,
1000
0000
0000
0000
0010
0000
0000
0000
0010
0000
0000
0000
1000
0000
0000
0100
,
0000
0010
0000
0001
0000
0000
0010
0000
0100
0000
0000
0000
0010
0000
0001
0010
,
0000
0001
0000
0000
1000
0000
0000
0000
0010
0000
0100
0000
0001
0000
0000
0100
,
0000
0010
0000
0000
2000
0000
0000
0000
3200
0000
0000
0000
0320
0000
0000
0000
,
0032
0000
0000
0000
0013
0000
0001
0000
0010
0000
0001
0000
0100
0000
0000
0010
,
0000
0010
0000
1000
0000
0000
0001
0000
1000
0000
0001
0000
0010
0000
0000
0100
,
0000
1000
0000
0000
0001
0000
0010
0000
0001
0000
1000
0000
0001
0000
0000
0100
,
0000
0010
0000
0000
1000
0000
1000
0000
0001
0000
0001
0000
0010
0000
0100
0000
,
2000
0000
0001
0000
3002
1000
0000
0000
,
2003
0100
0000
0000
3100
0000
0100
0010
,
0001
0000
0020
0000
0000
0030
0000
0000
0001
0000
1000
0000
0000
0000
0000
0000
,
0001
0000
0010
0000
0200
0000
0000
1300
0000
0000
1000
0000
0001
0000
0000
0000
,
0010
0100
0010
0001
,
1000
0010
1000
0001
,
0010
0002
0000
1000
,
0000
0000
1003
1000
0100
0100
0010
0010
,
0001
0000
0101
0000
0020
1000
1030
0020
,
1000
1030
2002
3003
0002
0013
0100
0010
,
0001
1000
1001
0000
1000
0010
1000
0001
,
0010
0100
0110
0000
0011
0000
1001
0000
,
1010
0000
1100
0000
2000
0100
3100
0020
,
0001
0031
1000
0000
0020
0100
0130
0020
,
1000
1030
1100
0000
0001
0010
1000
0010
,
0001
1000
0002
0000
0103
0000
0020
0000
,
1030
1001
0000
1010
,
0000
1000
0100
0011
,
0010
0002
0000
0000
0103
0000
0020
0000
,
2030
0000
3200
0320
0032
2003
3020
0000
,
1030
1001
0001
0011
,
0001
1000
0010
1010
,
1000
0000
0100
0000
0010
0000
0012
0010
,
0000
1003
0000
0001
0000
0100
0000
0020
,
0000
0000
0000
2030
0000
0000
0000
0000
0000
3010
1000
0010
,
1000
0001
1000
0002
0000
0000
0000
0000
0000
1003
0010
1000
,
0001
0010
0001
0020
0000
0000
0000
0000
0000
0031
1000
0001
,
0100
0001
1000
0200
0000
0000
0000
0000
0000
0310
0100
1000
,
0100
0010
0001
0020
0000
0000
0000
0000
0000
0031
1000
0001
,
1000
0010
1000
0020
0000
0000
0000
0000
0000
1030
0010
1000
,
0001
0010
0001
2000
0000
0000
0000
0000
0000
3001
0010
0100
,
1000
0000
0001
0000
1000
0000
0001
0000
0000
0100
0000
0000
0001
0000
0000
1000
0000
0000
0010
0000
0000
1000
0000
0000
,
0100
0000
0010
0000
0002
0000
0000
0000
1003
0000
0010
0000
0100
0000
0000
0010
,
0000
1000
0000
0002
0000
0000
1003
0000
0001
0000
1000
0000
0001
0000
0100
0010
,
0000
2000
0000
0000
3001
0000
0000
0000
0010
0000
0100
0000
1000
0000
0000
0001
,
0000
0002
0000
0000
1003
0000
0100
0000
0010
0001
0010
0000
0001
0000
0100
0000
,
0010
1000
0010
0000
2000
0000
0000
0000
3100
0000
0000
0000
0010
0001
0000
0010
,
0000
0010
0000
0002
0000
0000
1003
0000
1000
0000
0000
0000
0010
1000
0000
0010
,
0000
0020
0000
0000
0130
0000
0000
0000
0010
0000
1000
0000
0010
0000
0000
0010
,
0000
2000
0000
0000
3010
0000
1000
0000
0100
0000
0010
0000
0001
0100
0010
0000
,
1000
0100
0010
0000
0001
0000
0000
0000
0002
0000
0000
0013
0000
0000
2000
0000
,
0000
3010
0000
0000
0000
0000
2000
0000
0000
3100
0000
0000
0002
0000
0000
0103
,
0000
0000
1000
0000
1001
0000
0000
0000
0002
0000
0000
0013
0000
0000
0200
0000
,
0000
0310
0000
0000
0000
0000
0002
0000
0000
1003
0000
0000
2000
0000
0000
3001
,
0000
0000
1000
0000
0002
0000
0103
0000
0010
0000
0100
0000
0010
1000
0000
1000
,
0000
0000
0002
0000
0103
0000
0020
0000
1030
0000
0200
0000
0310
0000
0002
1003
,
0000
1000
0001
0000
0020
0000
0000
0000
0031
0000
1000
0000
0100
1000
0000
0001
,
0000
0010
0000
0002
0000
0000
2003
0000
0000
3020
0000
0000
0130
0000
0000
0020
,
0000
1030
0000
0000
0002
0000
0000
0100
0000
0000
1003
0000
0010
0000
1000
0000
,
0002
0000
0000
0010
0000
0000
1003
0000
0001
0000
0100
0000
0020
0000
0000
2030
,
0000
0000
3002
0000
0003
0000
1000
0000
0002
0000
0000
0023
0000
0000
2030
0000
,
0000
3020
0000
0000
0032
0000
0000
0203
0000
0000
0000
0000
0300
0000
0220
0000
,
0000
0000
0000
0330
;

//--------------- dance-single - NOWHERE Dance Club ----------------
#NOTES:
     dance-single:
     NOWHERE Dance Club:
     Challenge:
     13:
     0,0,0,0,0:
0000
0000
0000
0000
,
0000
0000
0000
0000
,
0000
0000
0000
0000
,
0000
0000
0000
0000
,
0000
2000
3010
0200
,
0301
1000
0100
0010
,
0001
0000
0000
0000
0010
0000
0000
0000
0001
0000
0100
0000
0001
1000
0000
0010
,
0000
1000
0000
0100
0000
0000
0010
0000
0100
0000
0010
0000
0001
0010
0000
0001
,
0000
1000
0000
0000
0001
0000
0000
0000
0100
0000
0010
0000
1000
0100
0000
1000
,
0000
0010
0000
0000
2000
0000
0000
0000
3001
0000
1000
0000
0002
0000
0100
0000
,
0203
0000
0000
0000
0310
0000
1000
0000
0010
0000
1000
0000
0100
0000
0010
0001
,
0000
0010
0000
0001
0000
0000
1000
0000
0001
0000
1000
0000
0010
0000
0100
0001
,
0000
1000
0000
0000
0010
0000
1000
0000
0100
0000
1000
0000
0010
0000
0000
0100
,
0000
0001
0000
0000
0010
0000
0001
0000
0010
0000
0100
0000
1000
0000
0001
0000
,
0002
0000
1000
0000
2003
0010
0000
0000
,
3001
0020
0000
0000
0000
0031
0100
0010
,
1000
0000
0020
0000
0000
0030
0000
0000
1000
0000
0001
0000
0000
0000
0000
0000
,
1000
0000
0100
0000
0020
0000
0000
0031
0000
0000
0001
0000
1000
0000
0000
0000
,
0010
0100
0010
1000
,
0100
0010
0001
0010
,
0100
2000
0000
0001
,
0000
0000
3001
0001
0100
0010
1000
1000
,
0100
0000
0110
0000
0010
0001
0100
0001
,
0010
0000
0001
0000
2002
0000
3003
0000
1000
0010
1000
0000
0100
0000
0010
0001
,
0000
0010
0000
0001
2000
0000
0000
3000
0020
0000
0130
0000
0200
0000
0310
0000
,
0100
0010
1010
0010
0110
0000
0101
0001
,
1001
0000
0011
0000
0001
0100
0100
0010
,
1000
0010
1000
0000
0200
0000
0000
0000
0310
0100
0010
0000
0100
0000
0010
0000
,
0001
0100
0010
1000
0002
0000
0000
0000
1003
0000
1000
0000
0010
1000
0001
0000
,
0010
0001
1001
0001
0101
0000
0110
0010
,
2010
0000
0000
0000
0000
0000
0000
0000
3001
0000
0000
0000
0000
0000
0000
0000
0000
0000
0000
0000
0000
0000
0000
1000
0001
0000
0000
0000
0000
0000
0000
0000
,
0000
0000
0000
0000
0000
0000
0000
0000
0001
0000
0000
0000
0000
0000
0000
0000
0100
0000
0000
0000
0000
0000
0000
0010
1000
0000
0000
0000
0010
0000
0000
0000
,
0010
0000
0000
0000
2000
0000
0000
0000
0000
0000
0000
0000
0000
0000
0000
0000
3100
0000
0000
0000
0000
0000
0000
0010
0001
0000
0000
0000
0000
0000
0000
0000
,
1000
0000
0000
0000
0001
0100
0001
0000
1000
0100
1000
0000
0002
0000
0000
0000
,
0023
0000
0000
0000
2030
0000
0000
0000
3010
0000
0000
0000
0000
0000
0000
0000
0001
0000
0000
0000
0000
0000
0000
0001
1000
0000
0000
0000
0000
0000
0000
0000
,
0001
0000
0000
0000
0000
0000
0000
0000
0100
0000
0000
0000
0000
0000
0000
0000
0010
0000
0000
0000
0000
0000
0000
0010
1000
0000
0000
0000
0000
0000
0000
0000
,
1000
0000
0000
0000
0000
0000
0000
0000
0100
0000
0000
0000
0000
0000
0000
0000
0010
0000
0000
0000
0000
0000
0000
0010
0002
0000
0000
0000
0000
0000
0000
0000
,
1003
0001
0000
2000
0000
3100
0000
0020
,
0000
0000
0000
0031
0000
0000
0010
0000
0000
0001
0000
0000
0100
0000
0000
0001
0000
0000
0010
0000
0001
0000
0100
0000
,
0010
0000
1000
0000
0001
0000
1000
0000
0000
0100
0000
0000
0010
0000
0000
0100
0000
0000
1000
0000
0010
0000
0100
0000
,
0001
0000
0010
0000
0001
0000
0010
0000
0000
0100
0000
0000
0010
0000
0000
0001
0000
0000
1000
0000
0100
0000
0010
0000
,
0001
0000
1000
0000
0001
0000
0100
0000
0000
0010
0000
0000
1000
0000
0000
0010
0000
0000
0100
0000
0010
0000
1000
0000
,
0100
0000
0010
0000
0001
0000
1000
0000
0000
0001
0000
0000
0010
0000
0000
0001
0000
0000
1000
0000
0010
0000
0100
0000
,
0001
0000
1000
0000
0001
0000
0010
0000
0000
0100
0000
0000
1000
0000
0000
0100
0000
0000
0010
0000
0001
0000
0100
0000
,
0010
0000
1000
0000
0001
0000
1000
0000
0000
0010
0000
0000
0100
0000
0000
0010
0000
0000
1000
0000
0100
0000
0010
0000
,
0001
0000
0000
0000
1000
0000
0000
0000
0001
0000
0000
0000
1000
0000
0000
0100
0000
0000
0010
0000
0000
0000
0000
0000
0001
0000
0000
0100
0000
0000
0010
0000
0000
0000
0000
0000
1000
0000
0000
0100
0000
0000
0010
0000
0000
0000
0000
0000
,
0001
0100
0010
0000
2000
0000
0000
0000
3001
0000
0100
0000
0010
1000
0000
0010
,
0000
1000
0000
0200
0000
0000
1300
0000
0100
0000
0010
0000
0001
0100
0000
0001
,
0000
0010
0000
0000
0200
0000
0000
0000
0310
0000
0001
0000
1000
0001
0000
0100
,
0000
0020
0000
0000
1030
0100
0010
0001
1000
0100
0010
0001
0100
0010
1000
0001
,
0100
0010
1000
0001
0200
0000
0000
0000
0310
0000
0010
0000
1000
0100
0000
0010
,
0000
0001
0000
0020
0000
0000
0031
0000
0001
0000
0010
0000
0100
1000
0000
0010
,
0000
2000
0000
0000
3100
0000
0000
0000
0010
0000
0001
0000
1000
0001
0000
1000
,
0000
0002
0000
0000
1003
0001
0100
0000
0001
1000
0100
0000
1000
0100
0010
0000
,
0001
0100
0010
0000
1001
0000
0000
0000
2100
0000
0000
3001
0000
0000
0102
0000
,
0000
1003
0000
0000
0000
0000
0002
0000
0000
0203
0000
0000
2300
0000
0000
3100
,
0000
0000
0001
0000
1001
0000
0000
0000
2010
0000
0000
3001
0000
0000
0012
0000
,
0000
1003
0000
0000
0000
0000
2000
0000
0000
3020
0000
0000
0032
0000
0000
0013
,
0000
0000
1000
0000
1002
0000
0103
0010
1000
0000
0001
0000
0010
0001
0000
1000
,
0000
0001
0100
0010
1000
0001
1000
0001
0100
0001
0000
1000
0010
0000
1000
0001
,
0000
1000
0100
0010
0002
0000
0000
0000
0013
0000
0100
0000
0010
0001
0000
1000
,
0000
0001
0000
0100
0000
0000
2000
0000
0000
3200
0000
0000
0301
0000
0000
1000
,
0000
0001
0000
0000
2000
0000
0000
3100
0000
0001
0100
0000
2000
0000
3020
0000
,
0031
0000
0000
0010
0000
0000
2000
0000
3001
0010
0100
1000
0020
0000
0000
1030
,
0000
0100
0002
0000
0103
0000
1000
0000
0002
0000
0000
0023
0000
0000
2030
0000
,
0000
3020
0000
0000
0032
0000
0000
0203
0000
0000
0000
0000
0310
0000
0220
0000
,
0000
0000
0000
0330
;
