#VERSION:0.83;
#TITLE:This Hell;
#SUBTITLE:;
#ARTIST:Rina Sawayama;
#TITLETRANSLIT:;
#SUBTITLETRANSLIT:;
#ARTISTTRANSLIT:;
#GENRE:;
#ORIGIN:;
#CREDIT:;
#BANNER:banner.png;
#BACKGROUND:This Hell-background.png;
#PREVIEWVID:;
#JACKET:jacket.png;
#CDIMAGE:;
#DISCIMAGE:;
#LYRICSPATH:;
#CDTITLE:;
#MUSIC:This Hell.ogg;
#OFFSET:-0.000000;
#SAMPLESTART:47.591999;
#SAMPLELENGTH:15.899000;
#SELECTABLE:YES;
#BPMS:0.000=121.000;
#STOPS:;
#DELAYS:;
#WARPS:;
#TIMESIGNATURES:0.000=4=4;
#TICKCOUNTS:0.000=4;
#COMBOS:0.000=1;
#SPEEDS:0.000=1.000=0.000=0;
#SCROLLS:0.000=1.000;
#FAKES:;
#LABELS:0.000=Song Start;
#BGCHANGES:0.000=This Hell.avi=1.000=0=0=1=====,
99999=-nosongbg-=1.000=0=0=0 // don't automatically add -songbackground-
;
#KEYSOUNDS:;
#ATTACKS:
;

//---------------dance-single - ----------------
#NOTEDATA:;
#CHARTNAME:;
#STEPSTYPE:dance-single;
#DESCRIPTION:;
#CHARTSTYLE:;
#DIFFICULTY:Beginner;
#METER:2;
#RADARVALUES:0.122138,0.148930,0.006895,0.000000,0.000000,124.000000,123.000000,1.000000,0.000000,0.000000,0.000000,0.000000,0.000000,0.000000,0.122138,0.148930,0.006895,0.000000,0.000000,124.000000,123.000000,1.000000,0.000000,0.000000,0.000000,0.000000,0.000000,0.000000;
#CREDIT:Venomothim;
#NOTES:
0000
0000
0000
0000
,
0000
0000
0000
0000
,
0000
0000
0000
0000
,
0000
0000
0000
0000
,
1000
0000
1000
0000
,
0010
0000
0010
0000
,
0100
0000
0100
0000
,
0001
0000
0000
0000
,
1000
0000
1000
0000
,
0100
0000
0100
0000
,
0000
0010
0000
0010
,
0000
0001
0000
0001
,
0001
0000
0100
0000
,
0100
0000
0010
0000
,
0000
0010
0000
0010
,
0000
1000
0000
1000
,
1000
0000
0100
0000
,
0100
0000
0000
0000
,
0010
0000
0010
0000
,
0001
0000
0000
0000
,
0100
0000
0100
0000
,
0010
0000
0000
0000
,
1000
0000
1000
0000
,
0001
0000
0000
0000
,
1000
0000
1000
0000
,
0100
0000
0100
0000
,
0010
0000
0010
0000
,
0001
0000
0000
0000
,
0001
0000
0001
0000
,
0100
0000
0100
0000
,
0010
0000
0010
0000
,
1000
0000
0000
0000
,
0100
0000
0100
0000
,
1000
0000
1000
0000
,
0010
0000
0010
0000
,
0100
0000
0000
0000
,
0001
0000
0001
0000
,
0010
0000
0010
0000
,
0100
0000
0100
0000
,
1000
0000
0000
0000
,
0001
0000
0000
0000
,
1000
0000
0000
0000
,
0010
0000
0010
0000
,
0100
0000
0100
0000
,
0001
0000
0001
0000
,
0010
0000
0010
0000
,
0000
0100
0000
0100
,
0000
1000
1000
0000
,
0010
0000
0010
0000
,
0100
0000
0100
0000
,
0000
0001
0000
0001
,
0001
0000
0010
0000
,
0100
0000
0100
0000
,
1000
0000
1000
0000
,
0010
0000
0010
0000
,
0100
0000
0100
0000
,
0001
0000
0001
0000
,
0010
0000
0010
0000
,
0100
0000
0100
0000
,
1000
0000
1000
0000
,
0001
0000
0001
0000
,
0100
0000
0100
0000
,
0010
0000
0010
0000
,
1000
0000
0000
0000
,
0100
0000
0100
0000
,
1000
0000
1000
0000
,
0010
0000
0010
0000
,
0100
0000
0000
0000
,
0001
0000
0001
0000
,
0010
0000
0000
0000
,
0100
0000
0100
0000
,
1000
0000
1000
0000
,
1001
0000
0000
0000
;

//---------------dance-single - ----------------
#NOTEDATA:;
#CHARTNAME:;
#STEPSTYPE:dance-single;
#DESCRIPTION:;
#CHARTSTYLE:;
#DIFFICULTY:Easy;
#METER:5;
#RADARVALUES:0.232456,0.248216,0.006895,0.062054,0.000000,236.000000,235.000000,1.000000,9.000000,0.000000,0.000000,0.000000,0.000000,0.000000,0.232456,0.248216,0.006895,0.062054,0.000000,236.000000,235.000000,1.000000,9.000000,0.000000,0.000000,0.000000,0.000000,0.000000;
#CREDIT:Venomothim;
#NOTES:
0000
0000
0000
0000
,
0000
0000
0000
0000
,
0000
0000
0000
0000
,
0000
0000
0000
0000
,
1000
0100
1000
0000
,
0001
0100
0001
0000
,
1000
0010
1000
0000
,
0001
0010
0001
0001
,
1000
1000
0100
0100
,
0010
0010
0001
0001
,
0000
0100
0010
0010
,
0000
1000
0001
0001
,
1000
1000
0010
0010
,
0100
0100
0001
0001
,
0000
1000
0001
0100
,
0000
0001
1000
0100
,
1000
0000
0010
0000
,
0010
0000
0100
0000
,
0100
0000
0001
0010
,
0001
0000
0100
0010
,
1000
0000
0100
0000
,
0100
0000
1000
0000
,
1000
0000
0010
0000
,
0100
0100
0100
0000
,
0001
0001
0010
0010
,
0100
0100
2000
3000
,
1000
0001
0010
0010
,
0001
1000
0020
0030
,
0100
0001
0010
0010
,
0100
1000
0010
0010
,
1000
0100
0010
0001
,
0100
0010
1000
0000
,
0001
0010
0100
0100
,
0010
0001
0200
0300
,
0010
1000
0100
0100
,
1000
1000
2000
3000
,
0001
0100
0010
0010
,
1000
0100
0010
0010
,
0001
1000
0010
0100
,
0001
0010
0200
0300
,
1000
0010
0100
0000
,
0001
0010
0100
0000
,
1000
0001
0100
0010
,
1000
0100
0020
0030
,
0001
0001
0100
0100
,
0010
0010
1000
1000
,
0000
0100
1000
1000
,
0000
0010
0100
0100
,
0001
0001
0010
0010
,
0100
0100
1000
1000
,
0000
0010
0100
0100
,
0000
0001
1000
1000
,
0100
1000
0010
0100
,
0001
0010
0100
0000
,
0010
0001
1000
0010
,
0100
0001
1000
0000
,
0100
0100
1000
1000
,
0010
0010
0100
0100
,
0001
1000
0100
1000
,
0001
0010
0001
0100
,
0010
0010
1000
1000
,
0100
0100
0020
0030
,
0001
1000
0010
0100
,
0001
0001
2000
3000
,
0100
1000
0010
0010
,
0100
0001
0010
0010
,
0001
0100
0010
1000
,
0100
0010
0002
0003
,
1000
0010
0100
0100
,
0001
0010
0100
0100
,
0010
0001
0100
0010
,
1000
0100
0010
0001
,
1001
0000
0000
0000
;

//---------------dance-single - ----------------
#NOTEDATA:;
#CHARTNAME:;
#STEPSTYPE:dance-single;
#DESCRIPTION:;
#CHARTSTYLE:;
#DIFFICULTY:Medium;
#METER:8;
#RADARVALUES:0.324060,0.372324,0.089634,0.227531,0.013790,329.000000,316.000000,13.000000,33.000000,0.000000,0.000000,0.000000,0.000000,0.000000,0.324060,0.372324,0.089634,0.227531,0.013790,329.000000,316.000000,13.000000,33.000000,0.000000,0.000000,0.000000,0.000000,0.000000;
#CREDIT:Venomothim;
#NOTES:
0000
0000
0000
0000
,
0000
0000
0000
0000
,
0000
0000
0000
0000
,
0000
0000
0000
0000
,
1000
0000
0100
0000
0010
0000
0001
0200
,
0000
0310
1000
0001
,
1000
0000
0010
0000
0100
0000
0001
0020
,
0000
0130
1000
0001
,
1000
0000
0000
0000
1000
0000
0000
0000
0010
0000
0000
0010
0000
0000
0100
0000
,
0001
0000
0000
0001
0000
0000
1000
0000
0100
0000
0000
0000
1000
0000
0000
0000
,
0000
0001
0100
0000
0001
0000
0001
0000
,
0000
1000
0010
0000
1000
0000
1000
0000
,
0100
0000
0000
0000
0100
0000
0000
0000
1000
0000
0000
1000
0000
0000
0010
0000
,
0100
0000
0000
0100
0000
0000
0001
0000
0010
0000
0000
0000
0001
0000
0100
0000
,
0000
0010
1000
0000
0000
0100
0010
0000
,
0000
0001
1000
0000
0010
0000
0010
0000
,
1001
0000
0001
0010
0200
0000
0320
0000
,
0031
0000
1000
0010
0200
0000
0320
0000
,
1030
0000
0001
0000
1000
0100
0010
0000
,
0002
0203
0320
2030
,
3001
0000
1000
0010
0200
0000
0320
0000
,
1030
0000
0001
0010
0200
0000
0320
0000
,
0031
0100
0010
1000
,
0100
0010
0001
0000
,
1000
2100
3001
0102
,
1003
0000
0010
0100
0000
0100
0000
0001
,
0000
0010
0100
0000
0010
0000
0001
0000
,
1000
0010
0000
0010
0000
0100
0010
0000
,
1000
0000
0100
0000
1000
0010
1000
0000
,
0001
0000
0010
0000
0001
0100
0001
0000
,
1000
0200
0320
0032
,
0103
0000
0010
0010
0000
1000
0001
0000
,
0010
0012
1003
2010
,
3001
0000
0001
0100
0000
0010
0000
1000
,
0000
0001
0001
0000
1000
0000
0100
0000
,
1000
0000
0010
0010
0000
0100
0001
0010
,
0000
0010
0100
0000
1000
0000
0001
1000
,
0000
1000
0010
0000
0100
0000
0001
0000
,
0100
1001
0010
1001
,
0001
0010
0100
0000
0010
0001
0100
0000
,
0010
0000
1000
0000
0100
0000
1000
0020
,
0000
0130
0001
1000
,
0100
0011
0100
1010
,
0001
1000
0010
0000
,
1000
1000
0100
0100
,
0010
0001
0010
0000
0001
0100
0001
0000
,
0000
0100
0010
0010
,
1000
0000
0001
0000
1000
0100
0010
0000
,
0001
0001
0100
0100
,
0010
1000
0010
0000
1000
0100
1000
0000
,
0000
0100
0010
0000
0001
0000
0001
0000
,
1000
0100
1000
0000
0010
1000
0100
0000
,
0010
0002
0203
0320
,
1030
0100
0000
2000
0000
3010
0000
0100
,
0002
0000
0013
0000
0200
0000
1300
0020
,
0000
0100
0000
0230
0000
0001
0301
0000
,
1000
0000
0100
0010
0000
0010
0001
0000
,
0001
0100
0000
0100
0010
0000
1000
0000
,
0100
1000
0010
0000
0100
0001
0010
0000
,
0001
0100
0010
1000
0001
0010
0100
1000
,
0001
0102
1003
2100
,
3001
0010
0000
0100
0000
0010
0000
0002
,
0000
1000
1003
0000
0010
0000
0100
0000
,
0001
1000
0000
1100
0000
0100
0010
0000
,
0001
0000
0100
0000
0010
1000
0100
0000
,
0010
0000
0100
0000
1000
0010
0100
0000
,
0001
0001
1000
1000
,
0100
0010
0000
0001
0000
0100
0010
0000
,
1000
1000
0100
0100
,
1000
0010
0000
0100
0000
0100
0001
0000
,
0010
0001
0100
0010
,
1000
0100
0000
1000
0000
0010
0100
0010
,
1001
0000
0000
0000
;

//---------------dance-single - ----------------
#NOTEDATA:;
#CHARTNAME:;
#STEPSTYPE:dance-single;
#DESCRIPTION:;
#CHARTSTYLE:;
#DIFFICULTY:Hard;
#METER:11;
#RADARVALUES:0.447183,0.421967,0.206847,0.296480,0.000000,454.000000,424.000000,30.000000,43.000000,0.000000,0.000000,0.000000,0.000000,0.000000,0.447183,0.421967,0.206847,0.296480,0.000000,454.000000,424.000000,30.000000,43.000000,0.000000,0.000000,0.000000,0.000000,0.000000;
#CREDIT:Venomothim;
#NOTES:
// measure 0
0000
0000
0000
0000
,  // measure 1
0000
0000
0000
0000
,  // measure 2
0000
0000
0000
0000
,  // measure 3
0000
0000
0000
0000
,  // measure 4
1000
0100
0001
0100
2000
0000
3001
0200
,  // measure 5
0000
1300
0100
0001
0010
0100
1000
0000
,  // measure 6
0001
0010
1000
0010
0002
0000
1003
0020
,  // measure 7
0000
0031
0010
1000
0100
0010
0001
0001
,  // measure 8
1000
0000
1100
0000
0001
0100
0010
0010
,  // measure 9
1000
0100
0010
0010
1000
0010
0001
1000
,  // measure 10
0000
0001
0100
0010
1000
0100
0010
0001
,  // measure 11
0000
1000
0010
0100
0001
0010
0100
1000
,  // measure 12
0001
0000
0101
0000
1000
0100
0010
0010
,  // measure 13
0001
0100
0010
0010
1000
0100
0010
0001
,  // measure 14
0000
1000
0010
0010
0000
0100
0001
0001
,  // measure 15
0000
0010
0100
0100
1000
0100
0010
0001
,  // measure 16
1000
0000
0001
0010
1000
0001
0100
1000
,  // measure 17
0001
0000
1000
0010
0001
1000
0100
0001
,  // measure 18
1000
0000
0001
0000
1000
0100
0010
0000
,  // measure 19
0002
0203
0320
2030
,  // measure 20
3001
0000
1000
0100
0001
0100
0010
0001
,  // measure 21
1000
0000
0001
0100
1000
0100
0010
1000
,  // measure 22
0002
0023
0230
2300
,  // measure 23
3020
0230
0302
0003
,  // measure 24
1000
1100
0001
0101
,  // measure 25
1000
0100
0010
0002
0000
0103
0010
0020
,  // measure 26
0000
1030
0100
0001
0100
0010
0001
1000
,  // measure 27
0010
0010
0000
0101
0000
0001
0100
0010
,  // measure 28
1000
0100
0010
0002
0100
1003
0010
0100
,  // measure 29
0001
0010
0100
2000
0100
3001
0010
0100
,  // measure 30
1000
1010
0101
1001
,  // measure 31
1000
0100
0001
0010
1000
0000
0001
0000
,  // measure 32
1000
0000
1010
0000
0001
0000
0011
1000
,  // measure 33
0010
0100
0001
1000
0000
0100
0000
2001
,  // measure 34
0000
3010
0100
0001
0010
0100
1000
0010
,  // measure 35
2000
0100
0100
3100
0000
1000
0100
0010
,  // measure 36
0001
0100
0010
2000
0010
3001
0010
0100
,  // measure 37
1000
0010
0100
0002
0010
1003
0100
0010
,  // measure 38
0001
0101
1010
1001
,  // measure 39
0001
0100
1000
0010
0001
1000
1000
1000
,  // measure 40
0001
0010
0100
1000
0002
0000
0103
0020
,  // measure 41
0000
0031
0010
1000
0100
0010
0001
0000
,  // measure 42
0100
1010
0100
0011
,  // measure 43
1000
0100
0010
0001
0100
0010
0010
0010
,  // measure 44
0010
1100
0010
0101
,  // measure 45
1000
1000
1000
0000
0001
0001
0001
0000
,  // measure 46
1000
0100
0001
0000
0001
0100
1000
0000
,  // measure 47
0001
0100
0010
1000
0100
0010
0001
0000
,  // measure 48
0100
1010
0100
0011
,  // measure 49
1000
1000
1000
0000
0001
0001
0001
0000
,  // measure 50
1000
0010
0001
0000
0001
0010
1000
0000
,  // measure 51
0001
0010
0100
1000
0010
0100
0001
0000
,  // measure 52
1000
0200
0320
0032
,  // measure 53
0103
0010
1000
0002
0000
1003
0100
0010
,  // measure 54
0200
0000
2300
0000
3002
0000
0103
0020
,  // measure 55
0000
0230
0000
0302
0000
1000
1003
0000
,  // measure 56
1000
0010
0100
0002
0000
0013
0200
0000
,  // measure 57
1300
0002
0000
1003
2000
0000
3010
0000
,  // measure 58
0100
0001
0010
0100
1000
0010
1000
0100
,  // measure 59
0010
0001
0100
0010
0100
0001
0010
0100
,  // measure 60
1000
1100
0001
0101
,  // measure 61
1000
0010
0100
0002
0000
1003
1000
0200
,  // measure 62
0000
1300
1000
0010
0100
0001
0010
0100
,  // measure 63
1000
0001
0000
0011
0000
0001
0100
0010
,  // measure 64
1000
0100
0010
0002
0100
1003
0010
0100
,  // measure 65
0001
0010
0100
2000
0100
3001
0010
0100
,  // measure 66
1000
1010
0001
0011
,  // measure 67
1000
0100
0001
0010
1000
0100
0010
0001
,  // measure 68
1000
0101
0001
1100
,  // measure 69
1000
0010
0100
0001
0010
0100
1000
0010
,  // measure 70
0100
1010
0100
0011
,  // measure 71
1000
0100
0010
0001
0100
0010
0010
0010
,  // measure 72
1001
0000
0000
0000
;
