#TITLE:The Middle;
#ARTIST:Zedd ft. Maren Morris and Grey;
#BANNER:The Middle-bn.png;
#BACKGROUND:The Middle-bg.png;
#JACKET:The Middle-jacket.png;
#MUSIC:The Middle.ogg;
#SAMPLESTART:28.589;
#SAMPLELENGTH:20;
#DISPLAYBPM:107;
#BPMS:0=107.035;
#BGCHANGES:;

//---------------dance-single - ----------------
#NOTES:
     dance-single:
     :
     Beginner:
     3:
     :
0000
0000
0000
0000
,
0000
0000
0000
0000
,
0000
0000
0000
0000
,
0000
0000
0000
0000
,
0000
0000
0000
0000
,
0010
0000
0100
0000
,
0001
0000
1000
0000
,
0100
0000
0010
0000
,
0001
0001
0000
0000
,
1000
1000
1000
0000
,
1001
0000
0010
0000
,
0100
0100
0100
0000
,
0110
0000
0000
0001
,
0001
0000
0000
0000
,
1000
1000
1000
0000
,
0010
0000
0000
0000
,
1000
0000
0001
0000
,
0100
0000
0000
0000
,
0010
0010
0010
0000
,
1000
0000
0000
0100
,
0100
0000
1000
0000
,
0001
0000
0010
0000
,
0001
0001
0001
0000
,
0100
0000
0010
0000
,
1000
0000
0100
0000
,
1000
0000
0001
0000
,
0100
0100
0100
0000
,
0001
0000
1000
0000
,
0010
0000
0100
0000
,
1001
0000
0001
0000
,
0010
0000
0001
0000
,
0100
0000
0100
0000
,
0010
0000
0000
0000
,
0110
0000
0010
0000
,
1000
0000
0100
0000
,
1000
0000
0001
0000
,
0010
0000
0000
0000
,
1001
0000
0000
0000
,
0010
0000
1000
0000
,
0100
0000
0000
0000
,
1000
0000
0001
0000
,
0010
0000
0000
0000
,
0001
0000
0100
0000
,
0010
0000
0000
0000
,
1000
1000
1000
1000
,
1000
0000
0010
0000
,
0100
0100
0100
0000
,
0001
0000
0010
0000
,
0001
0000
0100
0000
,
1000
0000
0010
0000
,
1000
1000
1000
0000
,
0001
0000
0010
0000
,
0001
0000
0110
0000
;

//---------------dance-single - ----------------
#NOTES:
     dance-single:
     :
     Easy:
     7:
     :
0000
0000
0000
0000
,
0000
0000
0000
0000
,
0000
0000
0000
0000
,
0000
0000
0000
0000
,
0000
0000
0000
0000
,
0010
0010
1000
0001
,
1000
0100
1000
1000
,
0001
0001
0100
0010
,
2000
0002
3003
0100
,
1001
1001
0010
1000
,
0110
0000
0001
1000
,
1001
1001
0100
0010
,
0110
0000
0000
0002
,
1003
0001
0000
0000
0000
0000
0000
0000
,
0010
1000
0100
0001
,
0010
0100
0000
0000
0000
0000
0000
0000
,
0110
0000
0000
0001
1000
0000
0110
0000
,
1000
0001
0000
0000
0000
0000
0000
0000
,
0100
0001
0010
1000
,
0100
0010
0000
0000
0000
0000
0002
0000
,
1003
0100
0000
1000
0100
0000
1001
0000
,
0010
0100
0000
0000
0002
0000
1003
0000
,
0010
1000
0100
0001
,
0010
0001
0000
0000
0200
0000
0320
0000
,
1030
0000
0000
0001
0100
0000
0110
0000
,
0010
1000
0000
0000
2000
0002
3000
0000
,
0103
1000
0010
0001
,
1000
0001
0000
0000
2000
0000
3020
0000
,
0130
0001
0000
0100
0001
0000
0000
0000
,
0010
0002
2003
3002
,
0203
0300
0010
0010
,
1001
0000
0001
0100
,
0001
0000
0001
0000
0000
1000
0002
0000
,
0103
0020
2030
3002
,
2003
3000
0100
0100
,
0110
0000
0001
0010
,
0002
2000
0000
3003
,
0110
0000
0000
0000
,
0001
0001
1000
1000
,
0010
0100
0000
0000
0000
0000
0000
0000
,
0110
0000
0000
1000
0100
0000
1001
0000
,
0010
0001
0000
0000
0000
0000
0000
0000
,
1000
0010
0100
0001
,
1000
0010
0000
0000
0000
0000
1001
0000
,
0002
0000
2003
0000
3001
0100
0020
0000
,
1030
0100
0000
0000
2000
0000
3001
0000
,
0010
0001
0100
1000
,
0010
1000
0000
0000
0200
0000
0320
0000
,
0031
0000
0000
1000
0010
0000
1001
0000
,
0001
0100
0000
0000
0020
2000
0030
0000
,
3001
0010
1000
0100
,
0001
1000
0000
0001
1000
0000
0110
0000
,
0010
0100
0000
0010
0100
0000
0000
0000
;

//---------------dance-single - ----------------
#NOTES:
     dance-single:
     :
     Medium:
     9:
     :
0000
0000
0000
0000
,
0000
0000
0000
0000
,
0000
0000
0000
0000
,
0000
0000
0000
0000
,
0000
0000
0000
0000
,
0020
0000
0000
2030
0000
0000
3002
0000
0000
2003
0000
0000
3100
0000
0010
0000
,
0002
0000
0103
0010
2000
0000
3001
0000
,
0020
0000
0000
0032
0000
0000
2003
0000
0000
3020
0000
0000
0130
0000
0001
0000
,
1000
0100
1000
0000
0000
0001
0010
0100
,
1100
0000
0101
0000
1000
0010
1000
0001
,
0220
0000
0300
0000
0031
0100
0010
1000
,
1010
0000
0011
0000
0100
0001
0100
0010
,
2002
0000
0000
0000
3000
0100
0103
0000
,
0110
0110
0000
0000
0000
0000
0000
0000
,
0001
0010
0000
0100
1000
0000
0001
1000
,
1001
1001
0000
0000
0000
0000
0000
0010
,
1000
0001
0000
1000
0100
0000
0100
0010
,
0011
0011
0000
0000
0000
0000
0000
0001
,
1000
0010
0000
0100
0001
0000
0010
0100
,
1100
1100
0000
0000
0000
0000
0001
1000
,
0010
1000
0000
1000
0100
1010
1010
0000
,
1001
1001
0000
0002
2000
0000
3003
0000
,
0010
1000
0010
1000
0001
0100
0001
0100
,
0101
0101
0000
1000
0100
1000
0100
0000
,
1000
0001
0000
0001
0100
0000
0010
1000
,
1100
1100
0000
0001
2000
0020
3000
0130
,
0001
0010
0001
0010
0100
1000
0100
1000
,
1010
1010
0000
0001
0010
0001
0010
0000
,
0101
0101
0000
1000
0100
0000
1001
0000
,
0120
0001
1000
0001
,
0200
0000
0330
0000
0001
1000
0001
1000
,
0010
0000
0000
0010
0000
0000
0000
0000
1000
0000
0001
0000
1000
0000
0001
0000
,
0100
0000
0000
0100
0000
0000
0000
0000
0000
0000
0110
0000
0110
0000
0000
0000
,
0102
0010
1000
0100
,
1003
0001
0000
0100
0010
0100
0001
0000
,
1000
0000
0000
1000
0000
0000
0001
0000
0100
0000
0010
0000
0100
0000
0000
0000
,
0002
0000
0000
2003
0000
0000
3200
0000
0000
0000
0000
0000
0000
0000
2300
0000
,
0000
0000
3002
0000
0000
1003
0000
0000
0000
0000
0000
0000
0000
0000
0000
0000
,
0010
1000
0100
0001
,
0010
0010
0000
0000
0000
0000
0000
0000
,
0001
0100
0000
0010
1000
0000
1100
0000
,
0001
0001
0000
0000
0000
0000
0000
0000
,
1000
0010
0100
0000
0001
0010
1000
0000
,
0100
0100
0000
0000
0000
0000
1000
0001
,
1000
0100
0010
0001
0100
0110
0110
0000
,
1001
1001
0000
0020
0200
0000
0330
0000
,
0001
0010
0100
1000
0010
0100
0001
1000
,
0100
0010
0000
0001
1000
0001
1000
0000
,
0010
1000
0000
0001
0100
0000
0100
0010
,
1010
1010
0000
1000
0002
0200
0003
0310
,
0100
0001
0100
0001
1000
0010
1000
0010
,
0101
0101
0000
1000
0001
0000
0010
0100
,
1100
1100
0000
0011
0011
0000
0000
0000
;

//---------------dance-single - ----------------
#NOTES:
     dance-single:
     :
     Hard:
     11:
     :
0000
0000
0000
0000
,
0000
0000
0000
0000
,
0000
0000
0000
0000
,
0000
0000
0000
0000
,
0000
0000
0000
0000
,
0020
0000
0000
0000
0000
0000
0000
0000
0000
2030
0000
0000
0000
0000
0000
0000
0000
0000
3002
0000
0000
0000
0000
0000
0000
0000
0000
2003
0000
0000
0000
0000
0000
0000
0000
0000
3010
0000
0000
0000
0100
0000
0000
0000
0001
0000
0000
0000
,
2000
0000
0000
3100
0010
0001
1000
0010
0100
0001
0000
0000
,
0020
0000
0000
0000
0000
0000
0000
0000
0000
0032
0000
0000
0000
0000
0000
0000
0000
0000
2003
0000
0000
0000
0000
0000
0000
0000
0000
3020
0000
0000
0000
0000
0000
0000
0000
0000
0130
0000
0000
0000
0010
0000
0000
0000
1000
0000
0000
0000
,
0001
0000
0100
0000
0010
0000
1000
0000
0000
0000
0000
0000
0000
0000
0000
0010
0000
0000
0010
0000
0000
0100
0000
0000
,
0001
0000
0010
0000
0102
0000
0000
0000
1003
0001
0000
0001
0010
0000
0100
0000
,
1200
0000
0000
0001
0000
0000
1300
0000
0100
1000
0000
0001
0100
0000
0010
0000
,
1000
0000
0001
0000
0021
0000
0000
0000
0130
0010
0000
0010
0001
0000
1000
0000
,
0120
0000
0000
0001
0000
0000
1000
0000
0000
0000
0100
0000
0130
0010
0100
0000
,
1001
1001
0000
0100
0100
0100
0100
0100
,
1000
1000
0010
0100
0001
0001
0001
1000
,
1100
1100
0000
0100
0100
0100
0100
0100
,
1000
0001
0000
0011
1100
0000
0010
0100
,
0101
0101
0000
0100
0100
0100
0100
0100
,
0010
0010
0010
1000
0001
0001
1000
0100
,
0110
0110
0000
0100
0100
0100
0100
0100
,
1100
0101
0000
0001
0001
0100
1010
0000
,
1001
0000
1001
0000
0010
0000
2000
0000
3002
0000
0000
0000
0103
0010
0100
0010
,
1000
1000
0001
0010
0010
0001
1000
0010
,
0110
0110
0010
2000
3002
0023
0032
0103
,
0001
1000
0010
1010
0101
0000
0010
0100
,
1100
1100
0010
2000
3002
0023
0130
1000
,
0001
0001
0001
0010
0010
0001
1000
0100
,
0011
0011
0001
2000
3020
2030
3200
0310
,
0011
0000
1010
0000
0100
0000
1100
0000
0101
0000
1000
0001
1000
0000
0100
0000
,
0120
0000
0000
0000
0031
0020
0000
0000
0130
2000
0000
0000
3010
2000
0000
0000
,
3002
0000
0003
0100
0010
0010
1000
0001
,
0011
0000
0000
0102
0000
0000
1000
0000
1003
0000
0010
0100
0001
0000
1000
0000
,
1100
0000
0000
0102
0000
0000
0013
0001
0010
0000
1001
0000
1001
0000
0000
0000
,
2010
0000
0000
0000
3100
2000
0000
0000
3001
0020
0000
0000
0031
2000
0000
0000
,
3001
0100
0010
1000
0000
0000
0100
0000
0100
0000
1000
0000
1000
0000
0001
0000
,
0011
0000
0000
1100
0000
0000
0010
0000
1000
0000
0001
0000
1000
0000
0100
0000
,
1100
0000
0000
1010
0000
0002
2000
0000
0000
0000
0000
0003
0000
0000
3020
0000
,
0000
0000
2030
0000
0000
3001
0000
0000
0000
0000
0000
0000
0000
0000
0000
0000
,
0001
0010
0100
1000
0001
0100
0010
1000
,
0100
0010
0000
0000
0000
0000
0000
0001
,
1000
0010
0000
1000
0010
0000
0100
0001
,
1000
0100
0000
0000
0000
0000
0000
1000
,
0010
0100
0010
0100
0001
1000
0001
1000
,
0001
0100
0000
0000
0000
0000
0001
0010
,
0001
0001
1000
1000
1001
0110
1001
0000
,
0101
0000
0101
0000
1000
0000
0020
0000
0230
0000
0000
0000
0301
1000
0001
1000
,
0010
0000
1000
0000
1000
0000
0100
0000
0010
0000
0010
0000
0001
0000
1000
0010
,
0000
0010
1000
0000
0001
0000
0200
0000
0320
0000
2030
0000
3002
0000
0103
0000
,
0010
1000
0100
1100
0011
0000
0001
1000
,
1010
1010
0100
0020
0032
2003
3010
0100
,
0001
0001
0010
0010
0100
0100
1000
1000
,
1001
1001
0010
0110
0110
0100
0001
1000
,
1100
0101
0010
0101
1100
0000
0000
0000
;
