#VERSION:0.83;
#TITLE:TEDDY BEAR;
#SUBTITLE:;
#ARTIST:PAPAYA;
#TITLETRANSLIT:;
#SUBTITLETRANSLIT:;
#ARTISTTRANSLIT:;
#GENRE:;
#ORIGIN:;
#CREDIT:;
#BANNER:TEDDY BEAR.png;
#BACKGROUND:TEDDY BEAR-bg.png;
#PREVIEWVID:;
#JACKET:TEDDY BEAR-jacket.png;
#CDIMAGE:;
#DISCIMAGE:;
#LYRICSPATH:;
#CDTITLE:;
#MUSIC:TEDDY BEAR.ogg;
#OFFSET:0.000000;
#SAMPLESTART:22.600000;
#SAMPLELENGTH:13.908000;
#SELECTABLE:YES;
#DISPLAYBPM:138.000000;
#BPMS:0.000=138.040,
230.000=99.480,
231.000=90.040;
#STOPS:;
#DELAYS:;
#WARPS:;
#TIMESIGNATURES:0.000=4=4;
#TICKCOUNTS:0.000=4;
#COMBOS:0.000=1;
#SPEEDS:0.000=1.000=0.000=0;
#SCROLLS:0.000=1.000;
#FAKES:;
#LABELS:0.000=Song Start;
#BGCHANGES:20.000=TEDDY BEAR.mp4=1.000=0=0=1=====,
99999=-nosongbg-=1.000=0=0=0 // don't automatically add -songbackground-
;
#KEYSOUNDS:;
#ATTACKS:
;

//---------------dance-single - ----------------
#NOTEDATA:;
#CHARTNAME:;
#STEPSTYPE:dance-single;
#DESCRIPTION:;
#CHARTSTYLE:;
#DIFFICULTY:Hard;
#METER:11;
#RADARVALUES:0.448641,0.507451,0.368385,0.000000,0.059863,341.000000,301.000000,40.000000,0.000000,0.000000,0.000000,0.000000,0.000000,0.000000,0.448641,0.507451,0.368385,0.000000,0.059863,341.000000,301.000000,40.000000,0.000000,0.000000,0.000000,0.000000,0.000000,0.000000;
#CREDIT:;
#DISPLAYBPM:138.000000;
#NOTES:
// measure 0
0000
0000
0000
0000
,  // measure 1
0000
0000
0000
0000
,  // measure 2
0000
0000
0000
0000
,  // measure 3
0000
0000
0000
0000
,  // measure 4
0000
0000
0000
0000
,  // measure 5
1000
0100
1000
0010
0000
0100
0000
0100
,  // measure 6
0000
0001
0100
0001
0010
0000
0010
0000
,  // measure 7
0100
1000
0100
0010
0000
0001
0000
0001
,  // measure 8
1000
0000
0100
1000
0000
0000
1001
0000
,  // measure 9
0001
0100
0001
0010
0000
0010
0000
0010
,  // measure 10
0100
0100
1000
1000
0001
0000
1001
0000
,  // measure 11
0010
0100
0010
1000
0000
0001
0000
0001
,  // measure 12
1000
0000
0100
1000
0000
0001
0000
0100
0000
0010
0100
0000
0100
0000
0100
0000
,  // measure 13
0001
0100
0001
0100
0001
0000
1000
0000
0001
0000
0100
0000
0010
0000
0000
0000
,  // measure 14
1000
0100
0010
0000
0001
0100
0010
0000
,  // measure 15
1000
0010
1000
0000
0001
0010
0001
0000
,  // measure 16
1100
0010
0101
0010
,  // measure 17
0100
1000
0100
1000
0100
0000
0010
0000
0001
0000
0100
0000
0010
0000
0000
0000
,  // measure 18
1000
0100
0010
0000
0001
0100
0010
0000
,  // measure 19
0100
0001
1000
0000
0100
1000
0001
0000
,  // measure 20
0101
0010
1100
0010
,  // measure 21
0100
0000
0000
0100
0000
0000
0001
0000
0000
0000
1000
0000
0100
0000
1000
0000
,  // measure 22
0010
0100
0001
1000
0010
0000
0000
0000
,  // measure 23
0100
1000
0010
1000
0100
0000
0000
0000
,  // measure 24
0010
0001
1000
0000
0010
1000
0001
0000
,  // measure 25
0011
0100
1010
0100
,  // measure 26
0010
0001
0100
0001
0010
0000
0000
0000
,  // measure 27
0100
1000
0010
1000
0100
0000
0000
0000
,  // measure 28
0010
0001
1000
0000
0010
1000
0001
0000
,  // measure 29
0101
0010
1100
0010
,  // measure 30
0100
0101
0001
0011
,  // measure 31
0010
1010
0100
1100
,  // measure 32
1000
0100
0001
0000
1000
0100
0010
0000
,  // measure 33
0011
0001
0101
0000
,  // measure 34
1000
1010
0010
0011
,  // measure 35
0001
0101
1100
0000
,  // measure 36
0001
0100
1000
0000
0001
0100
0010
0000
,  // measure 37
0100
1001
0110
1001
,  // measure 38
0001
0010
0001
0010
0001
0000
1000
0000
0010
0000
0100
0000
0001
0000
0000
0000
,  // measure 39
1000
0100
0001
0100
0010
0100
1000
0000
,  // measure 40
0001
0100
0001
0000
1000
0100
1000
0000
,  // measure 41
0010
0101
0010
1100
,  // measure 42
0010
0100
0010
0100
0010
0000
1000
0000
0001
0000
0010
0000
0100
0000
0000
0000
,  // measure 43
1000
0010
0100
0010
1000
0010
0100
0000
,  // measure 44
0001
1000
0100
0000
0010
0100
1000
0000
,  // measure 45
0100
0011
0100
1010
,  // measure 46
0010
1000
0100
1000
0010
0000
0101
0000
,  // measure 47
0010
1100
0010
0101
,  // measure 48
0010
0001
0100
0001
0010
0000
0011
0000
,  // measure 49
1100
1001
0101
0000
,  // measure 50
0010
1000
0100
1000
0010
0000
1010
0000
,  // measure 51
0100
0101
0010
1100
,  // measure 52
0010
0001
0100
0001
0010
0000
0100
0000
,  // measure 53
1100
0011
0101
0000
,  // measure 54
0001
0100
0010
1000
0001
0100
0010
1000
,  // measure 55
0100
0010
0001
1000
0100
0010
0001
1000
,  // measure 56
0010
0100
0001
1000
0100
0010
0001
1000
,  // measure 57
0010
0100
0001
1000
0100
0010
0001
1000
,  // measure 58
0010
0000
0000
0000
;

//---------------dance-single - ----------------
#NOTEDATA:;
#CHARTNAME:;
#STEPSTYPE:dance-single;
#DESCRIPTION:;
#CHARTSTYLE:;
#DIFFICULTY:Medium;
#METER:9;
#RADARVALUES:0.364438,0.427327,0.506530,0.000000,0.000000,277.000000,222.000000,55.000000,0.000000,0.000000,0.000000,0.000000,0.000000,0.000000,0.364438,0.427327,0.506530,0.000000,0.000000,277.000000,222.000000,55.000000,0.000000,0.000000,0.000000,0.000000,0.000000,0.000000;
#CREDIT:;
#DISPLAYBPM:138.000000;
#NOTES:
// measure 0
0000
0000
0000
0000
,  // measure 1
0000
0000
0000
0000
,  // measure 2
0000
0000
0000
0000
,  // measure 3
0000
0000
0000
0000
,  // measure 4
0000
0000
0000
0000
,  // measure 5
0110
0000
1000
0001
0000
0000
0000
0000
,  // measure 6
0000
1000
0100
1000
0010
0000
0010
0000
,  // measure 7
0110
0000
0001
1000
0000
0000
0000
0000
,  // measure 8
0001
0100
1000
0100
,  // measure 9
0110
0000
1000
0001
0000
0000
0000
0000
,  // measure 10
0100
0010
0100
0001
1000
0000
1001
0000
,  // measure 11
0110
0000
0001
1000
0000
0000
0000
0000
,  // measure 12
0011
0000
1100
0000
0001
0100
0010
0000
,  // measure 13
1010
0000
1100
0000
1000
0100
1000
0000
,  // measure 14
0100
0001
0100
0000
0001
0010
0001
0000
,  // measure 15
0010
1000
0001
1000
,  // measure 16
0100
0000
1001
0000
,  // measure 17
0011
0000
0101
0000
0001
0100
0001
0000
,  // measure 18
0100
1000
0100
0000
1000
0010
1000
0000
,  // measure 19
0010
0010
0001
1000
,  // measure 20
0110
0000
1001
0000
,  // measure 21
0000
0000
0000
0000
,  // measure 22
0010
0000
0100
1000
0100
0000
1100
0000
,  // measure 23
0001
0100
0001
0000
0101
0000
0000
0000
,  // measure 24
1000
1000
0001
0001
,  // measure 25
0011
1000
0101
0010
,  // measure 26
0100
0001
0100
0000
0010
0000
0000
0000
,  // measure 27
1000
0100
1000
0000
0010
0000
0000
0000
,  // measure 28
0101
0010
1100
0001
,  // measure 29
0101
1000
1100
0101
,  // measure 30
1000
0100
0010
0010
,  // measure 31
0101
1010
1100
0000
,  // measure 32
0001
0001
1000
1000
,  // measure 33
1010
1001
0101
0000
,  // measure 34
0010
0001
1000
0010
,  // measure 35
0101
0011
1001
0000
,  // measure 36
0010
0010
0100
0100
,  // measure 37
0001
0011
1001
1100
,  // measure 38
0011
0000
0101
0000
0001
0100
0001
0000
,  // measure 39
0100
1000
0100
0000
1000
0010
1000
0000
,  // measure 40
0010
0010
0001
1000
,  // measure 41
0110
0000
1001
0000
,  // measure 42
1010
0000
1100
0000
1000
0100
1000
0000
,  // measure 43
0100
0001
0100
0000
0001
0010
0001
0000
,  // measure 44
0010
0010
0100
0100
,  // measure 45
0110
0000
1001
0000
,  // measure 46
1000
0100
1000
0000
0010
0000
0010
0000
,  // measure 47
0100
0100
0101
1100
,  // measure 48
0010
0001
0010
0000
0100
0000
0100
0000
,  // measure 49
1100
0011
0101
0000
,  // measure 50
0010
1000
0010
0000
0100
0000
0100
0000
,  // measure 51
0101
0011
1001
1100
,  // measure 52
1000
0100
1000
0000
0010
0000
0010
0000
,  // measure 53
0101
1010
1100
0000
,  // measure 54
1000
0000
0100
0010
0000
0100
0010
0001
,  // measure 55
0000
1000
0100
1000
0000
0001
0100
0010
,  // measure 56
0000
0100
0010
0100
0000
0001
1000
0001
,  // measure 57
0000
1000
0100
1000
0010
1000
0100
1000
,  // measure 58
0010
0000
0000
0000
;

//---------------dance-single - ----------------
#NOTEDATA:;
#CHARTNAME:;
#STEPSTYPE:dance-single;
#DESCRIPTION:;
#CHARTSTYLE:;
#DIFFICULTY:Easy;
#METER:6;
#RADARVALUES:0.281552,0.427327,0.377595,0.000000,0.000000,214.000000,173.000000,41.000000,0.000000,0.000000,0.000000,0.000000,0.000000,0.000000,0.281552,0.427327,0.377595,0.000000,0.000000,214.000000,173.000000,41.000000,0.000000,0.000000,0.000000,0.000000,0.000000,0.000000;
#CREDIT:;
#DISPLAYBPM:138.000000;
#NOTES:
// measure 0
0000
0000
0000
0000
,  // measure 1
0000
0000
0000
0000
,  // measure 2
0000
0000
0000
0000
,  // measure 3
0000
0000
0000
0000
,  // measure 4
0000
0000
0000
0000
,  // measure 5
1001
0010
0000
0000
,  // measure 6
0000
0100
0010
0100
,  // measure 7
1001
0010
0000
0000
,  // measure 8
0001
0000
1000
0000
,  // measure 9
0110
0010
0000
0000
,  // measure 10
0100
0100
0010
0010
,  // measure 11
1001
0100
0000
0000
,  // measure 12
0000
0000
0000
0000
,  // measure 13
0010
0010
0100
0100
,  // measure 14
0001
1000
0001
1000
,  // measure 15
0001
0001
1000
1000
,  // measure 16
1100
0000
0011
0000
,  // measure 17
0001
0001
1000
1000
,  // measure 18
0010
0100
0010
1001
,  // measure 19
1000
0100
0001
0100
,  // measure 20
0101
0000
1010
0000
,  // measure 21
0000
0000
0000
0000
,  // measure 22
1000
0100
0001
0000
,  // measure 23
0001
0100
1000
0000
,  // measure 24
0001
0001
1000
1000
,  // measure 25
0010
0100
0001
0100
,  // measure 26
0001
0010
1000
0000
,  // measure 27
1000
0010
0001
0000
,  // measure 28
1000
1000
0001
0001
,  // measure 29
0100
0010
0100
1001
,  // measure 30
0001
0001
1000
1000
,  // measure 31
1010
1100
1100
0000
,  // measure 32
0100
0010
0001
0010
,  // measure 33
0100
1100
0101
0000
,  // measure 34
0010
0100
0001
0100
,  // measure 35
0101
0011
0011
0000
,  // measure 36
0010
0100
1000
0100
,  // measure 37
0010
0010
0010
1001
,  // measure 38
0010
0010
0100
0100
,  // measure 39
0001
1000
0001
1000
,  // measure 40
0010
0010
0100
0100
,  // measure 41
0101
0000
1010
0000
,  // measure 42
1000
1000
0001
0001
,  // measure 43
0010
0100
0010
1001
,  // measure 44
0001
0100
1000
0100
,  // measure 45
0011
0000
1100
0000
,  // measure 46
0001
0100
1000
0100
,  // measure 47
0011
0101
0101
0000
,  // measure 48
1100
1100
0101
0101
,  // measure 49
1100
0011
0101
0000
,  // measure 50
0001
0001
1000
1000
,  // measure 51
0010
0100
0010
1000
,  // measure 52
1100
1100
0101
0101
,  // measure 53
0011
1001
1100
0000
,  // measure 54
0010
0000
0010
0000
,  // measure 55
0001
0000
0001
0000
,  // measure 56
1000
1000
0001
0001
,  // measure 57
0010
0000
0010
0000
0100
0000
1000
0001
,  // measure 58
0010
0000
0000
0000
;
