#TITLE:Planetary (GO!);
#SUBTITLE:;
#ARTIST:My Chemical Romance;
#TITLETRANSLIT:;
#SUBTITLETRANSLIT:;
#ARTISTTRANSLIT:;
#GENRE:;
#CREDIT:;
#BANNER:Planetary GO.png;
#BACKGROUND:Planetary GO-bg.png;
#LYRICSPATH:Planetary GO.lrc;
#CDTITLE:;
#MUSIC:Planetary GO.ogg;
#OFFSET:0.012457;
#SAMPLESTART:94.541512;
#SAMPLELENGTH:16.080000;
#SELECTABLE:YES;
#BPMS:0.000000=132.000000
;
#STOPS:
;
#BGCHANGES:0.000=Planetary GO.avi=1.000=0=0=0=StretchNoLoop====,
99999=-nosongbg-=1.000=0=0=0 // don't automatically add -songbackground-
;
#KEYSOUNDS:;
#ATTACKS:;

//---------------dance-single - ----------------
#NOTES:
     dance-single:
     :
     Hard:
     11:
     0.527398,0.545742,0.417332,0.272871,0.020064,460.000000,408.000000,52.000000,34.000000,0.000000,0.000000,0.527398,0.545742,0.417332,0.272871,0.020064,460.000000,408.000000,52.000000,34.000000,0.000000,0.000000:
0000
0000
0000
0000
,
0000
0000
0000
0000
,
0000
0000
0000
0000
,
0000
0000
0000
0000
,
1000
0010
0200
0000
0302
0000
1003
0100
,
0000
0100
0010
0000
0001
1000
0001
1000
,
0020
0000
0130
0000
0001
1000
0001
1000
,
0200
0000
0310
0000
0001
1000
0010
0100
,
0001
1000
0002
0000
0203
0000
0310
1000
,
0000
1000
0000
0001
0000
1000
0100
1000
,
0200
0000
0310
0000
0001
0100
0001
0100
,
0020
0000
1030
0000
0001
1000
0100
0010
,
0012
0000
1000
0000
0103
0000
0100
0020
,
0000
2030
0000
3002
0000
1003
0100
0000
,
2100
0100
3001
1001
,
0102
0000
0100
0000
1003
0010
1000
0001
,
0010
0001
0200
0000
0320
0000
1030
0002
,
0000
0023
0003
3230
0000
1333
0001
0200
,
0000
0331
1000
0200
0000
0310
0001
1000
,
0010
0100
0010
0000
0100
0000
0010
0000
1000
0001
1000
0000
0010
0000
1001
0000
,
0000
0101
0000
1010
0000
1000
0010
0100
,
0001
0011
0000
0110
0000
0010
0100
1000
,
0001
0101
0000
0110
0000
0100
0010
1000
,
0001
0010
0100
1000
1100
0000
0101
0000
,
1000
1010
0000
0101
0000
0001
0100
0010
,
1000
1100
0000
0110
0000
0100
0010
0001
,
1000
1010
0000
0110
0000
0010
0100
0001
,
1000
0100
0010
0001
0011
0000
1010
0000
,
0001
0100
0010
0100
1000
0100
0001
0010
,
0000
0001
1000
0001
1000
0100
0010
0001
,
0000
1000
0100
0010
0100
0001
0100
0010
,
0000
0010
0100
1000
0010
0000
1002
0000
,
1003
0100
0001
0100
1000
0010
0010
0100
,
0000
0001
0100
1000
0100
0010
0010
1000
,
0000
0001
0010
0100
0010
1000
0010
0001
,
0000
1000
0100
0010
0110
0000
1001
0000
,
1000
1100
0000
0101
0000
0011
0000
1010
,
0000
0001
0100
0001
0100
0010
1000
0001
,
0000
0101
0000
1010
0000
1100
0000
0011
,
0000
1000
0100
0010
0001
0100
0020
0000
,
1030
0001
1000
0010
0100
0010
0010
0100
,
0000
0001
0010
0100
0010
0100
0100
1000
,
0000
1100
0000
0011
0000
0101
0000
1001
,
0000
1000
0100
0010
0001
1000
0010
0100
,
0001
1000
0200
0000
0320
0000
0031
1000
,
0001
1000
0010
0100
0001
0010
0100
0000
,
2100
0000
0000
0000
3100
0000
0000
0000
0010
0000
0001
0000
0100
0000
0000
0300
,
0102
0000
1003
0000
0001
1000
0010
0100
,
0001
0010
0200
0000
2300
0000
3001
0010
,
0001
1000
0010
0100
0000
0001
0100
0101
,
0000
1000
0100
1100
0000
0001
0010
0001
,
1000
0001
1000
0000
0010
0000
0100
0000
0001
1000
0001
0000
0100
0000
0110
0000
,
0000
1001
0001
0100
0010
0100
0001
1000
,
0000
1100
0100
0010
0001
1000
0010
0100
,
0000
0101
0001
1000
0010
0100
0001
1000
,
0000
0001
0010
0100
0110
0000
1002
0000
,
1003
0100
0010
0100
0001
0100
0010
0010
,
0000
0010
0100
0010
1000
0010
0001
1000
,
0000
0001
0100
1000
0100
0001
0010
0100
,
0000
1000
0010
0100
0110
0000
1002
0000
,
0103
0010
0100
0010
1000
1000
0001
0010
,
0100
1000
0010
1000
0001
0001
0010
0100
,
0010
0001
1000
0010
0100
0100
1000
0100
,
0001
0010
0100
1000
1100
0000
0102
0000
,
1003
0010
0100
0001
1000
0001
0010
0010
,
0001
1000
0010
1000
0001
0100
0010
0010
,
0100
0001
0010
0100
0010
0001
1000
1000
,
0010
1000
0100
0010
0110
0000
2002
0000
,
3003
0000
0000
0000
;

//---------------dance-single - ----------------
#NOTES:
     dance-single:
     :
     Challenge:
     12:
     0.474658,0.491168,0.377204,0.256820,0.016051,414.000000,367.000000,47.000000,32.000000,260.000000,0.000000,0.474658,0.491168,0.377204,0.256820,0.016051,414.000000,367.000000,47.000000,32.000000,260.000000,0.000000:
// measure 0
0000
0000
0000
0000
,  // measure 1
0000
0000
0000
0000
,  // measure 2
0000
0000
0000
0000
,  // measure 3
0000
0000
0000
0000
,  // measure 4
0001
0100
0020
0000
2030
0000
3001
0010
,  // measure 5
MMMM
0010
0100
0000
1000
0100
1000
0100
,  // measure 6
MMMM
0000
0031
0000
1000
0010
1000
0010
,  // measure 7
MMMM
0000
0301
0000
1000
0100
0001
0100
,  // measure 8
1000
0010
0200
0000
0302
0000
1003
0100
,  // measure 9
MMMM
0100
MMMM
0002
0000
1003
0010
1000
,  // measure 10
MMMM
0000
1300
0000
0001
0100
0001
0100
,  // measure 11
MMMM
0000
1030
0000
0001
0010
0100
1000
,  // measure 12
2100
0000
0100
0000
3001
0000
1000
0010
,  // measure 13
MMMM
0002
0000
2003
0000
3100
0010
0000
,  // measure 14
1002
0100
0103
MMMM
,  // measure 15
2010
0000
0001
0000
3001
0010
1000
0010
,  // measure 16
0001
0100
0020
0000
2030
0000
3001
0010
,  // measure 17
MMMM
2000
0000
3002
0000
1003
0010
MMMM
,  // measure 18
0000
0001
0010
MMMM
0000
1000
0001
MMMM
,  // measure 19
0001
0100
0001
0000
1000
0000
0100
0000
1000
0001
1000
0000
0001
0000
0100
0000
,  // measure 20
MMMM
0101
MMMM
0101
0000
0100
0010
1000
,  // measure 21
MMMM
1100
MMMM
1100
0000
0100
0010
0001
,  // measure 22
MMMM
0011
MMMM
0011
0000
0010
0001
1000
,  // measure 23
MMMM
1001
0000
1000
0010
0000
2032
0000
,  // measure 24
3003
1010
MMMM
1010
0000
0010
0100
0001
,  // measure 25
MMMM
0101
MMMM
0101
0000
0001
0010
0100
,  // measure 26
MMMM
1100
MMMM
1100
0000
0100
1000
0001
,  // measure 27
MMMM
1001
0000
0001
0100
0000
2302
0000
,  // measure 28
3033
1000
0100
1000
0001
1000
0010
MMMM
,  // measure 29
0000
0001
0100
0001
1000
0001
0010
MMMM
,  // measure 30
0000
1000
0100
0001
0100
1000
0010
0200
,  // measure 31
0000
0320
0000
1030
0001
0000
MMMM
0000
,  // measure 32
0000
0001
0100
0001
0010
0100
0010
MMMM
,  // measure 33
0000
1000
0010
1000
0100
0010
0100
MMMM
,  // measure 34
0000
0001
0010
1000
0010
0001
0100
MMMM
,  // measure 35
0000
1000
0001
0100
0110
0000
1001
0000
,  // measure 36
1000
1100
MMMM
1100
MMMM
0101
MMMM
0101
,  // measure 37
MMMM
1000
0100
0010
0001
0010
0100
1000
,  // measure 38
0000
1010
MMMM
1010
MMMM
0101
MMMM
0101
,  // measure 39
MMMM
1000
0001
0100
0020
0000
0230
0000
,  // measure 40
0301
0100
1000
0100
0010
1000
1000
MMMM
,  // measure 41
0000
1000
0100
1000
0010
0100
0001
0001
,  // measure 42
MMMM
1001
MMMM
0110
MMMM
1001
MMMM
0110
,  // measure 43
MMMM
1000
0100
0010
0001
1000
0001
1000
,  // measure 44
0020
0000
0100
0000
0130
0000
0001
0100
,  // measure 45
MMMM
2000
0000
3002
0000
0013
0100
0010
,  // measure 46
0200
0000
1300
0000
1000
0010
0100
MMMM
,  // measure 47
0102
0000
1003
0000
0001
0100
1000
0100
,  // measure 48
0001
0010
0200
0000
2300
0000
3001
0100
,  // measure 49
0010
0100
MMMM
2000
0000
3001
0010
MMMM
,  // measure 50
0000
1000
0010
MMMM
0000
0001
1000
MMMM
,  // measure 51
1000
0010
1000
0000
0001
0000
0010
0000
0001
1000
0001
0000
1000
0000
0010
0000
,  // measure 52
MMMM
1010
MMMM
1000
0010
1000
0100
0010
,  // measure 53
0001
0011
MMMM
0001
0010
0100
0010
0001
,  // measure 54
1000
1010
MMMM
1000
0010
1000
0001
0010
,  // measure 55
0100
1000
0010
0100
0110
0000
1001
0000
,  // measure 56
0001
0101
MMMM
0001
0100
0001
0010
0100
,  // measure 57
1000
1100
MMMM
1000
0100
0010
0100
1000
,  // measure 58
0001
0100
MMMM
1000
0100
0010
0001
1000
,  // measure 59
0001
0100
0010
1000
1010
0000
1001
0000
,  // measure 60
0001
0100
1000
0100
0001
0010
0100
1000
,  // measure 61
MMMM
1000
0001
0100
0010
1000
0001
0010
,  // measure 62
MMMM
0010
0001
1000
0010
1000
0001
0100
,  // measure 63
MMMM
0100
0001
1000
1100
0000
1001
0000
,  // measure 64
1000
0010
0001
0010
1000
0100
0010
0001
,  // measure 65
MMMM
0001
1000
0010
0100
0001
1000
0100
,  // measure 66
MMMM
0100
1000
0001
0100
0001
1000
0010
,  // measure 67
MMMM
0010
1000
0001
0101
0000
2002
0000
,  // measure 68
3003
0000
0000
0000
;

//---------------dance-double - ----------------
#NOTES:
     dance-double:
     :
     Challenge:
     12:
     0.476951,0.518455,0.409307,0.224717,0.016051,416.000000,365.000000,51.000000,28.000000,532.000000,0.000000,0.476951,0.518455,0.409307,0.224717,0.016051,416.000000,365.000000,51.000000,28.000000,532.000000,0.000000:
00000000
00000000
00000000
00000000
,
00000000
00000000
00000000
00000000
,
00000000
00000000
00000000
00000000
,
00000000
00000000
00000000
00000000
,
10000000
00100000
02000000
00000000
03020000
00000000
10030000
01000000
,
MMMMMMMM
01000000
00100000
00000000
00001000
00010000
00001000
00010000
,
MMMMMMMM
00000000
00001000
00000000
00000001
00000100
00000001
00000100
,
MMMMMMMM
00000000
00001000
00000000
00000100
00000010
00000001
00001000
,
00000001
00000100
00000020
00000000
00002030
00000000
00003100
00010000
,
0000MMMM
00001000
MMMM0000
00020000
0000MMMM
00130000
10030000
00100000
,
MMMM0000
00000000
00010000
00000000
10000000
01000000
10000000
01000000
,
MMMMMMMM
00000000
00010000
00000000
01000000
00100000
00010000
00001000
,
00100000
00010000
00100000
00000000
00102000
00000000
00013000
00000100
,
MMMMMMMM
00000002
00000000
00002003
00000000
00003010
00000100
MMMMMMMM
,
00002001
00000000
00003100
00000000
00010000
00001000
00100000
MMMMMMMM
,
00021000
00000000
30030100
00000000
00001000
00000100
00000001
00000100
,
00010000
00010000
00002000
00000000
00203000
00000000
00310000
01000000
,
MMMMMMMM
20000000
00300000
30320000
00000000
13030000
01000000
MMMMMMMM
,
00000000
01000000
00010000
MMMMMMMM
00000000
00001000
00000100
00000010
,
00000001
00001000
00000001
00000000
00000100
00000000
00000010
00000000
00001000
00000001
00001000
00000000
00000010
00000000
00000110
00000000
,
MMMMMMMM
00001001
MMMMMMMM
00001001
MMMMMMMM
00001000
00000100
00010000
,
MMMMMMMM
00010100
MMMMMMMM
00010100
00000000
00010000
00001000
00100000
,
MMMMMMMM
00101000
MMMMMMMM
00101000
00000000
00100000
00010000
01000000
,
MMMMMMMM
01010000
00000000
10000000
00100000
00000000
10010000
00000000
,
00010000
01010000
MMMMMMMM
10010000
MMMMMMMM
00010000
00100000
00001000
,
MMMMMMMM
00101000
MMMMMMMM
00011000
00000000
00001000
00010000
00000100
,
MMMMMMMM
00010100
MMMMMMMM
00001100
00000000
00000100
00001000
00000010
,
MMMMMMMM
00001010
00000000
00000001
00000100
00000000
00001001
00000000
,
MMMMMMMM
00000001
00000100
00001000
00000100
00000001
00001000
MMMMMMMM
,
00000000
00010000
00001000
00010000
00001000
00100000
00010000
MMMMMMMM
,
00000000
00010000
01000000
10000000
01000000
00010000
00100000
02000000
,
00000000
13000000
00000000
00010000
10010000
00000000
MMMMMMMM
00000000
,
00010000
10000000
00100000
00010000
00100000
10000000
00010000
MMMMMMMM
,
00000000
00001000
00010000
00001000
00010000
00000100
00001000
MMMMMMMM
,
00000000
00001000
00000010
00000001
00000010
00001000
00000100
00000020
,
00000000
00000031
00000100
00000010
00001001
00000000
MMMMMMMM
00000000
,
00000000
00001100
MMMM0000
00110000
0000MMMM
00001010
MMMM0000
01010000
,
0000MMMM
10000000
01000000
10000000
01000000
00100000
00010000
MMMMMMMM
,
00000000
00110000
0000MMMM
00001100
MMMM0000
01010000
0000MMMM
00001010
,
MMMM0000
00000001
00000010
00000100
00001000
00000000
00001001
00000000
,
MMMMMMMM
00001000
00000100
00001000
00000100
00010000
00010000
MMMMMMMM
,
00000000
00010000
00001000
00010000
00001000
01000000
01000000
MMMMMMMM
,
00000000
10010000
MMMM0000
00011000
0000MMMM
00001001
MMMM0000
00011000
,
0000MMMM
10000000
01000000
00100000
00002000
00000000
00023000
00000000
,
00030100
00000010
00000012
00000000
00000203
00000000
00000310
00001000
,
MMMMMMMM
00020000
00000000
00032000
00000000
00103000
01000000
10000000
,
21000000
00000000
30010000
00000000
10000000
00100000
MMMM0000
00000000
,
10020000
00000000
01030000
00000000
00010000
10000000
00010000
00100000
,
00301000
00010000
MMMMMMMM
00000000
00001002
30000000
00001303
00000010
,
MMMMMMMM
00000002
00000000
00002003
00000000
00003001
00000010
MMMMMMMM
,
00000000
00001000
00000100
MMMMMMMM
00000000
00010000
00100000
01000000
,
10000000
00010000
10000000
00000000
00100000
00000000
01000000
00000000
00010000
10000000
00010000
00000000
01000000
00000000
00100000
00000000
,
MMMMMMMM
10010000
10000000
00100000
01000000
00010000
00100000
00001000
,
MMMMMMMM
00101000
00100000
00001000
00010000
00000100
00001000
00000010
,
MMMMMMMM
00001010
00000010
00000100
00000001
00000010
00000100
00001000
,
MMMMMMMM
00001000
00000100
00000010
00000110
00000000
00001001
00000000
,
MMMMMMMM
00000101
00000001
00000100
00000010
00001000
00000100
00010000
,
MMMMMMMM
00010100
00000100
00010000
00001000
00100000
00010000
01000000
,
MMMMMMMM
01010000
01000000
00100000
10000000
01000000
00100000
00010000
,
MMMMMMMM
00010000
00100000
01000000
00100000
MMMMMMMM
10010000
00000000
,
10000000
01000000
10000000
01000000
00010000
01000000
00100000
MMMMMMMM
,
01000000
00001000
01000000
00001000
00010000
00000100
00000010
MMMMMMMM
,
00001000
00000010
00001000
00000010
00000100
00000001
00001000
MMMMMMMM
,
00010000
00000100
00000010
00000001
00000100
MMMMMMMM
00001001
00000000
,
00000001
00000010
00000001
00000010
00001000
00000010
00000100
MMMMMMMM
,
00000010
00010000
00000010
00010000
00001000
00100000
01000000
MMMMMMMM
,
00010000
01000000
00010000
01000000
00100000
10000000
00010000
MMMMMMMM
,
00001000
00100000
00010000
00100000
00101000
MMMM0000
00020100
0000MMMM
,
00030000
00000000
00000000
00000000
;

//---------------dance-double - ----------------
#NOTES:
     dance-double:
     :
     Hard:
     11:
     0.525105,0.545742,0.449435,0.489563,0.016051,458.000000,402.000000,56.000000,61.000000,0.000000,0.000000,0.525105,0.545742,0.449435,0.489563,0.016051,458.000000,402.000000,56.000000,61.000000,0.000000,0.000000:
00000000
00000000
00000000
00000000
,
00000000
00000000
00000000
00000000
,
00000000
00000000
00000000
00000000
,
00000000
00000000
00000000
00000000
,
00010000
00001000
00020000
00000000
00030200
00000000
00001300
00000010
,
00000000
00000010
00000200
00000000
00000301
00000010
00001000
00000010
,
00000002
00000000
00000103
00000000
00000001
00001000
00000010
00001000
,
00000200
00000000
00010300
00000000
00010000
00001000
00100000
00001000
,
00010000
00100000
20000000
00000000
30020000
00000000
01030000
00200000
,
00000000
02300000
00000000
03010000
10300000
01000000
00010000
01000000
,
20000000
00000000
30100000
00000000
10000000
00010000
01000000
00010000
,
00200000
00000000
00301000
00000000
00001000
00010000
00100000
00010000
,
00001000
00000100
00000020
00000000
00002030
00000000
00003001
00000010
,
00000100
00000020
00000000
00000230
00000000
00010300
00001000
00000000
,
00012000
00100000
00103000
00110000
,
01002000
00000000
00010000
00000000
00013000
00000100
00000010
00000001
,
00000100
00000010
00002000
00000000
00003020
00000000
00000130
00000001
,
00000010
00000200
00000000
00002330
00000000
00003100
00010000
00002000
,
00000000
00103000
00001000
00020000
00000000
00030010
00010000
00001000
,
00100000
01000000
00100000
00000000
00010000
00000000
10000000
00000000
00010000
10000000
00010000
00000000
01000000
00000000
01010000
00000000
,
00000000
10100000
00000000
01020000
00000000
10030000
01000000
00010000
,
00000000
00011000
00000000
00102000
00000000
00103000
00001000
00010000
,
00000000
00010100
00000000
00001020
00000000
00001030
00000001
00000100
,
00000000
00000110
00000000
00001000
00001010
00000000
00001002
00000000
,
00000103
00000101
00000000
00002010
00000000
00003001
00000010
00001000
,
00000000
00011000
00000000
00020100
00000000
00030100
00010000
00001000
,
00000000
00101000
00000000
02010000
00000000
03010000
10000000
00100000
,
00000000
01100000
00000000
00010000
01010000
00000000
20010000
00000000
,
30100000
01000000
10000000
01000000
00010000
00100000
00100000
00002000
,
00000000
00013000
00000100
00010000
00000100
00000010
00000001
00000200
,
00000000
00000301
00000010
00001000
00000010
00000010
00000001
00000200
,
00000000
00000320
00000000
00001030
00001010
00000000
00000102
00000000
,
00001003
00000100
00000001
00000100
00001000
00000010
00000100
00002000
,
00000000
00013000
00100000
00010000
00100000
10000000
00010000
00200000
,
00000000
01300000
10000000
01000000
00010000
01000000
10000000
00200000
,
00000000
01300000
00010000
00100000
00110000
00000000
00102000
00000000
,
00013000
00010100
00000000
00101000
00000000
00010010
00000000
01002000
,
00000000
00013000
00000100
00010000
00000100
00000010
00000010
00000001
,
00000000
00000011
00000000
00001100
00000000
00001010
00000000
00000101
,
00000000
00000100
00000010
00010000
00002000
00000000
00203000
00000000
,
00310000
10000000
00010000
10000000
00100000
00100000
01000000
00010000
,
00100000
00001000
00100000
00001000
00010000
00010000
00000100
00001000
,
00000000
00001001
00000000
00011000
00000000
10010000
00000000
00011000
,
00000000
10000000
01000000
00100000
00010000
01000000
00100000
01000000
,
00100000
10000000
12000000
00000000
03200000
00000000
00301000
00010000
,
00100000
00010000
00001000
00200000
00000000
00310000
00001000
00000000
,
00001200
00000000
00000310
00000000
00000010
00000001
00000100
00000000
,
00000201
00000000
00000310
00000000
00000100
00000010
00001000
00000100
,
00000001
00000100
00020000
00000000
00032000
00000000
00103000
00010000
,
01000000
00200000
00000000
00320000
00000000
00031000
00100000
00002000
,
00000000
01033000
00100000
00020000
00000000
00031000
00000010
00000001
,
00001000
00000001
00001000
00000000
00000010
00000000
00000100
00000000
00000001
00001000
00000001
00000000
00000100
00000000
00000101
00000000
,
00000000
00001100
00001000
00000001
00000010
00000100
00010000
00001000
,
00000000
00011000
00001000
00100000
00010000
01000000
00100000
10000000
,
00000000
10100000
00100000
01000000
00010000
00100000
00001000
00010000
,
00000000
00011000
00010000
00100000
01100000
00000000
10020000
00000000
,
10030000
12000000
00000000
03100000
00010000
01000000
00100000
00010000
,
00001000
00012000
00000000
00013000
00000100
00000010
00000001
00000100
,
00000010
00001000
00001000
00000001
00000001
00001000
00000100
00000010
,
00000001
00000100
00001000
00010000
00011000
00000000
00010200
00000000
,
00000310
00000001
00000010
00000001
00000100
00001000
00000100
00000010
,
00010000
00001000
00100000
00010000
01000000
01000000
00100000
00100000
,
10000000
01000000
10000000
00010000
10000000
00100000
00010000
00100000
,
01000000
00010000
00100000
00001000
00101000
00000000
20010000
00000000
,
30310000
10000000
01000000
10000000
00100000
00010000
00100000
01000000
,
00001000
00010000
00000100
00001000
00000010
00000010
00000100
00000001
,
00000010
00001000
00000010
00001000
00010000
00100000
01000000
00100000
,
00010000
00001000
00100000
00010000
00101000
00000000
00020200
00000000
,
00033300
00000000
00000000
00000000
;

//---------------dance-single - ----------------
#NOTES:
     dance-single:
     :
     Medium:
     9:
     0.351981,0.409307,0.208666,0.304973,0.000000,307.000000,281.000000,26.000000,38.000000,0.000000,0.000000,0.351981,0.409307,0.208666,0.304973,0.000000,307.000000,281.000000,26.000000,38.000000,0.000000,0.000000:
0000
0000
0000
0000
,
0000
0000
0000
0000
,
0000
0000
0000
0000
,
0000
0000
0000
0000
,
0001
1000
0010
0100
,
0010
0000
0010
0000
1000
0000
0001
0100
,
0001
0000
1000
0000
0001
0000
1000
0100
,
1000
0000
0001
0000
1000
0000
0001
0100
,
0010
1000
0100
0010
,
0001
0000
0001
0000
1000
0000
0001
0010
,
0001
0000
1000
0000
0001
0000
1000
0010
,
1000
0000
0001
0000
1000
0000
0010
1000
,
0200
0010
0310
0000
,
0020
0001
0031
0000
,
2001
0100
3100
0000
,
1002
0100
0103
0000
,
0001
0100
0020
0000
1030
0000
0000
0000
,
2000
0001
3001
0000
,
1000
0100
0010
0001
,
1000
0001
1000
0001
0100
0000
1001
0000
,
0000
0001
0000
1000
0000
0001
0100
0010
,
0000
1000
0000
0001
0000
1000
0100
0010
,
0000
0100
0000
0100
0000
1000
0100
1000
,
0000
0001
0000
1000
0020
0000
0230
0000
,
0300
0010
0000
0010
0000
1000
0010
0100
,
0000
0001
0000
1000
0000
0001
0010
0100
,
0000
0010
0000
0010
0000
0001
0010
0001
,
0000
1000
0000
0001
0200
0000
0320
0000
,
0030
0000
1000
0000
0001
0000
0100
0100
,
0000
0000
0001
0000
1000
0000
0100
0100
,
0000
0000
1000
0000
0001
0000
0010
0010
,
0000
0100
0000
1000
0002
0000
2003
0000
,
3000
0000
0001
0000
0100
0000
0010
0010
,
0000
0000
1000
0000
0001
0000
0100
0100
,
0000
0000
0001
0000
0010
0000
0100
0100
,
0000
1000
0002
2003
,
3000
1010
0000
1010
0000
0101
0000
0101
,
0000
1000
0200
0000
0320
0000
0031
0000
,
0000
0011
0000
0011
0000
1010
0000
1010
,
0000
0001
0200
0000
0320
0000
1030
0000
,
0000
0000
0001
0000
1000
0100
1000
0100
,
0000
0000
1000
0000
0001
0100
0001
0100
,
0000
0010
0000
0110
0000
0110
0000
1001
,
0000
0000
1000
0001
0200
0000
0320
0000
,
2030
0100
3100
0000
,
0020
0001
0031
0000
,
2001
0010
3010
0000
,
1002
0100
0103
0000
,
0001
0100
0020
0000
2030
0000
3000
0000
,
0001
1000
0100
1000
,
0010
0100
0010
0000
0100
0010
0100
0000
,
0001
1000
0001
1000
0001
0000
1001
0000
,
1010
0000
1000
0000
0001
0100
0010
0100
,
0010
0000
1000
0000
0100
0010
0100
0000
,
1000
0000
0100
0000
0010
0001
0010
0001
,
0100
0010
0110
1002
,
0103
0000
0010
0000
1000
0100
1000
0000
,
0100
0000
0010
0000
0001
0100
0001
0100
,
0010
0000
1000
0000
0001
1000
0001
0000
,
0010
0100
0110
1002
,
0203
0000
0010
0320
0000
0000
1030
0000
,
0001
0100
0001
0000
1000
0100
1000
0000
,
0002
0000
0010
0023
0000
0000
0130
0000
,
1000
0100
0010
0000
0011
0000
1100
0000
,
0002
0000
0100
0203
0000
0000
0310
0000
,
1000
0010
0100
0000
0001
0010
0100
0000
,
2000
0000
0100
3200
0000
0000
0310
0000
,
0001
1000
0010
0000
0110
0000
2002
0000
,
3003
0000
0000
0000
;

//---------------dance-single - ----------------
#NOTES:
     dance-single:
     :
     Easy:
     5:
     0.217838,0.300158,0.104333,0.216692,0.000000,190.000000,177.000000,13.000000,27.000000,0.000000,0.000000,0.217838,0.300158,0.104333,0.216692,0.000000,190.000000,177.000000,13.000000,27.000000,0.000000,0.000000:
0000
0000
0000
0000
,
0000
0000
0000
0000
,
0000
0000
0000
0000
,
0000
0000
0000
0000
,
1000
0000
0001
0000
,
0100
0000
0100
0000
,
0010
0000
0000
0000
,
0010
0000
0000
0000
,
1000
0000
1000
0000
,
0001
0000
0010
0000
,
0100
0000
0000
0000
,
0100
0000
0000
0000
,
2000
3000
1000
0000
,
0002
0003
0001
0000
,
0200
0300
0000
0100
,
0020
0030
0000
0010
,
0020
0030
0100
0000
,
0002
0003
1000
0000
,
0001
0000
0010
0000
,
0100
0100
0010
0110
,
1001
0000
1000
0001
,
0100
0000
0001
0100
,
0010
0000
1000
0100
,
0010
0000
0100
0100
,
1000
0000
0100
1000
,
0010
0000
1000
0010
,
0100
0000
0001
1000
,
0100
0000
0010
0010
,
0002
0003
0001
1000
,
2000
3000
1000
0010
,
0020
0030
0010
0000
,
1000
0010
0100
0100
,
0002
0003
0001
0010
,
0200
0300
0100
1000
,
0020
0030
1000
0000
,
0010
0010
0100
0100
,
0001
0000
1000
0000
,
0001
0010
0100
0100
,
1000
0000
0001
0000
,
1000
0010
0100
0100
,
0001
0000
0001
0000
,
1000
0000
1000
0000
,
0100
0010
0100
0010
,
0001
1000
0001
0000
,
2000
3000
1000
0010
,
0200
0300
0100
0001
,
2000
3000
0000
0001
,
0002
0003
0000
0001
,
0020
0030
0010
0100
,
2000
3000
0001
1000
,
0010
0010
0100
0100
,
0001
1000
0110
1001
,
0000
1000
0010
0010
,
0000
1000
0100
0100
,
0000
1000
0001
1000
,
0010
0100
0110
1001
,
0000
0001
0010
0010
,
0000
0001
0100
0100
,
0000
0001
1000
0001
,
0010
0010
0110
1001
,
2000
3000
0100
0010
,
0002
0003
0100
0010
,
2000
3000
0010
0100
,
0001
1000
0110
0110
,
2002
3003
0001
1000
,
0200
0300
1000
0100
,
0020
0030
0001
1000
,
0010
0010
0110
2002
,
3003
0000
0000
0000
;

//---------------dance-single - ----------------
#NOTES:
     dance-single:
     :
     Beginner:
     2:
     0.097454,0.135934,0.032102,0.000000,0.000000,85.000000,81.000000,4.000000,0.000000,0.000000,0.000000,0.097454,0.135934,0.032102,0.000000,0.000000,85.000000,81.000000,4.000000,0.000000,0.000000,0.000000:
0000
0000
0000
0000
,
0000
0000
0000
0000
,
0000
0000
0000
0000
,
0000
0000
0000
0000
,
1000
0000
0000
0000
,
0001
0000
0000
0000
,
0100
0000
0000
0000
,
0100
0000
0000
0000
,
0010
0000
0000
0000
,
1000
0000
0000
0000
,
0001
0000
0000
0000
,
0001
0000
0000
0000
,
0010
0000
0010
0000
,
0010
0000
0000
0000
,
0010
0000
0000
0000
,
0100
0000
0000
0000
,
1000
0000
1000
0000
,
1000
0000
0000
0000
,
0001
0000
0001
0000
,
0001
0000
0000
0000
,
1001
0000
0000
0000
,
1000
0000
0000
0000
,
0010
0000
0010
0000
,
0010
0000
0000
0000
,
0100
0000
0000
0000
,
0100
0000
0000
0000
,
0001
0000
0001
0000
,
0001
0000
0000
0000
,
1000
0000
0000
0000
,
0001
0000
0000
0000
,
0100
0000
0000
0000
,
0010
0000
0010
0000
,
0010
0000
0000
0000
,
1000
0000
0000
0000
,
0001
0000
0000
0000
,
0100
0000
0100
0000
,
0100
0000
0000
0000
,
0010
0000
0000
0000
,
1000
1000
0000
0000
,
1000
0000
0000
0000
,
0100
0000
0000
0000
,
0010
0000
0000
0000
,
0001
0001
0000
0000
,
0001
0000
0000
0000
,
1001
0000
0000
0000
,
1000
0000
0000
0000
,
0010
0000
0000
0000
,
0100
0000
0000
0000
,
0001
0000
0001
0000
,
0001
0000
0000
0000
,
1000
0000
1000
0000
,
1000
0000
0000
0000
,
1001
0000
0000
0000
,
0001
0000
0000
0000
,
0100
0000
0100
0000
,
0100
0000
0000
0000
,
0010
0000
0000
0010
,
0010
0000
0000
0000
,
1000
0000
1000
0000
,
1000
0000
0000
0000
,
1001
0000
0000
0000
,
0001
0000
0000
0000
,
0100
0000
0100
0000
,
0100
0000
0000
0000
,
0010
0000
0000
0000
,
1000
0000
0000
0000
,
0001
0000
0000
0000
,
0100
0000
0100
0100
;

//---------------dance-double - ----------------
#NOTES:
     dance-double:
     :
     Medium:
     9:
     0.378351,0.436594,0.200640,0.272871,0.000000,330.000000,305.000000,25.000000,34.000000,0.000000,0.000000,0.378351,0.436594,0.200640,0.272871,0.000000,330.000000,305.000000,25.000000,34.000000,0.000000,0.000000:
00000000
00000000
00000000
00000000
,
00000000
00000000
00000000
00000000
,
00000000
00000000
00000000
00000000
,
00000000
00000000
00000000
00000000
,
00001000
00100000
00010000
01000000
,
00100000
00000000
00100000
00000000
10000000
00100000
10000000
00100000
,
02000000
00000000
03000000
00000000
00010000
00100000
00010000
00100000
,
00002000
00003000
00010000
00000100
,
00001000
00001000
00000010
00000100
,
00000001
00000000
00001000
00000000
00000001
00000100
00000001
00000100
,
00000020
00000000
00000030
00000000
00001000
00000100
00001000
00000100
,
00020000
00000000
00030000
00000000
00001000
00000000
00100000
00010000
,
02000000
03200000
20300000
30000000
,
00020000
00230000
00302000
00003000
,
00020100
00001000
00031000
00000000
,
00102000
00010000
00013000
00000000
,
00010000
00000100
00002000
00000000
00003002
00000000
00000103
00000010
,
00000000
00000010
00000000
00001000
00000000
00000001
00000100
00000001
,
00000000
00001000
00000100
00001000
00000000
00000100
00010000
00000100
,
00000000
00010000
00001000
00010000
00001000
00000000
00011000
00000000
,
00000000
00101000
00000000
00100000
00000000
00010000
01000000
00001000
,
00000000
00010000
00000000
00010000
00000000
00001000
00100000
00010000
,
00000000
10000000
00000000
00100000
00000000
01000000
00010000
01000000
,
00000000
00010000
00000000
00100000
00002000
00000000
00023000
00000000
,
00030000
00010100
00000000
00000100
00000000
00001000
00000010
00010000
,
00000000
00001000
00000000
00001000
00000000
00010000
00000100
00001000
,
00000000
00000001
00000000
00000100
00000000
00000010
00001000
00000010
,
00000000
00001000
00000000
00000100
00020000
00000000
00032000
00000000
,
00103000
00000000
01000000
00000000
10000000
00100000
01000000
00000000
,
00010000
00000000
00100000
00000000
00001000
00010000
00000100
00000000
,
00001000
00000000
00000010
00000000
00000100
00000010
00001000
00000000
,
00000001
00000001
00001100
00000101
,
00030001
00000000
00001000
00000000
00000001
00000100
00000010
00000000
,
00001000
00000000
00000100
00000000
00010000
00001000
00100000
00000000
,
00010000
00000000
01000000
00000000
00100000
01000000
00010000
00000000
,
10000000
10000000
00110000
10100000
,
00000000
10000000
00000000
01000000
00000000
00010000
00000000
00001000
,
00000000
00000000
00010000
00000000
00000100
00000010
00000100
00000010
,
00000000
00000001
00000000
00000100
00000000
00001000
00000000
00010000
,
00000000
00001000
00101000
00020200
,
00030300
00000000
00010000
00000000
00001000
00100000
00010000
00100000
,
00001000
00000000
00100000
00000000
00001000
00010000
00000010
00010000
,
00000000
00011000
00000000
00011000
00000000
00101000
00000000
00010200
,
00000000
00000310
00000001
00001000
00000002
00000000
00000203
00000000
,
00000310
00001000
00000002
00000000
00002003
00000000
00003100
00010000
,
00000000
00010000
00000000
00001000
00000000
00001000
00200000
00000000
,
02300000
10000000
13000000
00000000
,
20100000
00010000
30010000
00000000
,
10000000
00100000
02000000
00000000
03010000
00000000
00100000
00000000
,
00001000
00010000
00000000
00010000
00000000
00000100
00001000
00000100
,
00000000
00010000
00001000
00010000
00000000
00001000
00100000
00001000
,
00000000
00010000
00001000
00010000
00001000
00000000
00011000
00000000
,
00010000
00000000
00000100
00000000
00001000
00000010
00000100
00000010
,
00001000
00000000
00000001
00000000
00000010
00000001
00000100
00000001
,
00000010
00000000
00000100
00000000
00001000
00000100
00010000
00000100
,
00001000
00000000
00000100
00000000
00001100
00000000
00021000
00300000
,
00031000
00000000
00100000
00000000
00010000
01000000
00100000
01000000
,
00010000
00000000
10000000
00000000
01000000
10000000
00100000
10000000
,
01000000
00000000
00100000
00000000
00010000
00100000
00001000
00100000
,
00010000
00100000
00110000
00012000
,
00013000
00000100
00000000
00000100
00000010
00000000
00000001
00000000
,
00001000
00000010
00000000
00000010
00000100
00000000
00001000
00000000
,
00010000
00001000
00000000
00001000
00100000
00000000
00010000
00000000
,
01000000
00100000
00010000
00000000
00011000
00000000
00021000
00000000
,
00031000
00100000
00000000
00100000
01000000
00000000
10000000
00000000
,
00010000
01000000
00000000
01000000
00100000
00000000
00010000
00000000
,
00001000
00010000
00000000
00010000
00000100
00000000
00001000
00000000
,
00000010
00000100
00001000
00000000
00101000
00000000
00020200
00300000
,
00030300
00000000
00000000
00000000
;

//---------------dance-double - ----------------
#NOTES:
     dance-double:
     :
     Easy:
     6:
     0.248794,0.300158,0.128410,0.168538,0.000000,217.000000,201.000000,16.000000,21.000000,0.000000,0.000000,0.248794,0.300158,0.128410,0.168538,0.000000,217.000000,201.000000,16.000000,21.000000,0.000000,0.000000:
00000000
00000000
00000000
00000000
,
00000000
00000000
00000000
00000000
,
00000000
00000000
00000000
00000000
,
00000000
00000000
00000000
00000000
,
00010000
00001000
00010000
00000000
,
00000100
00000000
00000010
00000001
,
00000010
00000000
00000001
00000100
,
00000001
00000000
00001000
00000100
,
00010000
00010000
00001000
00000000
,
00100000
00000000
00010000
00100000
,
00010000
00000000
10000000
00100000
,
10000000
00000000
00100000
01000000
,
00002000
00003000
00001000
00000000
,
00020000
00030000
00010000
00000000
,
00000200
00000300
00000000
00000010
,
00000002
00000003
00000000
00000100
,
00000020
00000030
00000010
00000000
,
00002000
00003000
00001000
00000000
,
00000100
00000100
00010000
00010000
,
00001000
00100000
00001000
00011000
,
00000000
00100000
00000000
00100000
00000000
00010000
00000000
00000000
,
00000000
10000000
00000000
10000000
00000000
00100000
00000000
00000000
,
00000000
01000000
00000000
01000000
00000000
00001000
00000000
00000000
,
00000000
00010000
00000000
00000000
00011000
00000000
00011000
00000000
,
00000000
00010000
00000000
00010000
00000000
00000100
00000000
00000000
,
00000000
00000100
00000000
00000100
00000000
00000010
00000000
00000000
,
00000000
00000001
00000000
00000001
00000000
00000100
00000000
00000000
,
00000000
00000010
00000000
00000000
00001001
00000000
00001001
00000000
,
00000000
00000000
00000001
00000000
00000100
00000000
00000010
00000010
,
00000000
00000000
00001000
00000000
00000100
00000000
00010000
00010000
,
00000000
00000000
00001000
00000000
00100000
00000000
00010000
00010000
,
00000000
10000000
01100000
10010000
,
00000000
00000000
10000000
00000000
01000000
00000000
00100000
00100000
,
00000000
00000000
00001000
00000000
00010000
00000000
00001000
00001000
,
00000000
00000000
00010000
00000000
00000100
00000000
00001000
00001000
,
00000000
00000010
00000110
00001001
,
00000000
00000001
00000000
00000100
00000000
00000001
00000000
00000100
,
00000000
00000010
00001000
00000100
,
00000000
00010000
00000000
00001000
00000000
00010000
00000000
00001000
,
00000000
00100000
00010000
01000000
,
00000000
00000000
00010000
00000000
01000000
00000000
00100000
00100000
,
00000000
00000000
10000000
00000000
01000000
00000000
00100000
00100000
,
00000000
00001000
00000000
00001000
00000000
00010000
00000000
00010000
,
00000000
00001000
00010000
00000100
,
00000020
00000001
00000031
00000000
,
00000002
00000100
00000103
00000000
,
00002001
00000100
00003100
00000000
,
00000100
00010000
00001000
00100000
,
00020000
01000000
01030000
00000000
,
00200000
10000000
10300000
00000000
,
00010000
00010000
00100000
00100000
,
00001000
00010000
00011000
00011000
,
00000000
00010000
00000100
00000010
,
00000000
00000010
00000001
00000100
,
00000000
00000100
00000010
00001000
,
00000000
00000100
00010000
00010000
,
00000000
00001000
00100000
00010000
,
00000000
00100000
00010000
01000000
,
00000000
00100000
10000000
00000000
,
00010000
00100000
00001000
00001000
,
00020000
00030000
00000100
00000010
,
00000002
00000003
00000100
00000000
,
00000020
00000030
00001000
00000100
,
00020000
00030000
00011000
00011000
,
00002000
00003000
00100000
00010000
,
02000000
03000000
00100000
10000000
,
00020000
00030000
00100000
00001000
,
00020000
00030000
00011000
00022000
,
00033000
00000000
00000000
00000000
;
