#TITLE:ピザが食べたくてしょうがない皆さんの気持ちを代弁しました;
#SUBTITLE:;
#ARTIST:コバヤシユウヤ(IOSYS) feat. miko;
#TITLETRANSLIT:Pizza ga tabetakute shouganai minasan no kimochi wo daiben shimashita;
#SUBTITLETRANSLIT:;
#ARTISTTRANSLIT:Yuya Kobayashi(IOSYS) feat. miko;
#GENRE:;
#CREDIT:;
#MUSIC:Pizza ga tabetakute shouganai minasan no kimochi wo daiben shimashita.ogg;
#BANNER:Pizza ga tabetakute shouganai minasan no kimochi wo daiben shimashita.png;
#BACKGROUND:Pizza ga tabetakute shouganai minasan no kimochi wo daiben shimashita-bg.png;
#CDTITLE:;
#SAMPLESTART:43.478;
#SAMPLELENGTH:15.000;
#SELECTABLE:YES;
#OFFSET:-0.001;
#BPMS:0.000=160.000;
#STOPS:;
#BGCHANGES:;
#FGCHANGES:;

//--------------- dance-single - forcednature ----------------
#NOTES:
     dance-single:
     forcednature:
     Beginner:
     3:
     0,0,0,0,0:
0000
0000
0000
0000
,
0000
0000
0000
0000
,
0000
0000
0000
0000
,
0000
0000
0000
0000
,
0000
0000
0000
0000
,
1000
0000
0000
0000
,
0001
0000
0000
0000
,
0100
0000
0000
0000
,
0010
0000
0000
0000
,
1000
0000
0000
0000
,
0001
0000
0000
0000
,
0010
0000
0000
0000
,
0100
0000
0000
0000
,
1001
0000
0000
0000
,
0000
0000
1000
0000
,
0001
0000
0000
0000
,
0000
0000
0001
0000
,
1000
0000
0000
0000
,
0010
0000
0010
0000
,
1000
0000
0000
0000
0000
0000
0000
1001
,
0000
0000
0000
0000
,
0001
0000
0001
0000
,
0001
0000
0000
0000
,
1000
0000
1000
0000
,
1000
0000
0000
0000
,
0010
0000
0010
0000
,
0010
0000
0000
0000
,
0100
0000
0010
0000
,
0200
0000
0000
0300
,
0001
0000
1000
0000
,
0001
0000
1000
0000
,
0100
0000
0000
0000
,
0010
0000
0000
0000
,
0001
0000
1000
0000
,
0001
0000
1000
0000
,
0010
0000
0000
0000
,
0100
0000
0010
0000
,
1000
0000
0001
0000
,
1000
0000
0001
0000
,
0010
0000
0000
0000
,
0100
0000
0000
0000
,
1000
0000
0001
0000
,
1000
0000
0001
0000
,
0100
0000
0100
0000
0000
0000
0000
0020
,
0000
0000
0030
0000
,
1001
0000
0000
0000
,
1000
0000
0001
0000
,
0100
0000
0000
0000
,
0010
0000
0000
0000
,
1001
0000
0000
0000
,
0001
0000
1000
0000
,
0100
0000
0000
0000
0000
0000
0000
2002
,
0000
0000
3003
0000
,
0001
0000
1000
0000
,
0001
0000
1000
0000
,
0010
0000
0000
0000
,
0100
0000
0000
0000
,
0001
0000
1000
0000
,
0001
0000
1000
0000
,
0100
0000
0000
0000
,
0010
0000
0100
0000
,
1000
0000
1001
0000
,
1000
0000
1001
0000
,
0001
0000
0000
0000
,
0100
0000
0100
0000
,
0001
0000
1001
0000
,
0001
0000
1001
0000
,
1000
0000
0000
0000
0100
0000
0000
0020
,
0000
0000
0030
0000
,
0001
0000
0000
0000
,
1000
0000
0000
0000
,
0010
0000
0000
0000
,
1000
0000
0100
0000
,
1000
0000
0000
0000
,
0001
0000
0000
0000
,
0010
0000
0000
0000
,
0001
0000
0100
0000
,
0000
2002
0000
0000
,
0000
0000
0000
0000
0000
0000
0000
3000
,
0003
0000
0000
0000
;

//--------------- dance-single - forcednature ----------------
#NOTES:
     dance-single:
     forcednature:
     Easy:
     6:
     0,0,0,0,0:
0000
0000
0000
0000
,
0000
0000
0000
0000
,
0000
0000
0000
0000
,
0000
0000
0000
0000
,
0000
0000
0000
0000
,
1000
0100
1000
0000
,
0001
0100
0001
0000
,
0010
0100
0010
0000
,
0001
1000
0010
0100
,
0001
0010
0001
0000
,
1000
0010
1000
0000
,
0100
0010
0100
0000
,
1000
0001
0100
0010
,
0000
0110
0000
0001
,
0000
1000
0100
1000
,
0000
0010
0000
0100
,
0000
0001
1000
0001
,
0000
0010
0100
0100
,
0000
1000
1001
0000
,
0001
0000
0000
1000
0000
0000
2002
0000
,
0000
3003
0100
0000
,
0001
0001
1000
1000
,
0001
1000
0002
0003
,
1000
1000
0001
0001
,
1000
0001
2000
3000
,
0100
0100
0010
0010
,
0100
0010
0200
0300
,
1001
0001
0001
1000
,
1000
0010
0200
0300
,
0001
1000
2002
3003
,
1000
0001
2002
3003
,
0001
0100
0010
1000
,
0001
0020
0000
0030
,
0100
0010
0220
0330
,
0010
0100
0220
0330
,
0010
0000
0000
2002
0000
3003
0001
0000
,
1000
0010
0200
0300
,
0001
0100
2002
3003
,
1000
0100
2002
3003
,
1000
0010
0100
0001
,
1000
0200
0000
0300
,
1000
0010
0220
0330
,
0001
0010
0220
0330
,
0100
0000
0000
2002
0000
3003
0000
0220
,
0000
0000
0330
0000
,
1001
0000
0001
0100
,
0010
1000
0001
0010
,
0200
0300
1000
0001
,
0100
0020
0000
0030
,
1000
0001
1000
0100
,
0010
0010
0001
0001
,
0100
0000
0000
0010
0000
0000
0000
2002
,
0000
0000
0000
3003
,
1000
1000
0002
0003
,
1000
1000
0002
0003
,
1000
0010
1000
0000
,
0002
0000
0000
0003
,
0001
0001
0100
0001
,
1000
1000
0100
1000
,
0010
0000
0000
0220
0000
0000
0330
0000
,
1000
0001
0200
0300
,
0001
0100
0202
0303
,
1000
0010
2020
3030
,
0001
0010
0100
1000
,
0001
0200
0000
0300
,
0001
0010
0022
0033
,
1000
0100
2200
3300
,
0010
0000
0000
2002
0000
3003
0000
0220
,
0000
0000
0330
0000
,
0001
0100
0010
1000
,
0001
0010
0100
1000
,
0001
0100
0010
1000
,
0000
0001
1000
0001
,
1000
0100
0010
0001
,
1000
0010
0100
0001
,
1000
0100
0010
0001
,
0000
0100
0010
1000
,
0000
2002
0000
0000
,
0000
0000
0000
0000
0000
0000
0000
3000
,
0003
0000
0000
0000
;

//--------------- dance-single - forcednature ----------------
#NOTES:
     dance-single:
     forcednature:
     Medium:
     10:
     0,0,0,0,0:
0000
0000
0000
0000
,
0000
0000
0000
0000
,
0000
0000
0000
0000
,
0000
0000
0000
0000
,
0000
0000
0000
0000
,
1001
0000
0001
0100
0010
1000
0001
0000
,
0010
0000
0100
1000
0010
1000
0001
0000
,
0010
0000
0100
1000
0001
0100
0010
0000
,
0000
0000
1000
0000
0000
0100
0000
0000
0010
0000
0000
0001
0000
0000
0100
0000
,
0010
0000
1000
0001
0010
0001
0100
0000
,
0010
0000
1000
0100
0010
0100
1000
0000
,
0001
0000
0100
0010
0100
0001
0010
0000
,
0100
1000
1000
0000
0001
0100
0010
0000
,
1001
0000
1100
0000
0000
0001
0010
0002
,
0000
0000
1003
0010
0000
0100
0001
0100
,
0020
0000
0000
0030
0000
1000
0001
2000
,
0000
0000
3200
0000
0310
0001
0010
0001
,
0000
0000
1000
0000
0010
0000
0000
0000
0100
0000
0000
0100
0000
0000
0001
0000
,
0000
0000
1000
0000
0100
0000
0000
0000
0110
0000
0000
1000
0000
0000
0001
0000
,
0100
0000
0010
0001
0000
0010
1000
0002
,
0000
0000
0000
0000
0003
0000
0000
0000
0001
0000
0000
1000
0000
0000
0000
0000
,
1100
1010
1100
1010
,
1001
0110
2002
3003
,
0101
0011
0101
0011
,
0110
1001
0220
0330
,
1100
0011
0101
1010
,
1001
0110
1001
0010
,
1001
0000
1000
0100
1000
0000
0001
0100
,
0001
0010
0100
1000
0001
1000
0010
0000
,
1000
0000
0100
0000
1000
0000
0000
0000
0001
0000
0000
0011
0000
0000
0000
0000
,
0001
0000
0100
0000
0001
0000
0000
0000
1000
0000
0000
1010
0000
0000
0000
0000
,
0001
0100
0001
0000
1000
0100
1000
0000
,
0010
0100
0001
2000
0000
0000
3000
0000
,
0001
0000
0010
0000
0001
0000
0000
0000
1000
0000
0000
1100
0000
0000
0000
0000
,
1000
0000
0010
0000
1000
0000
0000
0000
0001
0000
0000
0101
0000
0000
0000
0000
,
1001
0000
0000
0220
0000
0330
0001
1000
,
0000
0010
0010
0000
0100
0001
1000
0000
,
0001
0000
0010
0000
0100
0000
0000
0000
1000
0000
0000
1100
0000
0000
0000
0000
,
1000
0000
0010
0000
0100
0000
0000
0000
0001
0000
0000
0101
0000
0000
0000
0000
,
1000
0010
1000
0000
0001
0010
0001
0000
,
0100
0100
0010
0020
0000
0000
0030
0000
,
1000
0000
0001
0000
0100
0000
0000
0000
0010
0000
0000
1010
0000
0000
0000
0000
,
0001
0000
1000
0000
0100
0000
0000
0000
0010
0000
0000
0011
0000
0000
0000
0000
,
1001
0000
0110
0000
0001
0100
0010
2000
,
0000
0000
3000
0000
,
0001
0000
0100
0000
0001
0000
0000
0000
1000
0000
0000
0100
0000
0000
0010
0000
,
0002
0203
2300
3200
,
0320
0000
0030
1000
0001
0010
0001
0100
,
0010
1000
0100
0020
0000
0000
0030
0001
,
1000
0000
0001
0000
0100
0000
0000
0000
0010
0000
0000
1000
0000
0000
0001
0000
,
1000
0100
1000
0100
0010
0001
0010
0001
,
0200
0000
0300
0010
0000
1000
1000
0002
,
0000
0000
0000
2000
0000
0000
3003
0000
,
1000
0000
0000
0000
1000
0000
0000
0000
0001
0000
0000
1000
0000
0000
0000
0000
,
0001
0000
0000
0000
0001
0000
0000
0000
1000
0000
0000
0001
0000
0000
0000
0000
,
0100
0010
1000
0001
,
0010
0100
0010
0200
0000
0000
0300
0000
,
1000
0000
0000
0000
0100
0000
0000
0000
1000
0000
0000
0010
0000
0000
1000
0000
,
0001
0000
0000
0000
0100
0000
0000
0000
0001
0000
0000
0010
0000
0000
0001
0000
,
0100
0000
0000
0220
0000
0330
0001
1000
,
0000
0010
0010
0000
0100
0001
1000
0000
,
0001
0000
1000
0000
0100
0000
1000
0000
0010
0000
0000
0100
0000
0000
0001
0000
,
1000
0000
0001
0000
0100
0000
0001
0000
0010
0000
0000
0100
0000
0000
0000
0000
,
1000
0010
0100
0000
0001
0010
0100
0000
,
1000
0001
0100
0020
0000
0000
0030
0000
,
1000
0000
0100
0000
0001
0000
0100
0000
0010
0000
0000
0001
0000
0000
1000
0000
,
0001
0000
0100
0000
1000
0000
0100
0000
0010
0000
0000
1000
0000
0000
0001
0000
,
0010
0000
1001
0000
0001
0100
1000
0200
,
0000
0000
0300
0000
,
0010
1000
0001
1000
0100
1000
0001
0000
,
0010
0001
1000
0001
0100
0001
1000
0000
,
0010
1000
0001
0010
0001
1000
0010
0000
,
0000
0000
0100
0000
0000
0001
0000
0000
1000
0000
0000
0100
0000
0000
0010
0000
,
0001
0100
0010
1000
0001
0100
0010
0000
,
1000
0100
0010
0001
1000
0100
0010
0000
,
0001
1000
0010
0100
0001
1000
0100
0000
,
0010
0001
0001
0000
0100
0010
1000
0001
,
0000
2002
0000
0000
,
0000
0000
0000
0000
0000
0000
0000
3000
,
0003
0000
0000
0000
;

//--------------- dance-single - forcednature ----------------
#NOTES:
     dance-single:
     forcednature:
     Hard:
     13:
     0,0,0,0,0:
0000
0000
0000
0000
,
0000
0000
0000
0000
,
0000
0000
0000
0000
,
0000
0000
0000
0000
,
0000
0000
0000
0000
,
0001
0000
0100
0000
0010
0000
0000
1000
0000
0001
0000
1000
0100
0000
0000
0000
,
0010
0000
0001
0000
0100
0000
0000
0010
0000
1000
0000
0001
0010
0000
0000
0000
,
0100
0000
1000
0000
0001
0000
0000
0100
0000
0001
0000
1000
0100
0000
0000
0000
,
0010
0000
0001
0000
1000
0010
0000
1000
0010
0000
0100
0001
0000
0100
0001
0000
,
1000
0000
0001
0000
0010
0000
0000
0001
0000
1000
0000
0010
0100
0000
0000
0000
,
0001
0000
1000
0000
0100
0000
0000
0010
0000
0001
0000
0010
0100
0000
0000
0000
,
1000
0000
0001
0000
0100
0000
0000
0010
0000
1000
0000
0001
1000
0000
0000
0000
,
0100
0000
0010
0000
0110
0000
0000
0001
1000
0000
0010
0000
0010
0000
1000
0000
,
0100
0100
0020
0000
0030
0001
1000
0100
,
0000
0010
0001
0100
0010
0001
0010
1000
,
0100
0100
0010
0000
0000
0100
1000
0001
,
0000
0100
0010
0000
1000
0001
0010
0100
,
1000
0000
0010
0000
1000
0000
0100
0000
0001
0000
0000
0100
0000
0000
0110
0000
,
0000
0000
0001
0000
1000
0000
0000
0000
0101
0000
0000
1010
0000
0000
1000
0000
,
0001
0100
1000
0001
0010
1000
0001
0020
,
0000
0000
0100
0000
0130
0000
0000
0000
1000
0000
0000
1000
0000
0000
0001
0000
,
1000
0100
0010
0100
0001
0100
0010
0100
,
1000
0001
0010
0001
0200
0000
0300
0100
,
0001
0100
0010
0100
1000
0100
0010
0100
,
0001
1000
0010
1000
0200
0000
0300
0000
,
1000
0100
0010
0001
1000
0010
0001
0010
,
1000
0100
0001
0100
2000
0000
3010
0000
,
1001
0000
0001
0100
0010
1000
0001
0010
,
0100
0000
1000
0000
0010
0000
0100
0000
0001
1000
0001
1000
0200
0000
0000
0000
,
1300
0000
0010
0000
0100
0000
0001
0000
0010
0000
0000
0110
0000
0000
0100
0000
,
1000
0000
0001
0000
0100
0000
0010
0000
1000
0000
0000
1001
0000
0000
0000
0000
,
0001
0000
0100
0000
0001
0000
0010
0100
0000
0100
1000
0000
0010
0000
0100
0000
,
0001
0010
1000
0020
0000
0001
0031
0000
,
0001
0000
0100
0000
0010
0000
1000
0000
0001
0000
0000
1010
0000
0000
0001
0000
,
1000
0000
0100
0000
0010
0000
0001
0000
0100
0000
0000
0011
0000
0000
0001
0000
,
1000
0001
0100
0020
0000
0130
1000
0100
,
0001
0000
0010
0000
0011
0000
0000
0100
1000
0000
0010
1000
0010
0000
0100
0000
,
0001
0000
1000
0000
0100
0000
0001
0000
0100
0000
0000
1010
0000
0000
0001
0000
,
1000
0000
0001
0000
0100
0000
1000
0000
0100
0000
0000
0011
0000
0000
0000
0000
,
0001
0000
0100
0000
0010
0000
1000
0001
0000
0001
0010
0000
0100
0000
1000
0000
,
0001
0100
1000
0200
0000
0010
0310
0000
,
0001
0000
1000
0000
0010
0000
0001
0000
0010
0000
0000
0101
0000
0000
0001
0000
,
1000
0000
0001
0000
0010
0000
1000
0000
0010
0000
0000
1100
0000
0000
0001
0000
,
1000
0000
0010
0000
1000
0000
0001
0010
0001
0000
0100
0000
0010
0000
2002
0000
,
0000
0000
3003
0000
,
1000
0000
0100
0000
0010
0001
0010
0000
0100
0000
1000
0001
0000
0001
0100
0000
,
0010
1000
0000
0000
1000
0100
0000
0000
0100
0010
0000
0000
0010
0001
0010
0001
,
2000
0000
3000
0010
0100
1000
0100
0001
,
1000
0000
0100
0000
0010
0000
0002
0000
0100
0000
0103
0000
0001
0000
1000
0001
,
1000
0001
0100
0000
0010
0000
1000
0000
0001
0000
1000
0100
0000
0100
0010
0000
,
0001
0100
1000
0100
0001
0010
1000
0010
,
0002
0000
0000
0000
0103
0000
0001
0000
1000
0100
1000
0100
0010
0000
0002
0000
,
0000
0000
0000
2000
0000
0000
3003
0000
,
1000
0000
0000
0000
0001
0000
0000
0000
0100
0000
0000
0100
0000
0000
0000
0000
,
0001
0000
0000
0000
1000
0000
0000
0000
0100
0000
0000
0100
0000
0000
0000
0000
,
0010
0001
0100
0010
,
1000
0001
0100
0002
0000
0000
0003
0000
,
1000
0000
0100
0000
1000
0000
0010
0000
1000
0000
0000
0001
0000
0000
1000
0000
,
0001
0000
0100
0000
0001
0000
0010
0000
0001
0000
0000
1000
0000
0000
0001
0000
,
0020
0000
0000
0200
0000
0330
1000
0001
,
0000
0000
0100
0000
0100
0000
0000
0010
1000
0000
0001
0010
0001
0000
0100
0000
,
0010
0000
1000
0000
0001
0000
0010
0000
0110
0000
0000
1001
0000
0000
0001
0000
,
0010
0000
0001
0000
1000
0000
0010
0000
0110
0000
0000
1001
0000
0000
0000
0000
,
0001
0000
0010
0000
0100
0000
1000
0010
0000
0010
0100
0000
0001
0000
0010
0000
,
0001
0100
1000
0200
0000
0010
0310
0000
,
0100
0000
0001
0000
0010
0000
0100
0000
1100
0000
0000
0011
0000
0000
1000
0000
,
0100
0000
1000
0000
0010
0000
0100
0000
0101
0000
0000
1010
0000
0000
0001
0000
,
0100
0000
0010
0000
0100
0000
0001
1000
0001
0000
0010
0000
0100
0000
2002
0000
,
0000
0000
3003
0000
,
0001
0000
0100
0000
0010
1000
0000
0001
0000
1000
0000
0100
0010
0001
0000
0000
,
1000
0000
0001
0000
0010
0001
0000
1000
0000
0010
0000
1000
0001
0100
0000
0000
,
0010
0000
1000
0000
0100
0010
0000
0100
0000
1000
0000
0001
0010
0100
0000
0000
,
1000
0000
0010
0000
0100
0001
0000
0001
1000
0000
1000
0100
0000
0100
0010
0000
,
0001
0000
0010
0000
0100
1000
0000
0010
0000
0100
0000
0001
0010
0100
0000
0000
,
1000
0000
0001
0000
0100
0001
0000
0010
0000
0100
0000
0010
0001
0100
0000
0000
,
0010
0000
1000
0000
0001
0010
0000
0100
0000
1000
0000
0010
0100
0001
0000
0000
,
0010
0000
0100
0000
1001
0000
0000
0001
0100
0000
0010
1000
0010
1000
0001
0000
,
0000
2002
0000
0000
,
0000
0000
0000
0000
0000
0000
0000
3000
,
0003
0000
0000
0000
;

//--------------- dance-double - forcednature ----------------
#NOTES:
     dance-double:
     forcednature:
     Easy:
     6:
     0,0,0,0,0:
00000000
00000000
00000000
00000000
,
00000000
00000000
00000000
00000000
,
00000000
00000000
00000000
00000000
,
00000000
00000000
00000000
00000000
,
00000000
00000000
00000000
00000000
,
00011000
00000000
00010000
00000100
,
00001000
00000000
00000010
00010000
,
00001000
00000000
00100000
00010000
,
01000000
00000000
01000000
00000000
,
01100000
00000000
00100000
10000000
,
00010000
00000000
00100000
00001000
,
00010000
00000000
00000100
00001000
,
00000010
00000000
00000100
00000000
,
00000110
00000000
00000010
00000000
,
00001000
00000001
00000010
00000000
,
00000100
00000000
00001000
00000000
,
00000010
00010000
00001000
00000000
,
00100000
00010000
01000000
00000000
,
00100000
10000000
01000000
00000000
,
10000000
00000000
00000000
00010000
00000000
00000000
20020000
00000000
,
00000000
30030000
00000000
00000000
,
10000000
01000000
10000000
01000000
,
00100000
00010000
00100000
00000000
,
00001000
00010000
00001000
00010000
,
00000010
00001000
00000010
00000000
,
00000100
00000001
00000100
00000001
,
00001000
00000100
00001000
00000000
,
00001001
00000000
00000001
00000000
,
00000100
00000100
00000100
00000000
,
00001000
00010000
00022000
00033000
,
00010000
00001000
00022000
00033000
,
00000100
00000000
00001000
00000000
,
00000010
00000000
00000000
00000000
,
00010000
00001000
00022000
00033000
,
00001000
00010000
00022000
00033000
,
01000000
00010000
01000000
00000000
,
00010000
00010000
00100000
00000000
,
00001000
00010000
00022000
00033000
,
00010000
00001000
00022000
00033000
,
00000100
00001000
00000100
00000000
,
00001000
00000010
00000000
00000000
,
00010000
00001000
00022000
00033000
,
00001000
00010000
00022000
00033000
,
01000000
00000000
00000000
01100000
00000000
00000000
00000000
20020000
,
00000000
00000000
30030000
00000000
,
10000000
00000000
01000000
00100000
,
00010000
00000000
01000000
00000000
,
00001000
00000000
00010000
00000100
,
00001000
00000000
00000001
00000000
,
00001001
00000000
00000001
00000100
,
00000010
00000000
00001000
00000000
,
00000100
00000000
00000000
00000000
00000010
00000000
00000000
00000220
,
00000000
00000000
00000000
00000330
,
00001000
00001000
00001000
00000000
,
00000001
00000001
00000001
00000000
,
00000100
00000000
00000010
00000000
,
00001000
00000000
00000000
00000000
,
00010000
00010000
00010000
00000000
,
01000000
01000000
01000000
00000000
,
02200000
00000000
03300000
00000000
,
10000000
00010000
01000000
00000000
,
00001000
00010000
00022000
00033000
,
00010000
00001000
00022000
00033000
,
00000100
00001000
00000100
00000000
,
00010000
00010000
00000000
00000000
,
00001000
00010000
00022000
00033000
,
00010000
00001000
00022000
00033000
,
01000000
00000000
00000000
01100000
00000000
00000000
00000000
20020000
,
00000000
00000000
30030000
00000000
,
10000000
01000000
10000000
00000000
,
00010000
01000000
00010000
00000000
,
00100000
00001000
00100000
00000000
,
00001000
00000000
00010000
00000000
,
00000010
00001000
00000010
00000000
,
00000100
00000001
00000100
00000000
,
00000010
00000100
00000010
00000000
,
00001000
00000100
00010000
00000100
,
00000000
00022000
00000000
00000000
,
00000000
00000000
00000000
00000000
00000000
00000000
00000000
00030000
,
00003000
00000000
00000000
00000000
;

//--------------- dance-double - forcednature ----------------
#NOTES:
     dance-double:
     forcednature:
     Medium:
     10:
     0,0,0,0,0:
00000000
00000000
00000000
00000000
,
00000000
00000000
00000000
00000000
,
00000000
00000000
00000000
00000000
,
00000000
00000000
00000000
00000000
,
00000000
00000000
00000000
00000000
,
00011000
00000000
00010000
00000000
00001000
01000000
00010000
00000000
,
00100000
00000000
00001000
00000000
00010000
00000010
00001000
00000000
,
00000100
00000000
00000010
00000000
00000001
00001000
00000010
00000000
,
00000000
00000000
00001000
00000000
00000000
00000100
00000000
00000000
00010000
00000000
00000000
00001000
00000000
00000000
00100000
00000000
,
00010000
00000000
01000000
00000000
00100000
10000000
00010000
00000000
,
00100000
00000000
01000000
00000000
00010000
00001000
00010000
00000000
,
00000100
00000000
00001000
00000000
00000010
00000100
00000001
00000000
,
00000010
00000100
00000100
00000000
00001000
00000010
00010000
00000000
,
00011000
00000000
01001000
00000000
00000000
01000000
00010000
02000000
,
00000000
00000000
03100000
10000000
00000000
00010000
10000000
00010000
,
00200000
00000000
00000000
00300000
00000000
00001000
00010000
00002000
,
00000000
00000000
02003000
00000000
03001000
00010000
00001000
00010000
,
00000000
00000000
00000100
00000000
00001000
00000000
00000000
00000000
00000010
00000000
00000000
00000010
00000000
00000000
00010000
00000000
,
00000000
00000000
00001000
00000000
00000010
00000000
00000000
00000000
00000110
00000000
00000000
00001000
00000000
00000000
00000001
00000000
,
00000100
00000000
00000010
00010000
00000000
00001000
01000000
00002000
,
00000000
00000000
00000000
00000000
00003000
00000000
00000000
00000000
00010000
00000000
00000000
00001000
00000000
00000000
00000000
00000000
,
01001000
00101000
01001000
00101000
,
01001000
00101000
00022000
00033000
,
00010100
00010010
00010100
00010010
,
00010100
00010010
00022000
00033000
,
01001000
00010100
01001000
00010100
,
00101000
00010010
00022000
00033000
,
01000000
00010000
01000000
00000000
00001000
00010000
00001000
00000000
,
00010000
00000100
00010000
00000100
00001000
00000001
00000010
00000000
,
00000100
00000000
00001000
00000000
00000100
00000000
00000000
00000000
00010000
00000000
00000000
00011000
00000000
00000000
00000000
00000000
,
01000000
00000000
00010000
00000000
01000000
00000000
00000000
00000000
00001000
00000000
00000000
00011000
00000000
00000000
00000000
00000000
,
00000010
00001000
00000010
00000000
00010000
00001000
00010000
00000000
,
00000100
00001000
00000100
00020000
00000000
00000000
00030000
00000000
,
00000010
00000000
00001000
00000000
00000010
00000000
00000000
00000000
00010000
00000000
00000000
00011000
00000000
00000000
00000000
00000000
,
00100000
00000000
00010000
00000000
00100000
00000000
00000000
00000000
00001000
00000000
00000000
00011000
00000000
00000000
00000000
00000000
,
01001000
00000000
00000000
02020000
00000000
03030000
10000000
00010000
,
00000000
00100000
00100000
00000000
00001000
00010000
00001000
00000000
,
01000000
00000000
00010000
00000000
00100000
00000000
00000000
00000000
00001000
00000000
00000000
00011000
00000000
00000000
00000000
00000000
,
00000100
00000000
00001000
00000000
00000010
00000000
00000000
00000000
00010000
00000000
00000000
00011000
00000000
00000000
00000000
00000000
,
00000100
00001000
00000100
00000000
00010000
00001000
00010000
00000000
,
00001000
00100000
00001000
02000000
00000000
00000000
03000000
00000000
,
00001000
00000000
01000000
00000000
00010000
00000000
00000000
00000000
00100000
00000000
00000000
00011000
00000000
00000000
00000000
00000000
,
00010000
00000000
00000100
00000000
00001000
00000000
00000000
00000000
00000010
00000000
00000000
00011000
00000000
00000000
00000000
00000000
,
01001000
00000000
00011000
00000000
00010000
00000100
00001000
00000200
,
00000000
00000000
00000300
00000000
,
00000010
00000000
00000001
00000000
00000010
00000000
00000000
00000000
00000100
00000000
00000000
00010000
00000000
00000000
00001000
00000000
,
00200000
00320000
02030000
03020000
,
20030000
00000000
30000000
10000000
01000000
00100000
00010000
00100000
,
00001000
00010000
00000010
00020000
00000000
00000000
00030000
00010000
,
00000100
00000000
00001000
00000000
00000100
00000000
00000000
00000000
00000010
00000000
00000000
00000001
00000000
00000000
00001000
00000000
,
00000001
00000100
00000001
00001000
00000010
00010000
00001000
01000000
,
00002000
00000000
00003000
00010000
00000000
00100000
00100000
20000000
,
00000000
00000000
00000000
00020000
00000000
00000000
30030000
00000000
,
00001000
00000000
00000000
00000000
00001000
00000000
00000000
00000000
01000000
00000000
00000000
00001000
00000000
00000000
00000000
00000000
,
00010000
00000000
00000000
00000000
00010000
00000000
00000000
00000000
00000100
00000000
00000000
00010000
00000000
00000000
00000000
00000000
,
00001000
00100000
00010000
01000000
,
00001000
00010000
00001000
00020000
00000000
00000000
00030000
00000000
,
00000100
00000000
00000000
00000000
00001000
00000000
00000000
00000000
00000010
00000000
00000000
00010000
00000000
00000000
00001000
00000000
,
01000000
00000000
00000000
00000000
00010000
00000000
00000000
00000000
00100000
00000000
00000000
00001000
00000000
00000000
00010000
00000000
,
00000100
00000000
00000000
00000220
00000000
00000330
00000010
00000001
,
00000000
00000100
00000100
00000000
00001000
00010000
00001000
00000000
,
01000000
00000000
00010000
00000000
00100000
00000000
00001000
00000000
00010000
00000000
00000000
00000010
00000000
00000000
00001000
00000000
,
00000100
00000000
00001000
00000000
00000010
00000000
00010000
00000000
00001000
00000000
00000000
00100000
00000000
00000000
00000000
00000000
,
00010000
01000000
00001000
00000000
00010000
00000100
00001000
00000000
,
00000010
00010000
00001000
00020000
00000000
00000000
00030000
00000000
,
00100000
00000000
01000000
00000000
00010000
00000000
01000000
00000000
00001000
00000000
00000000
00010000
00000000
00000000
00000100
00000000
,
00000010
00000000
00000100
00000000
00001000
00000000
00000100
00000000
00010000
00000000
00000000
00001000
00000000
00000000
01000000
00000000
,
00010000
00000000
10010000
00000000
10000000
01000000
00100000
00020000
,
00000000
00000000
00030000
00000000
,
00010000
01000000
00001000
00010000
00000100
00001000
00000100
00000000
,
00000010
00000001
00001000
00000001
00000100
00000001
00001000
00000000
,
00000010
00001000
00000010
00010000
00001000
01000000
00010000
00000000
,
00000000
00000000
00100000
00000000
00000000
01000000
00000000
00000000
10000000
00000000
00000000
01000000
00000000
00000000
00010000
00000000
,
00001000
00100000
00010000
00100000
00001000
00010000
00000010
00000000
,
00001000
00000100
00010000
00001000
01000000
00010000
01000000
00000000
,
00100000
10000000
01000000
00100000
00001000
00010000
00000100
00000000
,
00000010
00000001
00000001
00000000
00000100
00001000
00010000
00001000
,
00000000
00022000
00000000
00000000
,
00000000
00000000
00000000
00000000
00000000
00000000
00000000
00030000
,
00003000
00000000
00000000
00000000
;

//--------------- dance-double - forcednature ----------------
#NOTES:
     dance-double:
     forcednature:
     Hard:
     13:
     0,0,0,0,0:
00000000
00000000
00000000
00000000
,
00000000
00000000
00000000
00000000
,
00000000
00000000
00000000
00000000
,
00000000
00000000
00000000
00000000
,
00000000
00000000
00000000
00000000
,
00001000
00000000
00010000
00000000
00100000
00000000
00000000
01000000
00000000
00010000
00000000
10000000
00100000
00000000
00000000
00000000
,
10000000
00000000
01000000
00000000
00010000
00000000
00000000
00001000
00000000
00010000
00000000
00000100
00001000
00000000
00000000
00000000
,
00000010
00000000
00010000
00000000
00001000
00000000
00000000
00000010
00000000
00000100
00000000
00000010
00000001
00000000
00000000
00000000
,
00000001
00000000
00000100
00000000
00000010
00001000
00000000
00000010
00010000
00000000
00001000
01000000
00000000
00010000
01000000
00000000
,
00100000
00000000
10000000
00000000
00010000
00000000
00000000
00100000
00000000
00001000
00000000
00010000
00001000
00000000
00000000
00000000
,
01000000
00000000
00010000
00000000
00100000
00000000
00000000
00001000
00000000
00010000
00000000
00000010
00001000
00000000
00000000
00000000
,
00000100
00000000
00000010
00000000
00000001
00000000
00000000
00000100
00000000
00000010
00000000
00001000
00000010
00000000
00000000
00000000
,
00010000
00000000
00001000
00000000
00011000
00000000
00000000
00001000
01000000
00000000
00010000
00000000
00010000
00000000
10000000
00000000
,
01000000
01000000
00200000
00000000
00300000
00001000
00010000
00000010
,
00000000
00001000
00000100
00000010
00001000
00000010
00000001
00001000
,
00000010
00000010
00010000
00000000
00000000
00001000
00100000
00010000
,
00000000
01000000
00100000
00000000
10000000
01000000
00010000
00001000
,
01000000
00000000
00010000
00000000
00100000
00000000
00001000
00000000
00010000
00000000
00000000
00000010
00000000
00000000
00001010
00000000
,
00000000
00000000
00000001
00000000
00000010
00000000
00000000
00000000
00001000
00000000
00000000
00010000
00000000
00000000
01000000
00000000
,
00100000
00001000
00010000
00100000
01000000
00010000
00100000
02000000
,
00000000
00000000
10000000
00000000
13000000
00000000
00000000
00000000
01000000
00000000
00000000
00010000
00000000
00000000
00001000
00000000
,
00010000
00000100
00010000
00001000
00010000
00000010
00010000
00001000
,
00010000
01000000
00010000
00001000
00200000
00000000
00300000
00100000
,
00001000
01000000
00001000
00010000
00001000
00100000
00001000
00010000
,
00001000
00000100
00001000
00010000
00000020
00000000
00000030
00000000
,
00000100
00001000
00010000
00001000
00100000
00001000
00010000
00001000
,
01000000
00001000
00010000
00001000
00000020
00000000
00000130
00000000
,
00000110
00000000
00000010
00000001
00001000
00000001
00000100
00001000
,
00010000
00000000
00100000
00000000
01000000
00000000
00010000
00000000
10000000
01000000
10000000
01000000
00200000
00000000
00000000
00000000
,
00301000
00000000
00100000
00000000
00010000
00000000
01000000
00000000
00001000
00000000
00000000
00011000
00000000
00000000
00010000
00000000
,
00000100
00000000
00001000
00000000
00000010
00000000
00010000
00000000
00001000
00000000
00000000
00011000
00000000
00000000
00000000
00000000
,
01000000
00010000
00100000
01000000
00010000
00001000
00000100
00000010
,
00001000
00000001
00000010
00000002
00000000
00000100
00000103
00000000
,
00000010
00000000
00001000
00000000
00010000
00000000
01000000
00000000
00001000
00000000
00000000
00011000
00000000
00000000
00001000
00000000
,
00100000
00000000
00010000
00000000
00001000
00000000
00000100
00000000
00010000
00000000
00000000
00011000
00000000
00000000
00001000
00000000
,
01000000
00010000
00100000
02000000
00000000
03010000
00001000
00000100
,
00000010
00000000
00001000
00000000
00001001
00000000
00000000
00000000
00000001
00000000
00001000
00000100
00001000
00000000
00000100
00000000
,
00010000
00000000
00001000
00000000
00000100
00000000
00000010
00000000
00010000
00000000
00000000
00011000
00000000
00000000
00010000
00000000
,
00001000
00000000
00010000
00000000
01000000
00000000
00100000
00000000
00001000
00000000
00000000
00011000
00000000
00000000
00000000
00000000
,
00010000
00100000
01000000
00010000
10000000
01000000
00010000
00001000
,
01000000
00010000
00100000
00002000
00000000
01000000
01003000
00000000
,
00100000
00000000
10000000
00000000
01000000
00000000
00100000
00000000
00001000
00000000
00000000
00011000
00000000
00000000
00001000
00000000
,
00000010
00000000
00000001
00000000
00000100
00000000
00000010
00000000
00010000
00000000
00000000
00011000
00000000
00000000
00010000
00000000
,
00001000
00000000
00000010
00000000
00000100
00000000
00001000
00000001
00001000
00000000
00000010
00000000
00000100
00000000
00002000
00000000
,
00000000
00000000
00003000
00000000
,
00010000
00000000
00100000
00000000
10000000
00000000
00010000
00000000
10000000
00000000
00000000
01000000
00000000
00000000
00100000
00000000
,
00001000
00010000
00000000
00000000
00010000
00000010
00000000
00000000
00000010
00001000
00000000
00000000
00001000
00000001
00000000
00000000
,
00000020
00000000
00000030
00000100
00000001
00000100
00001000
00000010
,
00010000
00001000
00000100
00002000
00010000
00013000
00001000
01000000
,
00010000
01000000
00010000
00000000
00100000
00000000
01000000
00000000
10000000
00000000
00000000
00100000
00000000
00000000
00010000
00000000
,
00100000
01000000
00010000
00100000
01000000
00010000
00001000
00000010
,
00000200
00000000
00001000
00000000
00001300
00000000
00000100
00000000
00000010
00000001
00000010
00000000
00000100
00000000
00020000
00000000
,
00000000
00000000
00000000
00002000
00000000
00000000
00033000
00000000
,
01000000
00000000
00000000
00000000
00001000
00000000
00000000
00000000
00010000
00000000
00000000
00010000
00000000
00000000
00000000
00000000
,
00000100
00000000
00000000
00000000
00010000
00000000
00000000
00000000
00001000
00000000
00000000
00001000
00000000
00000000
00000000
00000000
,
00100000
00010000
01000000
00001000
,
00010000
00000100
00001000
00000200
00000000
00000000
00000300
00000000
,
00000010
00000000
00000100
00000000
00001000
00000000
00000100
00000000
00010000
00000000
00000000
00001000
00000000
00000000
01000000
00000000
,
00100000
00000000
01000000
00000000
00010000
00000000
01000000
00000000
00001000
00000000
00000000
00010000
00000000
00000000
00000100
00000000
,
00002000
00000000
00000000
00000002
00000000
00003003
00000001
00000100
,
00000000
00000000
00001000
00000000
00001000
00000000
00000000
00001000
00010000
00000000
00100000
00000000
00100000
00000000
10000000
00000000
,
01000000
00000000
10000000
00000000
00100000
00000000
00010000
00000000
00011000
00000000
00000000
00011000
00000000
00000000
00001000
00000000
,
00000100
00000000
00000001
00000000
00000010
00000000
00001000
00000000
00011000
00000000
00000000
00011000
00000000
00000000
00000000
00000000
,
00010000
00000000
00100000
00000000
01000000
00000000
00010000
10000000
00000000
10000000
01000000
00000000
00100000
00000000
00001000
00000000
,
00010000
00100000
01000000
00200000
00000000
10000000
10300000
00000000
,
00100000
00000000
10000000
00000000
01000000
00000000
00010000
00000000
00011000
00000000
00000000
00011000
00000000
00000000
00001000
00000000
,
00000010
00000000
00000001
00000000
00000100
00000000
00001000
00000000
00011000
00000000
00000000
00011000
00000000
00000000
00001000
00000000
,
00000010
00000000
00000100
00000000
00000010
00000000
00000001
00001000
00000001
00000000
00000100
00000000
00001000
00000000
00020000
00000000
,
00000000
00000000
00030000
00000000
,
00001000
00000000
01000000
00000000
00010000
10000000
00000000
01000000
00000000
10000000
00000000
00010000
00100000
00010000
00000000
00000000
,
01000000
00000000
00001000
00000000
00010000
00000100
00000000
00001000
00000000
00000100
00000000
00000010
00000001
00000010
00000000
00000000
,
00000100
00000000
00010000
00000000
00001000
01000000
00000000
00010000
00000000
01000000
00000000
00100000
10000000
00100000
00000000
00000000
,
10000000
00000000
01000000
00000000
00100000
00010000
00000000
00100000
00001000
00000000
00010000
00000100
00000000
00001000
00000100
00000000
,
00000010
00000000
00000001
00000000
00001000
00000010
00000000
00010000
00000000
00001000
00000000
00010000
00000100
00010000
00000000
00000000
,
00001000
00000000
01000000
00000000
00010000
00100000
00000000
00010000
00000000
01000000
00000000
00001000
00010000
00001000
00000000
00000000
,
00000010
00000000
00000100
00000000
00001000
00000100
00000000
00000010
00000000
00000001
00000000
00001000
00000010
00001000
00000000
00000000
,
00010000
00000000
01000000
00000000
00100000
00000000
00000000
00100000
10000000
00000000
01000000
10000000
01000000
00000000
00010000
00000000
,
00000000
00022000
00000000
00000000
,
00000000
00000000
00000000
00000000
00000000
00000000
00000000
00030000
,
00003000
00000000
00000000
00000000
;
