#TITLE:Orphan Tears;
#ARTIST:Your Favorite Martian ft. Wax;
#BANNER:Orphan Tears-bn.png;
#BACKGROUND:Orphan Tears-bg.png;
#JACKET:Orphan Tears-jacket.png;
#MUSIC:Orphan Tears.ogg;
#OFFSET:-0.1;
#SAMPLESTART:51.789;
#SAMPLELENGTH:20;
#DISPLAYBPM:130;
#BPMS:0=130.06;
#BGCHANGES:;

//---------------dance-single - ----------------
#NOTES:
     dance-single:
     :
     Beginner:
     3:
     :
0000
0000
0000
0000
,
0000
0000
0000
0000
,
0000
0000
0000
0000
,
0000
0000
0000
0000
,
2000
0000
3000
0000
,
0020
0000
0030
0000
,
0200
0000
0300
0000
,
0001
0000
0001
0000
,
0020
0000
0030
0000
,
0002
0000
0003
0000
,
2000
0000
3000
0000
,
0100
0000
0100
0000
,
1000
0000
0010
0000
,
0100
0000
0001
0000
,
0010
0000
0001
0000
,
0100
0000
0010
0000
,
1000
1000
1000
0000
,
0001
0001
0001
0000
,
0000
0000
0110
0000
,
0010
0010
0010
0000
,
0000
0000
1000
0000
,
0100
0100
0100
0000
,
0000
1001
0000
0000
,
0010
0000
0100
0000
,
0001
0000
0001
0000
,
1000
0000
1000
0000
,
0010
0000
0010
0000
,
0100
0000
0100
0000
,
0000
0000
0001
0001
,
0000
0000
1000
1000
,
0000
0001
0000
1000
,
0000
0000
0010
0010
,
0020
0000
0030
0000
,
0200
0000
0300
0000
,
0002
0000
0003
0000
,
1000
0000
1000
0000
,
0000
0100
0000
0100
,
0000
0010
0000
0010
,
0000
0000
0001
0001
,
0000
0000
1000
1000
,
0000
0000
0010
0000
,
1000
0000
0100
0000
,
0010
0010
0010
0000
,
0001
0001
0001
0000
,
0000
0000
0100
0100
,
0000
0000
0010
0010
,
0000
0000
0110
0000
,
0001
0000
1001
0000
,
1000
0000
1000
0000
,
0001
0000
0001
0000
,
0010
0000
0001
0000
,
1000
0000
0001
0000
,
0100
0000
0100
0000
,
0010
0000
0010
0000
,
1000
0000
1000
0000
,
0001
0000
0001
0000
,
0000
0000
0100
0100
,
0000
0000
0010
0010
,
0000
0100
0000
0010
,
0000
0000
1000
1000
,
2000
0000
3000
0000
,
0002
0000
0003
0000
,
0200
0000
0300
0000
,
0010
0000
0010
0000
;

//---------------dance-single - ----------------
#NOTES:
     dance-single:
     :
     Easy:
     6:
     :
0000
0000
0000
0000
,
0000
0000
0000
0000
,
0000
0000
0000
0000
,
0000
0000
0000
0000
,
0000
1000
0000
0010
,
0000
0001
0100
0110
,
0000
1000
0001
1000
,
0100
0010
0001
1001
,
0010
0010
0010
0010
,
1000
1000
1000
1000
,
0001
0001
0001
0001
,
0100
0100
0110
1001
,
0000
0010
0001
0100
,
0001
0010
0100
1000
,
0020
0230
0301
1000
,
0010
1000
0100
0001
,
0010
0001
0100
0110
,
1000
0010
0100
1001
,
0000
0110
0001
0100
,
1000
1000
0001
1001
,
0000
0010
0001
0100
,
0001
0001
1000
0110
,
0000
1000
0010
0100
,
0001
0001
0001
1001
,
1000
0001
0100
0101
,
0001
0010
0100
1100
,
0010
1000
0001
0011
,
0100
0001
1000
1010
,
0000
1001
0001
0100
,
1000
1000
0010
0100
,
0000
0110
0001
0100
,
0001
0001
1000
0100
,
0010
0010
0010
0010
,
0001
0001
0001
0001
,
1000
1000
0001
0001
,
0100
0010
0100
0001
,
0000
1001
0010
1000
,
0000
0110
0100
0001
,
0000
0010
0001
0110
,
1000
1000
0010
1001
,
0000
0100
0001
0010
,
0001
0100
1000
1001
,
0010
1000
0100
0110
,
0001
0100
0110
1001
,
0000
1000
0001
0100
,
0000
0001
0010
0100
,
0000
1000
0001
0001
,
0010
1000
0100
0100
,
0010
0001
0100
0100
,
0010
1000
0100
0100
,
0010
0000
0001
0110
,
0010
0010
0010
1001
,
1000
0100
0001
0011
,
0010
0001
0100
0101
,
1000
0001
0100
1010
,
0010
1000
0100
1100
,
0000
0110
0001
0100
,
0010
0010
1000
0001
,
0000
1001
0100
0001
,
1000
1000
0001
0100
,
0020
0000
0000
0000
,
2030
0000
0000
0000
,
3002
0000
0000
0000
,
0203
0000
0310
0000
;

//---------------dance-single - ----------------
#NOTES:
     dance-single:
     :
     Medium:
     9:
     :
0000
0000
0000
0000
,
0000
0000
0000
0000
,
0000
0000
0000
0000
,
0000
0000
0000
0000
,
0000
0000
1000
0010
0000
0000
0100
0001
,
0000
0000
0000
0000
0010
0000
0001
0000
1000
0000
0000
0100
0000
0000
0110
0000
,
0000
0000
1001
0000
0010
0100
1000
0000
,
0010
1000
0010
0000
0100
0001
1000
0000
,
0000
0000
1010
0000
0001
0100
0001
0000
,
0010
0000
0011
0000
0001
0100
1000
0000
,
0010
1000
0100
0000
1000
0001
0010
0000
,
0001
0100
0010
0000
1000
0001
0100
0000
,
0000
0000
0101
0000
0010
0001
1000
0000
,
0010
0000
1100
0000
1000
0001
0100
0000
,
0020
0000
0130
0000
0001
1000
0001
0000
,
0010
0001
0100
0001
0010
0001
0100
0000
,
0010
1000
0001
0000
0100
0010
1000
0000
,
0100
0010
0001
0000
0100
0001
1000
0000
,
0000
0010
0100
0010
1000
0000
1100
0000
,
0001
1000
0001
1000
0002
0000
0103
0010
,
0000
0000
1010
0000
1000
0100
1000
0000
,
0001
0010
0001
0000
0100
0010
1000
0000
,
0000
0000
1001
0000
0010
1000
0100
0000
,
1000
0001
1000
0001
0100
0010
1000
0001
,
0010
0000
0011
0000
0001
0100
2000
0000
,
3100
0000
1100
0000
0010
1000
0002
0000
,
1003
0000
1010
0000
0100
0001
0020
0000
,
0031
0000
0101
0000
1000
0010
0200
0000
,
0300
0000
0110
0000
0001
1000
0001
0000
,
0010
0001
0100
0000
0010
1000
0001
0000
,
0000
1000
0001
0000
1000
0100
1000
0000
,
0001
0100
0001
0010
0001
0100
0010
0000
,
2000
0000
3002
0000
0013
0100
0010
0000
,
0002
0000
0203
0000
0310
1000
0010
0000
,
1000
0001
1000
0000
0010
0100
0001
0000
,
1000
0001
1000
0010
0100
0000
0001
0100
,
0000
0000
1001
0000
0001
0010
0100
1000
,
0000
0000
0110
0000
0010
1000
0001
0100
,
0000
0100
0010
0000
0100
0001
1000
0000
,
0010
1000
0001
0000
0001
1000
0100
0000
,
0000
0000
1100
0000
0010
1000
0001
0100
,
0010
0000
0101
0000
1000
0100
0010
0001
,
0100
0010
1000
0000
0001
0010
0100
0000
,
1000
0001
1000
0010
0100
0010
0100
0001
,
0000
0000
0011
0000
0001
0100
0010
1000
,
0000
0000
1100
0000
1000
0001
0100
0010
,
0000
1000
0010
0000
2010
0000
3002
0000
,
0013
0001
0100
0000
0020
0000
0230
0000
,
0302
0000
0023
0000
0031
1000
0100
0000
,
1000
0001
0100
0000
0102
0000
2003
0000
,
3001
0010
0000
0000
0011
0000
1100
0000
,
0010
1000
0010
0100
0010
1000
0010
0000
,
1000
0000
1100
0000
0010
0001
0200
0000
,
0301
0000
0101
0000
1000
0100
0020
0000
,
0130
0000
0011
0000
0001
0010
2000
0000
,
3010
0000
1010
0000
0100
1000
0002
0000
,
0003
0000
1001
0000
0010
1000
0001
0000
,
0010
0001
0100
0000
0001
0010
1000
0000
,
0000
0100
1000
0000
0001
1000
0001
0000
,
0010
0001
0010
0001
0100
0010
1000
0000
,
0002
0000
0000
0000
,
0203
0000
0000
0000
,
0320
0000
0000
0000
,
2030
3000
1100
0000
;

//---------------dance-single - ----------------
#NOTES:
     dance-single:
     :
     Hard:
     12:
     :
0000
0000
0000
0000
,
0000
0000
0000
0000
,
0000
0000
0000
0000
,
0000
0000
0000
0000
,
0000
1000
0010
0100
0000
0010
1000
0001
,
0000
0000
0010
0000
0001
0000
0100
0000
0010
0000
1000
0001
0000
0000
0110
0000
,
0000
0100
0001
1000
0001
0100
0010
0000
,
1000
0100
1000
0001
0100
0010
1001
0000
,
0000
0010
1000
0100
0010
0001
0100
0010
,
1000
0100
0010
0001
0100
0010
0100
0001
,
0100
0000
0010
0000
1000
0000
0100
0000
0001
0000
0010
0000
1000
0000
0000
0001
,
0100
0010
1000
0100
1000
0001
0100
0010
,
0000
0010
0010
0100
0001
1000
0011
0000
,
0100
0010
1000
0001
1000
0100
1010
0000
,
0200
0000
0310
0000
1000
0001
0100
0010
,
0100
1000
0100
0001
0010
0100
1000
0000
,
1100
0100
1000
0001
0100
0010
0101
0000
,
0011
0001
0100
0010
1000
0100
1100
0000
,
0000
0110
1000
0001
0010
0001
0100
0000
,
1000
0000
0010
0000
1000
0000
0100
0000
0010
0000
0001
1000
0001
0000
0100
0000
,
0000
0010
1000
0100
1000
0001
1000
0100
,
0001
0010
0001
1000
0100
0010
0100
1000
,
0000
1001
0010
0001
0100
0010
1000
0100
,
1000
0000
0001
0000
0100
0000
0010
0000
1000
0100
1000
0000
0001
0000
0010
0000
,
1000
0100
0010
0001
0010
0100
2100
0000
,
3010
1000
0001
1000
0010
0100
0102
0000
,
0013
1000
0010
0001
0100
0010
2010
0000
,
3100
0001
0100
0010
0001
1000
0011
0000
,
0000
1000
1000
0100
0010
0010
0110
0000
,
0001
0001
0001
0010
1000
1000
1001
0000
,
0000
0010
0010
0100
0001
0001
0001
1000
,
0100
0100
0100
0010
0001
0001
0100
0010
,
1000
0100
0001
0100
1000
0010
0110
0000
,
0100
0001
0010
1000
0010
0001
0011
0000
,
1000
0001
1010
0000
0100
0010
1000
0001
,
0010
0000
0001
0000
0100
0000
0010
0000
1000
0100
0000
1000
0001
0000
0100
0000
,
0000
0000
0010
0000
1000
0000
0001
0100
0001
0000
0010
0000
0100
0000
1000
0000
,
0000
0000
1000
0001
1000
0000
0010
0000
0100
0000
0001
0000
0010
0000
1001
0000
,
0000
1000
1000
0010
0001
0100
1020
0000
,
1030
0001
0010
0001
0100
0010
1001
0000
,
0000
0000
1000
0010
1000
0000
0001
0000
0100
0000
0010
0000
0001
0000
0010
0000
,
1000
0001
0010
0100
1000
0010
1000
0001
,
0100
0010
1000
0001
0010
0001
0100
0010
,
1000
0001
0010
0100
0110
0110
0110
1000
,
0000
1000
0010
0001
0100
0010
0101
0101
,
0000
0000
0010
0000
0001
1000
0000
0001
1000
0000
0010
0000
1100
0000
1100
0000
,
0000
1000
0001
0100
2010
0000
3002
0000
,
0013
0001
0001
0100
2000
0000
3200
0000
,
1300
0001
0110
0000
0010
1000
1100
0000
,
0010
0001
0011
0000
0100
0010
1010
0000
,
1000
0000
0010
0000
0000
0000
0100
0001
0100
0000
0010
0000
0101
0000
0000
0000
,
1000
0001
0010
0001
0100
0010
1001
0000
,
1000
0100
0010
0001
0100
0010
0210
0000
,
0310
1000
0001
1000
0100
0010
0012
0000
,
0103
1000
0100
0001
1000
0100
2100
0000
,
3010
0001
0010
1000
0001
0100
0101
0000
,
0000
0010
0010
0001
0100
0100
0110
0000
,
0001
0001
0001
0100
1000
1000
1010
0000
,
0000
1000
1000
0001
0010
0010
0010
0100
,
1000
1000
1000
0010
0001
0100
0002
0000
,
0023
0000
0000
0000
,
0032
0000
0000
0000
,
0203
0000
0000
0000
,
0302
0000
2000
3003
;

//---------------dance-single - ----------------
#NOTES:
     dance-single:
     :
     Challenge:
     14:
     :
0000
0000
0000
0000
,
0000
0000
0000
0000
,
0000
0000
0000
0000
,
0000
0000
0000
0000
,
0000
1000
0010
1000
0010
0000
0100
0000
0000
0000
0001
0010
0001
0000
0100
0000
,
0000
0000
0010
1000
0010
0000
0100
0000
0001
0000
1000
0001
0000
0000
0110
0000
,
0000
0000
0010
0000
1000
0100
1000
0000
0001
0000
0100
0000
0020
0000
0000
0000
,
1030
0100
1000
0100
1000
0000
0001
0000
0100
0000
0010
0000
1001
0000
0000
0000
,
0000
0001
0010
0001
0010
0000
0100
0000
1000
0000
0010
0000
0100
0000
0001
0000
,
0010
0000
0001
0100
0001
0000
1000
0000
0010
0100
0010
0000
1000
0000
0001
0000
,
0010
0000
0001
0100
0000
0001
1000
0000
0010
0100
0010
1000
0000
0001
0000
0010
,
0001
0000
0000
0000
0000
0000
0001
0000
0000
0000
0000
0000
0001
0000
0000
0000
0000
0000
0100
0000
0000
0010
0000
0000
1000
0000
0000
0000
0001
0000
0000
0000
1000
0000
0000
0000
0100
0000
0000
0000
0000
0000
0010
0000
0000
0000
0000
0000
,
0000
0000
0001
0100
0001
0000
0010
0000
0100
1000
0001
0000
0101
0000
0000
0000
,
0010
0100
0010
0000
1000
0000
0001
0000
1000
0100
1000
0000
1100
0000
0000
0000
,
0020
0000
0000
0000
0000
0000
0000
0000
0000
0000
0000
0000
0130
0000
0000
0000
0000
0000
0000
0000
0001
0000
0000
0000
1000
0000
0000
0000
0100
0000
0000
0000
1000
0000
0000
0000
0001
0000
0000
0000
0000
0000
0100
0000
0000
0010
0000
0000
,
0100
0000
0001
0000
1000
0010
1000
0000
0100
0000
0010
0001
0000
0000
1000
0001
,
0100
0000
0010
1000
0010
0000
0100
0001
1000
0000
0100
0010
0000
0000
0000
0001
,
1000
0000
0010
0100
0000
0000
0100
0001
1000
0000
0010
0100
0000
0000
0110
0000
,
0000
0000
1010
0000
0101
0000
1000
0000
0010
0100
0000
0001
0000
0000
0000
0000
,
0001
0010
0001
0010
0001
0010
0001
0010
0100
0000
1000
0001
1000
0000
1100
0000
,
0000
0010
1000
0000
0001
0000
0100
0000
0010
1000
0100
0000
1000
0000
0001
0000
,
0010
0000
0010
0000
0001
0000
0100
0010
1000
0000
0001
0000
1000
0000
0100
0000
,
0000
1000
0010
1000
0001
0000
0010
0000
0001
0100
0001
1000
0000
1010
0000
0000
,
0100
0000
0001
1000
0001
0000
0100
0010
1000
0010
0100
0000
0001
0000
1001
0000
,
0100
0010
0001
0100
0110
1000
1200
0000
,
0310
0001
0100
0010
0110
1000
1020
0000
,
1030
0001
0010
0001
1001
0100
0201
0000
,
0310
1000
0001
1000
1001
0001
0012
0000
,
0103
0000
0001
0000
0001
1000
0100
0000
1100
0000
1100
0000
0120
0000
0000
0000
,
0031
0000
0001
0000
0001
1000
0010
0000
1010
0000
1010
0000
0102
0000
0000
0000
,
0013
0000
0001
0000
0001
0010
0100
0000
1000
0000
1000
0000
1000
0010
0100
0000
,
0001
1000
0001
1000
0001
0100
0010
0000
0110
0000
0110
0000
1000
0001
0010
0001
,
0010
0100
1000
0000
0001
0000
0001
0000
0100
0000
0100
0000
0101
0000
0000
0000
,
0010
0000
0010
0000
1000
0001
1000
0000
0100
0000
0010
0000
0011
0000
0000
0000
,
0001
0000
0100
0000
1010
0000
0000
0000
1000
0001
0000
1000
0001
0000
0010
0100
,
1000
0000
0000
0010
0000
0000
0100
0000
0000
0000
0000
0000
0001
0000
0000
0000
1000
0000
0000
0000
0001
0000
0000
0000
0010
0000
0000
0100
0000
0000
0000
0000
0000
0100
0000
0000
1000
0000
0000
0000
0000
0000
1100
0000
0000
0000
0000
0000
,
0000
0010
1000
0000
1000
0000
0100
0010
0001
0000
0100
0000
0101
0000
1100
0000
,
0000
0010
1000
0010
0100
0000
0001
0000
1000
0000
1000
0000
1100
0000
0011
0000
,
0000
0000
0100
0000
0100
0000
0001
1000
0010
0000
0100
0000
0110
0000
0000
0000
,
0001
1000
1010
1000
1100
0110
0011
0000
,
0100
0000
0001
1000
0001
0000
0010
0001
1000
0000
0100
0000
1000
0010
1000
0000
,
0100
0000
0001
0000
0100
0000
1000
0000
0010
0100
0010
0100
0001
0000
1000
0000
,
0100
0000
0010
0000
0001
0100
0010
0100
0001
0000
1000
0100
0000
1000
0010
0100
,
0001
1000
0001
1000
0001
0000
0100
0000
0110
0000
0110
0000
0110
0000
1000
0000
,
0000
0001
0010
0100
1000
0000
0010
0100
0001
0000
1000
0000
1100
0000
1100
0000
,
0000
0010
1000
0000
1000
0100
0000
0100
0010
0000
0001
0000
0011
0000
0101
0000
,
0000
0001
0100
0010
1010
0000
1100
0000
,
0001
0000
0001
0000
0001
0100
0010
1000
0200
0000
0000
0000
0320
0000
0000
0000
,
0031
0100
1010
0000
1000
0100
0011
0000
,
0010
0001
1100
0000
0010
1000
0101
0000
,
0010
0000
0010
0000
0000
0000
0001
1000
0001
0000
0100
0000
0110
0000
0000
0000
,
0010
0000
1000
0001
0000
1000
0000
0100
0010
0000
0001
0000
1001
0000
0000
0000
,
0010
1000
0001
0100
0110
0010
1020
0000
,
0130
0001
0010
0100
0110
0001
0021
0000
,
1030
0010
0001
1000
1001
0100
0201
0000
,
0310
0001
0010
1000
1001
0100
2100
0000
,
3010
0000
1000
0000
1000
0100
0010
0000
0011
0000
0011
0000
1020
0000
0000
0000
,
0130
0000
0100
0000
0100
0001
1000
0000
1100
0000
1100
0000
1002
0000
0000
0000
,
0013
0000
0001
0000
0001
0100
0010
0000
1000
0000
1000
0000
1000
0001
0100
0000
,
0010
1000
0010
1000
0001
1000
0100
0000
1100
0000
0110
0000
0011
0000
0000
0000
,
2000
0000
0000
0000
,
3020
0000
0000
0000
,
0032
0000
0000
0000
,
0203
0300
1100
0000
;
