#TITLE:New Solution;
#SUBTITLE:;
#ARTIST:KARUT;
#TITLETRANSLIT:;
#SUBTITLETRANSLIT:;
#ARTISTTRANSLIT:;
#GENRE:;
#CREDIT:;
#MUSIC:New Solution.ogg;
#BANNER:New Solution.png;
#BACKGROUND:New Solution-bg.png;
#CDTITLE:;
#SAMPLESTART:14.193;
#SAMPLELENGTH:15.000;
#SELECTABLE:YES;
#OFFSET:1.080;
#BPMS:0.000=110.000;
#STOPS:;
#BGCHANGES:;
#FGCHANGES:;

//--------------- dance-single - chrononical ----------------
#NOTES:
     dance-single:
     chrononical:
     Beginner:
     1:
     0,0,0,0,0:
0000
0000
0000
0000
,
0000
0000
0000
0000
,
1000
0000
0001
0000
,
1000
0000
0000
0000
,
0100
0000
0000
0000
,
0010
0000
0000
0000
,
0001
0000
2000
3000
,
0001
0000
0100
0000
,
0010
0000
0000
0000
,
1000
0000
0100
0000
,
0010
0000
0000
0000
,
0001
0000
0100
0000
,
0010
0000
0000
0000
,
1000
0000
0001
0000
,
1000
0000
1000
0000
,
1001
0000
0000
1000
,
0000
0000
0000
0000
,
0001
0000
0010
0000
,
0100
0000
1000
0000
,
1001
0000
0000
0001
,
0000
0000
0000
0000
,
1001
0000
0000
0000
,
1000
0000
0100
0000
,
1001
0000
0000
0000
,
0001
0000
0100
0000
,
0010
0000
0000
0000
,
0010
0000
0100
0000
,
0002
0000
0000
0003
,
1000
0000
0100
0000
,
0010
0000
0000
0000
,
0010
0000
0100
0000
,
1000
0000
0000
0000
,
0002
0000
0003
0000
,
2000
0000
3000
0000
,
0002
0000
0003
0000
,
2000
0000
3000
0000
,
0200
0000
0300
0000
,
0020
0000
0030
0000
,
0001
0000
0000
0000
,
1000
0000
0010
0000
,
0100
0000
0001
0000
,
1000
0000
0000
0000
,
0100
0000
1000
0000
,
0001
0000
0000
0000
,
0010
0000
0001
0000
,
0100
0000
0000
0000
,
0001
0000
1000
0000
,
0001
0000
0001
0000
,
2002
0000
0000
3003
;

//--------------- dance-single - chrononical ----------------
#NOTES:
     dance-single:
     chrononical:
     Easy:
     4:
     0,0,0,0,0:
0000
0000
0000
0000
,
0000
0000
0000
0000
,
1000
0000
0010
0000
,
0100
0001
1000
0000
,
0100
1000
0002
0003
,
1000
0001
0200
0300
,
0001
0000
1000
0000
0100
0000
0020
0030
,
0001
0000
0100
0000
,
0010
0010
0020
0030
,
1000
0000
0100
0000
,
0010
0010
0010
0002
,
1003
0000
0010
0000
,
0100
0100
0200
0300
,
1001
0000
0101
0000
,
1001
0000
1100
0000
,
2001
0000
0100
3002
,
0000
0000
0103
0010
,
0200
0000
0301
0020
,
0000
0000
0031
1000
,
1002
0000
0100
2003
,
0000
0000
3100
0010
,
0110
0000
0000
0000
,
1001
0000
0110
0000
,
2002
0000
0000
3003
,
0001
0000
0110
0000
,
1000
0000
0110
0000
,
0001
0000
0110
0000
,
1000
0000
0220
0330
,
0001
0000
0101
0000
,
1000
0000
1100
0000
,
0001
0000
0011
0000
,
0202
0000
0000
0303
,
1002
0000
0103
0000
,
0002
0000
0010
0000
,
2003
0000
3100
0000
,
2000
0000
0010
0000
,
3002
0000
0013
0000
,
0200
0000
1300
0000
,
1001
0000
0000
0000
,
1001
0000
0110
0000
,
1001
0000
1000
0100
,
0110
0000
0010
0001
,
1001
0000
1000
0010
,
0110
0000
0110
0000
,
1001
0000
0001
0010
,
0110
0000
0100
1000
,
1001
0000
1010
0000
,
1001
0000
0101
0000
,
2001
0000
0000
3100
;

//--------------- dance-single - chrononical ----------------
#NOTES:
     dance-single:
     chrononical:
     Medium:
     7:
     0,0,0,0,0:
0000
0000
0000
0000
,
0000
0000
0000
0000
,
0001
0100
0010
1000
,
2010
0000
3100
0000
0010
0001
0100
0000
,
0010
0000
1000
0000
0001
0000
0000
0001
0000
0000
1000
0000
1001
0000
0000
0000
,
0102
0000
0013
0000
0100
1000
0010
0000
,
0010
1000
0001
0000
0010
0001
0200
0000
,
0301
0010
0110
1001
,
1000
0000
0010
0000
0100
0001
0010
0000
,
0001
0100
0110
1001
,
1000
0000
0100
0000
0010
0001
1000
0010
,
1000
0010
0110
1001
,
0001
0000
0010
0000
0100
1000
0010
0000
,
1001
0100
1001
0010
,
1001
0000
1001
0000
1000
0100
0010
0001
,
0200
0000
0000
0000
1000
0000
0301
0020
,
0000
0000
1030
1010
,
0210
0000
0000
0000
0001
0000
1300
0020
,
0000
0000
0000
0030
0011
0000
0110
0000
,
2010
0000
0000
0000
3100
0000
0010
0002
,
0000
0000
0103
0101
,
0001
0001
0000
0000
0000
0000
0000
0000
,
1001
1100
1001
0101
,
2002
0000
0000
3003
,
1000
0100
0001
0010
,
0100
0000
0001
0000
1000
0001
1000
0000
,
0001
0100
1000
0010
,
0100
0000
1000
0000
0010
1000
0200
0000
,
1300
0100
0001
0010
,
0100
0000
0001
0000
1000
0001
1000
0000
,
0001
0100
1000
0010
,
0110
0000
0000
0110
,
2001
0000
0100
0000
,
3002
0000
0100
0000
,
2003
0000
0010
0000
,
3002
0000
0010
0000
,
2003
0001
0100
0000
,
3002
1000
0100
0000
,
1003
1000
0000
0000
0000
0000
0000
0000
,
1001
0101
1001
1100
,
1001
0000
1000
0010
0100
0010
1000
0000
,
1001
0000
0001
0010
0100
0010
0001
0000
,
1001
0000
0001
0100
0010
0100
0001
0000
,
1001
0000
1000
0100
0001
0000
0100
0000
,
0110
0000
0010
0001
1000
0010
0100
0000
,
0110
0000
0100
0010
1000
0001
0010
0000
,
1001
0010
1001
0100
,
1001
0011
0110
1001
,
1020
0000
0000
0031
;

//--------------- dance-single - chrononical ----------------
#NOTES:
     dance-single:
     chrononical:
     Hard:
     9:
     0,0,0,0,0:
0000
0000
0000
0000
,
0000
0000
0000
0000
,
1000
0001
1000
0010
1000
1000
0100
0010
,
1002
0000
0103
0000
0010
0010
2010
0000
,
3100
0000
0100
0000
0010
0000
0000
0010
0000
0010
0001
0000
2001
0000
0000
0000
,
3010
0000
0100
0000
0010
0010
2010
0000
,
3001
0010
1000
0001
0100
1000
2020
3030
,
1000
0100
0010
0000
0010
0100
1000
0000
,
0001
0100
0010
0100
0001
1000
1001
0000
,
0001
0010
0100
0000
0100
0010
0001
0000
,
1000
0010
0100
0010
1000
0001
0010
0200
,
1300
0010
0100
0000
0100
0010
1000
0000
,
0001
0010
0100
0010
0001
1000
1001
0000
,
1100
0101
0011
1010
,
1002
0103
0010
0000
1000
1000
0100
0100
,
0002
0000
0000
0000
0103
0000
1000
0010
,
0002
0000
0000
0000
0013
1000
1100
0000
,
1001
0001
0100
0000
0110
0000
0010
1000
,
1001
1000
0100
0000
1100
0000
1020
0000
,
0032
0000
0000
0000
0013
0000
1000
0100
,
0002
0000
0103
1100
,
1001
1001
0000
0000
0000
0000
0000
0000
,
1001
0100
0010
0000
1001
0010
0100
0000
,
2002
0000
0000
3003
,
0001
0100
1000
0000
1000
0100
0001
0000
,
1000
0100
0001
1000
0010
0001
0100
0010
,
1000
0010
0001
0000
0001
0010
1000
0000
,
0001
0010
1000
0001
0100
1000
2020
3030
,
1000
0100
0001
0000
0001
0100
1000
0000
,
0001
0100
1000
0001
0010
1000
0100
0010
,
0001
0010
1000
0000
1000
0010
0001
0000
,
1000
0010
0001
0010
1000
0001
1000
0000
,
2100
0000
3001
0000
,
0102
0000
1003
0000
,
2010
0000
3001
0000
,
0012
0000
1003
0000
,
1010
0010
0110
0100
,
0101
0001
0021
0130
,
1001
1001
0000
0000
0000
0000
0000
0000
,
1001
0100
0010
0000
1001
0100
0010
0000
,
1001
1000
0100
0001
0100
1000
0001
0000
,
1001
0001
0100
1000
0100
0001
1000
0000
,
1001
1000
0010
0001
0010
1000
0001
0000
,
1001
0001
0010
1000
0001
0100
1000
0010
,
0110
0100
0010
0001
0010
1000
0100
0000
,
0110
0100
0010
1000
0010
0100
1000
0010
,
1001
1100
1001
0101
,
2001
3100
1002
0103
2001
3010
1002
0013
,
0220
0030
0000
0301
;
