#VERSION:0.83;
#TITLE:メイド大回転;
#SUBTITLE:;
#ARTIST:とんとことんスタッフ一同;
#TITLETRANSLIT:Meido Daikaiten;
#SUBTITLETRANSLIT:;
#ARTISTTRANSLIT:Ton Tokoton Staff;
#GENRE:;
#ORIGIN:;
#CREDIT:;
#BANNER:Meido Daikaiten.png;
#BACKGROUND:Meido Daikaiten-bg.png;
#PREVIEWVID:;
#JACKET:Meido Daikaiten-jacket.png;
#CDIMAGE:;
#DISCIMAGE:Meido Daikaiten [EN].png;
#LYRICSPATH:Meido Daikaiten.lrc;
#CDTITLE:;
#MUSIC:Meido Daikaiten.ogg;
#OFFSET:0.095000;
#SAMPLESTART:66.159988;
#SAMPLELENGTH:13.899997;
#SELECTABLE:YES;
#BPMS:0.000=134.000;
#STOPS:;
#DELAYS:;
#WARPS:;
#TIMESIGNATURES:0.000=4=4;
#TICKCOUNTS:0.000=4;
#COMBOS:0.000=1;
#SPEEDS:0.000=1.000=0.000=0;
#SCROLLS:0.000=1.000;
#FAKES:;
#LABELS:0.000=Song Start;
#BGCHANGES:0.333=Meido Daikaiten.avi=1.000=0=0=1=====,
99999=-nosongbg-=1.000=0=0=0 // don't automatically add -songbackground-
;
#KEYSOUNDS:;
#ATTACKS:
;

//---------------dance-single - ----------------
#NOTEDATA:;
#CHARTNAME:;
#STEPSTYPE:dance-single;
#DESCRIPTION:;
#CHARTSTYLE:;
#DIFFICULTY:Hard;
#METER:13;
#RADARVALUES:0.615028,0.629948,0.346727,0.279308,0.601957,447.000000,411.000000,36.000000,29.000000,0.000000,0.000000,0.000000,0.000000,0.000000,0.615028,0.629948,0.346727,0.279308,0.601957,447.000000,411.000000,36.000000,29.000000,0.000000,0.000000,0.000000,0.000000,0.000000;
#CREDIT:Ben Speirs;
#NOTES:
0000
0000
0000
0000
,
0000
0000
0000
0000
,
0000
0000
0000
0000
,
0000
0000
0000
0000
,
0000
0000
0000
0000
,
1000
0000
0000
0000
0001
0000
0000
0100
0000
0100
0000
0000
0100
0000
0000
0000
,
0001
0000
0000
0000
1000
0000
0000
0100
0000
0100
0000
0000
1000
0000
0001
0000
,
0010
0000
0000
0000
0001
0000
0000
1000
0000
1000
0000
0000
0010
0000
0100
0000
,
0010
2002
0000
3003
,
0001
0000
1000
0100
1000
0000
0001
0100
0000
0000
0001
0000
1000
0000
0000
0000
,
0001
0000
1000
0010
1000
0000
0001
0010
0000
0000
0001
0000
1000
0000
0000
0000
,
0001
0100
0000
0001
0100
0000
0001
0100
0000
0000
0001
0010
0000
0010
0100
0000
,
1000
0100
0000
1000
0100
0000
1000
0100
0000
0000
1000
0001
0000
1000
0010
0000
,
1000
0000
0001
0010
0001
0000
0010
0100
0000
0000
1000
0000
1100
0000
0000
0000
,
0001
0000
1000
0010
1000
0000
0010
0100
0000
0000
0001
0000
0101
0000
0000
0000
,
2000
3002
0003
0000
,
1000
0001
1000
0000
0010
0000
1000
0100
0000
0010
0000
0001
1000
0001
1000
0001
,
0100
0000
0000
0100
0010
0000
1000
0000
0001
0010
0001
0010
0001
0000
1000
0000
,
0001
0000
0100
0010
0100
0000
0001
0000
1000
0000
0001
0000
1002
0000
0000
2003
,
0000
0000
3020
0000
0000
0230
0000
0000
0301
1000
0000
0001
0000
0000
0000
0000
,
2000
0000
0000
3200
0000
0000
0320
0000
0000
0031
1000
0000
0001
0000
0100
0000
,
0010
0000
1000
0100
1000
0000
0001
0000
0100
0000
0100
0300
0100
0000
0010
0000
,
1000
0000
0001
0000
1000
0100
1000
0100
1000
0000
0001
0000
0101
0000
0000
0000
,
1000
0000
1000
0000
0001
0000
0001
0000
1000
0010
0000
0010
0100
0000
0001
0000
,
0020
0000
0030
1001
,
0101
0000
0000
0110
0000
0000
1002
0000
0000
0000
1003
0000
0100
0000
0010
0000
,
0011
0000
0000
1100
0000
0000
1010
0000
0000
0001
0100
0000
0001
1000
0001
0000
,
1001
0000
0000
0110
0000
0000
2010
0000
0000
0000
3001
0000
0010
0000
0100
0000
,
1100
0000
0000
0011
0000
0000
0101
0000
0000
1000
0010
0000
0200
0000
0000
0000
,
0301
0000
1000
0010
1000
0000
0001
0000
1000
0100
0000
0000
0010
0001
0000
0000
,
1030
0000
0001
0100
0001
0000
1000
0000
0001
0010
0000
0000
0100
1000
0000
0000
,
0001
0000
1000
0100
0010
0000
0001
0000
1000
0010
0000
0000
0100
0010
0000
0000
,
1000
0000
0001
0010
0100
0000
1000
0000
0001
0100
0010
0030
2000
0000
0000
0000
,
3001
0000
0000
0101
0000
0000
1001
0000
1000
0100
0010
0000
0001
0010
0100
0000
,
1003
0000
0000
1010
0000
0000
1001
0000
0001
0010
0100
0000
1000
0100
0010
0000
,
0001
0000
0100
0000
1000
0000
0100
0000
0001
0010
0100
0000
1000
0010
0100
0000
,
0001
0000
0000
0000
1000
0000
0000
0001
0010
0001
0010
0100
1000
0000
0000
0000
,
1002
0000
0000
0000
0103
0000
0010
1000
0010
1000
0000
0001
0010
0000
0100
0000
,
2100
0000
0000
0000
3001
0000
1000
0010
1000
0010
0000
0100
0001
0000
1000
0000
,
2100
0000
0000
3001
0000
0000
0102
0000
0000
0000
1003
0000
0100
0000
0010
0000
,
0001
0000
1000
0000
0010
0000
0001
0000
0020
0000
0000
0230
0000
0000
3301
0000
,
2001
0000
0000
0000
3010
0000
0100
0001
0100
0001
0000
1000
0100
0000
0010
0000
,
0012
0000
0000
0000
1003
0000
0001
0100
0001
0100
0000
0010
1000
0000
0001
0000
,
0011
0000
0000
0113
0000
0000
2001
0000
0000
0000
3001
0000
0100
0000
0010
0000
,
1000
0000
1000
0000
0001
0000
0001
0000
1000
0100
0000
0100
0010
0000
0001
1000
,
0001
0000
0000
0000
1000
0100
0000
1000
0100
0000
0001
0000
0100
0000
1000
0000
,
0001
0100
0000
0100
0010
0000
1000
0100
0000
0100
0010
0000
0002
0000
0000
0000
,
1003
0000
0000
0000
0001
0010
0000
0001
0010
0000
1000
0000
0010
0000
0001
0000
,
2000
0000
0000
0000
3010
0000
0100
0000
0002
0000
0000
2003
0000
0000
3001
0000
,
0101
0000
0000
0000
1000
0010
0000
0010
1000
0000
0001
0000
0010
0000
0100
0000
,
1000
0100
0000
0010
0001
0000
1000
0010
0000
0100
0001
0000
1000
0000
0001
0000
,
0101
0000
0000
0000
0001
0100
0000
0100
0001
0000
1000
0000
0100
0000
0010
0000
,
0001
0000
0100
0000
1000
0000
0100
0000
0001
0000
0000
1000
0010
0000
1000
0001
,
1000
0010
0000
0010
0100
0000
0001
0000
1000
0000
0001
1000
0001
0000
0100
0000
,
0001
0100
0000
0100
0010
0000
1000
0000
0001
0000
1000
0001
1000
0000
0001
0000
,
0010
0000
0000
0010
0100
0000
1000
0000
0010
0000
0100
0001
0000
0000
1000
0000
,
1100
0000
0000
0001
0100
0001
1000
0100
0010
0000
0000
0110
0000
0000
1001
0000
;

//---------------dance-single - ----------------
#NOTEDATA:;
#CHARTNAME:;
#STEPSTYPE:dance-single;
#DESCRIPTION:;
#CHARTSTYLE:;
#DIFFICULTY:Medium;
#METER:9;
#RADARVALUES:0.426530,0.465614,0.394884,0.317833,0.091497,310.000000,269.000000,41.000000,33.000000,0.000000,0.000000,0.000000,0.000000,0.000000,0.426530,0.465614,0.394884,0.317833,0.091497,310.000000,269.000000,41.000000,33.000000,0.000000,0.000000,0.000000,0.000000,0.000000;
#CREDIT:Ben Speirs;
#NOTES:
0000
0000
0000
0000
,
0000
0000
0000
0000
,
0000
0000
0000
0000
,
0000
0000
0000
0000
,
0000
0000
0000
0000
,
1000
0000
0000
0000
0001
0000
0000
0100
0000
0000
0000
0000
0100
0000
0000
0000
,
0001
0000
0000
0000
1000
0000
0000
0100
0000
0000
0000
0000
0100
0000
0010
0000
,
0001
0000
0000
0000
1000
0000
0000
0010
0000
0000
0000
0000
0010
0000
0100
0000
,
0001
2002
0000
3003
,
0001
0100
0010
1000
0100
0000
1100
0000
,
1000
0100
0010
0001
0100
0000
0101
0000
,
1000
0000
0000
0000
0100
0000
0000
0100
0000
0000
0010
0000
0001
0000
1000
0000
,
0001
0000
0000
0000
0100
0000
0000
0100
0000
0000
0010
0000
1000
0000
0001
0000
,
1000
0100
0010
0001
1000
0000
1010
0000
,
0001
0100
0010
1000
0100
0000
0011
0000
,
2000
3002
0003
0000
,
1000
0010
0100
0001
0010
0100
1000
0000
,
0102
0010
1003
0101
,
1000
0100
1000
0000
0001
0100
0001
0000
,
2000
3020
0230
0302
,
0023
0000
0230
0000
1300
0001
1000
0000
,
2010
0100
3001
1010
,
0001
0010
0001
0000
1000
0010
1000
0000
,
0001
0100
0010
0000
1000
0100
0010
0001
,
0200
0000
0303
1001
,
0101
0000
0000
0100
0000
0000
0020
0000
0000
0000
0000
0000
1030
0000
0000
0000
,
1100
0000
0000
0100
0000
0000
0020
0000
0000
0000
0000
0000
0031
0000
0000
0000
,
1001
0000
0000
0100
0000
0000
1002
0000
0000
0000
0000
0000
0103
0000
0000
0000
,
1001
0000
0000
0010
0000
0000
2001
0000
0000
0000
0000
0000
3010
0000
0000
0000
,
1000
0100
1000
0010
2000
0000
3001
0000
,
0001
0100
0001
0010
0002
0000
1003
0000
,
0001
0100
0010
0000
1010
0000
0101
0000
,
1000
0100
0010
0000
0011
0000
1100
0000
,
0001
0000
0000
1000
0000
0000
0010
0000
0100
0000
0000
0000
0110
0000
0000
0000
,
1000
0000
0000
0001
0000
0000
0010
0000
0100
0000
0000
0000
0110
0000
0000
0000
,
0001
0010
0001
0010
0100
1000
0100
1000
,
0020
0000
0130
0110
,
1002
0000
0103
0100
0001
0100
0010
0000
,
2010
0000
3001
0001
1000
0100
0010
0000
,
0001
0000
0000
1000
0000
0000
0020
0000
0000
0000
0000
0000
0130
0000
0000
0000
,
0101
1100
1010
0011
,
2001
0000
3010
0010
1000
0010
0100
0000
,
0102
0000
1003
1000
0001
0010
0100
0000
,
1000
0000
0000
0001
0000
0000
0200
0000
0000
0000
0000
0000
0310
0000
0000
0000
,
1010
0000
0011
0000
0001
1000
0010
0000
,
1001
0000
1000
0100
0010
0100
1000
0100
,
0010
0000
0000
0100
0000
0000
1000
0000
0000
0010
0000
0000
0100
0000
0001
0000
,
1000
0000
0001
0100
0010
0100
0001
0100
,
0020
2030
3200
0310
,
1001
0000
0001
0010
0100
0010
0001
0010
,
0100
0000
0000
0010
0000
0000
0001
0000
0000
0100
0000
0000
0010
0000
1000
0000
,
0001
0000
1000
0010
0100
0010
1000
0010
,
0200
0302
0023
0130
,
1001
0000
1100
0000
1000
0100
0010
0000
,
1001
0000
0101
0000
0001
0100
0010
0000
,
1000
0000
0001
0000
1000
0000
0001
0000
0100
0000
0000
0100
0000
0000
0100
0000
,
0002
0000
0000
0000
1003
0000
0000
0000
1001
0000
0000
0010
0000
0000
1001
0000
;

//---------------dance-single - ----------------
#NOTEDATA:;
#CHARTNAME:;
#STEPSTYPE:dance-single;
#DESCRIPTION:;
#CHARTSTYLE:;
#DIFFICULTY:Easy;
#METER:5;
#RADARVALUES:0.240783,0.273890,0.096313,0.288939,0.000000,175.000000,165.000000,10.000000,30.000000,0.000000,0.000000,0.000000,0.000000,0.000000,0.240783,0.273890,0.096313,0.288939,0.000000,175.000000,165.000000,10.000000,30.000000,0.000000,0.000000,0.000000,0.000000,0.000000;
#CREDIT:Ben Speirs;
#NOTES:
0000
0000
0000
0000
,
0000
0000
0000
0000
,
0000
0000
0000
0000
,
0000
0000
0000
0000
,
0000
0000
0000
0000
,
1000
0001
0100
0000
,
0001
1000
0100
0000
,
0010
0010
0001
0100
,
0010
2002
0000
3003
,
1000
0100
0010
0010
,
0001
0100
0010
0010
,
2000
3000
0001
0000
,
2000
3000
0001
0000
,
0001
0100
0010
0010
,
1000
0100
0010
0010
,
0002
2003
3000
0000
,
1001
0001
0100
0010
,
0110
0000
1000
0001
,
0100
0000
0001
1000
,
0100
0000
0100
0000
,
0010
0010
0010
0000
,
0001
0010
0100
0100
,
1000
0010
0100
0100
,
0001
0000
1000
0000
,
0020
0000
0030
0110
,
2002
3003
0001
0100
,
0020
0030
1000
0100
,
0020
0030
0001
1000
,
0002
0003
0100
0010
,
1000
0100
0010
0010
,
0001
0010
0100
0100
,
1000
0010
0100
0100
,
0010
1000
0001
0000
,
0001
1000
0100
0100
,
1000
0001
0100
0100
,
0010
0010
1000
0001
,
0010
0000
0100
0100
,
2002
3003
0001
0100
,
0220
0330
0010
1000
,
0100
0100
0020
0030
,
0100
0010
0001
0000
,
2002
3003
1000
0010
,
0220
0330
0100
0001
,
0010
0010
0200
0300
,
0010
0100
1000
0000
,
0001
0100
0001
0100
,
0020
0030
0020
0030
,
1000
0100
1000
0100
,
0020
0030
0020
0030
,
0001
1000
0001
1000
,
0020
0030
0020
0030
,
1000
0001
1000
0001
,
0200
0300
0200
0300
,
0001
0010
0100
0000
,
1000
0100
1000
0000
,
0001
0001
0100
0100
,
0010
0000
1000
0000
0001
0000
0000
1001
;

//---------------dance-single - ----------------
#NOTEDATA:;
#CHARTNAME:;
#STEPSTYPE:dance-single;
#DESCRIPTION:;
#CHARTSTYLE:;
#DIFFICULTY:Beginner;
#METER:2;
#RADARVALUES:0.121079,0.163973,0.048157,0.000000,0.000000,88.000000,83.000000,5.000000,0.000000,0.000000,0.000000,0.000000,0.000000,0.000000,0.121079,0.163973,0.048157,0.000000,0.000000,88.000000,83.000000,5.000000,0.000000,0.000000,0.000000,0.000000,0.000000,0.000000;
#CREDIT:Ben Speirs;
#NOTES:
0000
0000
0000
0000
,
0000
0000
0000
0000
,
0000
0000
0000
0000
,
0000
0000
0000
0000
,
0000
0000
0000
0000
,
0001
0000
0000
0000
,
1000
0000
0000
0000
,
0010
0000
0000
0000
,
0100
0100
0000
0000
,
0001
0001
0000
0000
,
1000
1000
0000
0000
,
0100
0000
0000
0000
,
0100
0000
0000
0000
,
1000
1000
0000
0000
,
0001
0001
0000
0000
,
0100
0100
0000
0000
,
0010
0000
0010
0000
,
0010
0000
0000
0000
,
1000
0000
0000
0000
,
0001
0000
0001
0000
,
0001
0000
0000
0000
,
0010
0000
0010
0000
,
0010
0000
0000
0000
,
0100
0000
0100
0000
,
0100
0000
0000
0000
,
1001
0000
0000
0001
,
0001
0000
0000
0100
,
0100
0000
0000
0000
,
0010
0000
0010
0000
,
0010
0000
0000
1000
,
1000
0000
0000
0100
,
0100
0000
0000
0000
,
0010
0000
0010
0000
,
0010
0000
0000
0001
,
0001
0000
0000
0000
,
1000
0000
1000
0000
,
1000
0000
0000
0000
,
1001
0000
0000
0000
,
1001
0000
0000
0000
,
0001
0001
0000
0000
,
1000
1000
0000
0000
,
1001
0000
0000
0000
,
1001
0000
0000
0000
,
1000
1000
0000
0000
,
0001
0001
0000
0000
,
0100
0000
0100
0000
,
0100
0000
0000
0000
,
0010
0000
0010
0000
,
0010
0000
0000
0000
,
0100
0000
0100
0000
,
0100
0000
0000
0000
,
0010
0000
0010
0000
,
0010
0000
0000
0000
,
1000
1000
0000
0000
,
0001
0001
0000
0000
,
0010
0000
0010
0000
,
0010
0000
0010
0010
;

//---------------dance-double - ----------------
#NOTEDATA:;
#CHARTNAME:;
#STEPSTYPE:dance-double;
#DESCRIPTION:;
#CHARTSTYLE:;
#DIFFICULTY:Hard;
#METER:13;
#RADARVALUES:0.608149,0.629948,0.404515,0.423778,0.573063,442.000000,400.000000,42.000000,44.000000,0.000000,0.000000,0.000000,0.000000,0.000000,0.608149,0.629948,0.404515,0.423778,0.573063,442.000000,400.000000,42.000000,44.000000,0.000000,0.000000,0.000000,0.000000,0.000000;
#CREDIT:Ben Speirs;
#NOTES:
00000000
00000000
00000000
00000000
,
00000000
00000000
00000000
00000000
,
00000000
00000000
00000000
00000000
,
00000000
00000000
00000000
00000000
,
00000000
00000000
00000000
00000000
,
00002000
00000000
00000000
00000000
00100000
00000000
00000000
00010000
00000000
00010000
00000000
00000000
00013000
00000000
00000000
00000000
,
00020000
00000000
00000000
00000000
00000010
00000000
00000000
00001000
00000000
00001000
00000000
00000000
00031000
00000000
00100000
00000000
,
02000000
00000000
00000000
00000000
00100000
00000000
00000000
00100000
00000000
00100000
00000000
00000000
03100000
00000000
00010000
00000000
,
10000000
20020000
00000000
30030000
,
10000000
00000000
00010000
01000000
00010000
00000000
01000000
00100000
00000000
00000000
10000000
00000000
10100000
00000000
00000000
00000000
,
00010000
00000000
10000000
00100000
10000000
00000000
00100000
01000000
00000000
00000000
00010000
00000000
01010000
00000000
00000000
00000000
,
00001000
00100000
00000000
00001000
00010000
00000000
00000100
00020000
00000000
00000000
00031000
00000100
00000000
00000100
00000010
00000000
,
00010000
00000100
00000000
00010000
00001000
00000000
00100000
00002000
00000000
00000000
00003010
00000100
00000000
00000100
00001000
00000000
,
00000001
00000000
00001000
00000010
00000100
00000000
00000010
00001000
00000000
00000000
00000001
00000000
00000101
00000000
00000000
00000000
,
00001000
00000000
00000001
00000100
00000010
00000000
00000100
00000001
00000000
00000000
00001000
00000000
00001010
00000000
00000000
00000000
,
00020000
00032000
00003000
00000000
,
00100000
00001000
00100000
00000000
00010000
00000000
10000000
00100000
00000000
01000000
00000000
00010000
10000000
00010000
10000000
00010000
,
01000000
00000000
00000000
01000000
00100000
00000000
10000000
00000000
00010000
00100000
00010000
00100000
00010000
00000000
01000000
00000000
,
00001000
00000000
00010000
00000100
00010000
00000000
00001000
00000000
00100000
00000000
00001000
00000000
00021000
00000000
00000000
00230000
,
00000000
00000000
20300000
00300000
00000000
30200000
00000000
00000000
00310000
00001000
00000000
00010000
00000000
00000000
00000000
00000000
,
00002000
00000000
00000000
00003020
00000000
00000000
00000032
00000000
00000000
00001003
00000010
00000000
00000110
00000000
00000000
00000000
,
00001001
00000000
00000000
00000001
00000100
00000000
00000010
00000000
00001000
00000100
00001000
00000100
00001000
00000000
00000010
00000000
,
00010000
00000000
00001000
00100000
00001000
00000000
00010000
00000000
00000010
00000000
00010000
00000000
00012000
00000000
00000000
00000000
,
00103000
00000000
00100000
00000000
00010000
00000000
01000000
00000000
00100000
00010000
00000000
00010000
00001000
00000000
00100000
00000000
,
00002000
00000000
00003000
10010000
,
11000000
00000000
00000000
01100000
00000000
00000000
00120000
00000000
00000000
00000000
10030000
00000000
00100000
00000000
00010000
00000000
,
00011000
00000000
00000000
00101000
00000000
00000000
00011000
00000000
00000000
00010000
00000100
00000000
00001000
00000001
00000100
00000000
,
00000101
00000000
00000000
00000110
00000000
00000000
00002010
00000000
00000000
00000000
00003001
00000000
00000100
00000000
00001000
00000000
,
00011000
00000000
00000000
00010100
00000000
00000000
00011000
00000000
00000000
00001000
00100000
00000000
02000000
00000000
00000000
00000000
,
13000000
00000000
00010000
01000000
00010000
00000000
10000000
00000000
00010000
01000000
00000000
00000000
00001000
00010000
00000000
00000000
,
00000100
00000000
00010000
00001000
00010000
00000000
00000100
00000000
00001000
00000001
00000000
00000000
00000100
00000001
00000000
00000000
,
00001000
00000000
00000001
00000010
00000001
00000000
00001000
00000000
00000001
00000100
00000000
00000000
00000010
00001000
00000000
00000000
,
00000100
00000000
00010000
00001000
00010000
00000000
00001000
00000000
00100000
00010000
01000000
00000000
00200000
00000000
00000000
00000000
,
10300000
00000000
00000000
10100000
00000000
00000000
10010000
00000000
00010000
00100000
00001000
00000000
00000010
00000000
00000001
00000000
,
00000311
00000000
00000000
00000101
00000000
00000000
00001001
00000000
00001000
00000100
00010000
00000000
01000000
00000000
10000000
00000000
,
00010000
00000000
01000000
00000000
10000000
00000000
01000000
00000000
00010000
00100000
00001000
00000000
00100000
00001000
00010000
00000000
,
00000100
00000000
00000000
00000000
00003100
00000000
00000000
00000010
00000100
00000010
00000100
00001000
00000001
00000000
00000000
00000000
,
00002001
00000000
00000000
00000000
00003010
00000000
00000100
00000001
00000100
00000001
00000000
00001000
00000100
00000000
00010000
00000000
,
00012000
00000000
00000000
00000000
00103000
00000000
00010000
01000000
00010000
01000000
00000000
00100000
10000000
00000000
00010000
00000000
,
00200000
00000000
00000000
01300000
00000000
00000000
20010000
00000000
00000000
00000000
00100000
00000000
30100000
00000000
10000000
00000000
,
00010000
00000000
01000000
00000000
10000000
00000000
01000000
00000000
00002000
00000000
00000000
00023000
00000000
00000000
01030000
00000000
,
12000000
00000000
30000000
00000000
03130000
00000000
00010000
10000000
00010000
10000000
00000000
00010000
00100000
00000000
00001000
00000000
,
00021000
00000000
00000000
00000000
00030100
00000000
00001000
00000010
00001000
00000010
00000000
00000100
00000001
00000000
00001000
00000000
,
00001100
00000000
00000000
00000110
00000000
00000000
00001002
00000000
00000000
00000000
00000100
00000000
00000103
00000000
00000001
00000000
,
00001000
00000000
00000010
00000000
00000001
00000000
00000010
00000000
00020000
00000000
00000000
00032000
00000000
00000000
00003010
00000000
,
00000011
00000000
00000000
00000000
00000001
00000010
00000000
00000001
00000100
00000000
00001000
00000000
00000100
00000000
00000001
00000000
,
00000020
00000000
00000000
00002030
00000000
00000000
00023000
00000000
00000000
01030000
10000000
03000000
00100000
00000000
01000000
00000000
,
01310000
00000000
00000000
00000000
10000000
01000000
00000000
10000000
00100000
00000000
00010000
00000000
00100000
00000000
10000000
00000000
,
12000000
00000000
00000000
00000000
03100000
00000000
00001000
00000000
00020000
00000000
00000000
00030020
00000000
00000000
00000130
00000000
,
00000101
00000000
00000000
00000000
00001000
00000100
00000000
00000100
00001000
00000000
00000001
00000000
00000100
00000000
00001000
00000000
,
00010000
00000100
00000000
00010000
00000100
00000000
00100000
00001000
00000000
00100000
00001000
00000000
00010000
00000000
00100000
00000000
,
10100000
00000000
00000000
00000000
00010000
00100000
00000000
00100000
00010000
00000000
10000000
00000000
00100000
00000000
00010000
00000000
,
00001000
00000000
00100000
00000000
00001000
00000000
00010000
00000000
00000020
00000000
00000000
00000230
00000000
00000000
00000301
00000000
,
00001000
00000010
00000000
00000010
00000100
00000000
00000001
00000000
00000010
00000000
00000100
00020000
00000000
00000000
00031000
00000000
,
00100000
00010000
00000000
00010000
10000000
00000000
00100000
00000000
01000000
00000000
00010000
00200000
00000000
00000000
00301000
00000000
,
00011000
00000000
00000000
00010000
00001000
00000000
00000100
00000000
00000001
00000000
00000010
00000100
00000010
00000000
00000001
00000000
,
00001000
00000000
00000000
00000100
00010000
00000100
00010000
00001000
02000000
00000000
00000000
03100000
00000000
00000000
10010000
00000000
;

//---------------dance-double - ----------------
#NOTEDATA:;
#CHARTNAME:;
#STEPSTYPE:dance-double;
#DESCRIPTION:;
#CHARTSTYLE:;
#DIFFICULTY:Medium;
#METER:9;
#RADARVALUES:0.411395,0.465614,0.250414,0.462303,0.081866,299.000000,273.000000,26.000000,48.000000,0.000000,0.000000,0.000000,0.000000,0.000000,0.411395,0.465614,0.250414,0.462303,0.081866,299.000000,273.000000,26.000000,48.000000,0.000000,0.000000,0.000000,0.000000,0.000000;
#CREDIT:Ben Speirs;
#NOTES:
// measure 0
00000000
00000000
00000000
00000000
,  // measure 1
00000000
00000000
00000000
00000000
,  // measure 2
00000000
00000000
00000000
00000000
,  // measure 3
00000000
00000000
00000000
00000000
,  // measure 4
00000000
00000000
00000000
00000000
,  // measure 5
00010000
00000000
00000000
00000000
00001000
00000000
00000000
00001000
00000000
00000000
00000000
00000000
00000000
00000000
00000000
00000000
,  // measure 6
00100000
00000000
00000000
00000000
00010000
00000000
00000000
00010000
00000000
00000000
00000000
00000000
00000000
00000000
10000000
00000000
,  // measure 7
00100000
00000000
00000000
00000000
01000000
00000000
00000000
01000000
00000000
00000000
00000000
00000000
00100000
00000000
10000000
00000000
,  // measure 8
00010000
20020000
00000000
30030000
,  // measure 9
10000000
01000000
10000000
00010000
00100000
00000000
00110000
00000000
,  // measure 10
01000000
00001000
00010000
00000100
00001000
00000000
00001100
00000000
,  // measure 11
00000001
00000000
00000000
00000000
00001000
00000000
00000000
00000010
00000000
00000000
00000010
00000000
00000100
00000000
00000000
00000000
,  // measure 12
00000001
00000000
00000000
00000000
00001000
00000000
00000000
00000100
00000000
00000000
00000100
00000000
00000010
00000000
00000000
00000000
,  // measure 13
00000001
00000010
00000001
00001000
00000100
00000000
00001100
00000000
,  // measure 14
00000010
00010000
00001000
00100000
00010000
00000000
00110000
00000000
,  // measure 15
20000000
30020000
00030000
00000000
,  // measure 16
10000000
00100000
01000000
00010000
00100000
01000000
10000000
00000000
,  // measure 17
00020000
00100000
00001000
00130000
,  // measure 18
00001000
00010000
00001000
00000000
00010000
00000010
00010000
00000000
,  // measure 19
00000020
00000230
00000302
00002003
,  // measure 20
00003200
00000000
00000320
00000000
00000031
00001000
00000001
00000000
,  // measure 21
00002000
00000100
00010000
00003100
,  // measure 22
00010000
00001000
00010000
00000000
00001000
01000000
00001000
00000000
,  // measure 23
01000000
01000000
00100000
10000000
01000000
01000000
00100000
00000000
,  // measure 24
02000000
00000000
03000000
10010000
,  // measure 25
10000000
00000000
00000000
01000000
00000000
00000000
21000000
00000000
00000000
00000000
00000000
00000000
30010000
00000000
00000000
00000000
,  // measure 26
00100000
00000000
00000000
00001000
00000000
00000000
00102000
00000000
00000000
00000000
00000000
00000000
00013000
00000000
00000000
00000000
,  // measure 27
00000010
00000000
00000000
00001000
00000000
00000000
00001020
00000000
00000000
00000000
00000000
00000000
00000130
00000000
00000000
00000000
,  // measure 28
00000001
00000000
00000000
00000100
00000000
00000000
00000102
00000000
00000000
00000000
00000000
00000000
00001003
00000000
00000000
00000000
,  // measure 29
00000001
00001000
00000100
00000000
00020000
00000000
00032000
00000000
,  // measure 30
00103000
00010000
01000000
00000000
00200000
00000000
20300000
00000000
,  // measure 31
30010000
00100000
00001000
00000000
00020000
00000000
00030200
00000000
,  // measure 32
00000310
00000001
00001000
00000001
00000100
00000000
00002001
00000000
,  // measure 33
00003010
00000100
00000010
00000100
00002000
00000000
00023000
00000000
,  // measure 34
00130000
01000000
00100000
01000000
00020000
00000000
00230000
00000000
,  // measure 35
01300000
10000000
01000000
10000000
00010000
00100000
00010000
00100000
,  // measure 36
00001000
00000000
00010000
00000000
00000010
00000100
00000110
00000000
,  // measure 37
00001002
00000000
00000103
00000100
00000001
00000010
00000100
00000000
,  // measure 38
00001200
00000000
00010300
00010000
00001000
00100000
00010000
00000000
,  // measure 39
02000000
00000000
00000000
03200000
00000000
00000000
20300000
00000000
00000000
00000000
00000000
00000000
30310000
00000000
00000000
00000000
,  // measure 40
10100000
11000000
01010000
00110000
,  // measure 41
20010000
00000000
30100000
00100000
10000000
01000000
00100000
00000000
,  // measure 42
00210000
00000000
00301000
00001000
00010000
00000100
00001000
00000000
,  // measure 43
00000020
00000000
00000000
00000230
00000000
00000000
00000302
00000000
00000000
00000000
00000000
00000000
00001303
00000000
00000000
00000000
,  // measure 44
00000001
00000100
00000010
00001000
00000200
00000000
00010300
00000000
,  // measure 45
00011000
00000000
00001000
00100000
00001000
00100000
00001000
00100000
,  // measure 46
00010000
00000000
00000000
00010000
00000000
00000000
01000000
00000000
00000000
01000000
00000000
00000000
00100000
00000000
10000000
00000000
,  // measure 47
00010000
00000000
10000000
01000000
10000000
01000000
10000000
01000000
,  // measure 48
00200000
00302000
00023000
00030010
,  // measure 49
00011000
00000000
00010000
00000100
00010000
00000100
00010000
00000100
,  // measure 50
00001000
00000000
00000000
00001000
00000000
00000000
00000010
00000000
00000000
00000010
00000000
00000000
00000100
00000000
00000001
00000000
,  // measure 51
00001000
00000000
00000001
00000010
00000001
00000010
00000001
00000010
,  // measure 52
00000200
00020300
00032000
00103000
,  // measure 53
20010000
00000000
30100000
00100000
01000000
00010000
00100000
00001000
,  // measure 54
00021000
00000000
00030100
00000100
00001000
00000010
00000100
00000001
,  // measure 55
00001000
00000000
00000001
00000000
00001000
00000000
00000001
00000000
00000100
00000000
00000000
00000100
00000000
00000000
00000010
00000000
,  // measure 56
00002000
00000000
00000000
00000000
00003100
00000000
00000000
00000000
00001100
00000000
00000000
00010000
00000000
00000000
00011000
00000000
;

//---------------dance-double - ----------------
#NOTEDATA:;
#CHARTNAME:;
#STEPSTYPE:dance-double;
#DESCRIPTION:;
#CHARTSTYLE:;
#DIFFICULTY:Easy;
#METER:5;
#RADARVALUES:0.227024,0.273289,0.086682,0.356359,0.000000,165.000000,156.000000,9.000000,37.000000,0.000000,0.000000,0.000000,0.000000,0.000000,0.227024,0.273289,0.086682,0.356359,0.000000,165.000000,156.000000,9.000000,37.000000,0.000000,0.000000,0.000000,0.000000,0.000000;
#CREDIT:Ben Speirs;
#NOTES:
// measure 0
00000000
00000000
00000000
00000000
,  // measure 1
00000000
00000000
00000000
00000000
,  // measure 2
00000000
00000000
00000000
00000000
,  // measure 3
00000000
00000000
00000000
00000000
,  // measure 4
00000000
00000000
00000000
00000000
,  // measure 5
00010000
00001000
00000000
00000000
,  // measure 6
00001000
00100000
00000000
00000000
,  // measure 7
00100000
01000000
00000000
00000000
,  // measure 8
01000000
20020000
00000000
30030000
,  // measure 9
10000000
00100000
01000000
00000000
,  // measure 10
00010000
00100000
00001000
00000000
,  // measure 11
00010000
00010000
00000100
00000000
,  // measure 12
00000100
00000100
00000010
00000000
,  // measure 13
00000001
00000100
00000010
00000000
,  // measure 14
00001000
00000100
00010000
00000000
,  // measure 15
00002000
00023000
00030000
00000000
,  // measure 16
00001000
00100000
01000000
10000000
,  // measure 17
00200000
00300000
00100000
00100000
,  // measure 18
01000000
00010000
10000000
00010000
,  // measure 19
00200000
00300000
00002000
00003000
,  // measure 20
00020000
00030000
00000020
00000030
,  // measure 21
00000100
00000100
00000001
00001000
,  // measure 22
00000100
00000100
00010000
00000000
,  // measure 23
00002000
00003000
00200000
00300000
,  // measure 24
02000000
00000000
03000000
01100000
,  // measure 25
20020000
30030000
10000000
00010000
,  // measure 26
00200000
00300000
00001000
00010000
,  // measure 27
00000020
00000030
00000100
00000001
,  // measure 28
00002000
00003000
00000002
00000003
,  // measure 29
00000010
00000010
00000100
00010000
,  // measure 30
00001000
00001000
00100000
00010000
,  // measure 31
01000000
01000000
00100000
10000000
,  // measure 32
00010000
00010000
10000000
00000000
,  // measure 33
00010000
00100000
00001000
00001000
,  // measure 34
00010000
00000010
00000100
00000100
,  // measure 35
00000001
00000010
00000100
00010000
,  // measure 36
00001000
00000000
00000000
00011000
,  // measure 37
20020000
30030000
00010000
01000000
,  // measure 38
02200000
03300000
10000000
00010000
,  // measure 39
00100000
00100000
00002000
00003000
,  // measure 40
00010000
00000010
00000100
00000000
,  // measure 41
00002002
00003003
00001000
00000010
,  // measure 42
00000220
00000330
00000001
00001000
,  // measure 43
00000100
00000100
00020000
00030000
,  // measure 44
00001000
01000000
00100000
00000000
,  // measure 45
10000000
00010000
10000000
00010000
,  // measure 46
02000000
03000000
00002000
00003000
,  // measure 47
00010000
00000100
00010000
00000100
,  // measure 48
00002000
00003000
00000002
00000003
,  // measure 49
00000001
00001000
00000001
00001000
,  // measure 50
00000020
00000030
00020000
00030000
,  // measure 51
00001000
00100000
00001000
00100000
,  // measure 52
00020000
00030000
20000000
30000000
,  // measure 53
00010000
01000000
00001000
00001000
,  // measure 54
00010000
00000100
00000010
00000010
,  // measure 55
00000001
00001000
00000010
00000000
,  // measure 56
00020000
00030000
00001000
00011000
;
