#TITLE:LUCKY CAT;
#SUBTITLE:;
#ARTIST:ちょこふぁん;
#TITLETRANSLIT:;
#SUBTITLETRANSLIT:;
#ARTISTTRANSLIT:Chocolate Fantacy;
#GENRE:;
#CREDIT:;
#MUSIC:LUCKY CAT.ogg;
#BANNER:LUCKY CAT.png;
#BACKGROUND:LUCKY CAT-bg.png;
#CDTITLE:;
#SAMPLESTART:48.847;
#SAMPLELENGTH:15.000;
#SELECTABLE:YES;
#OFFSET:0.000;
#BPMS:0.000=167.000;
#STOPS:;
#BGCHANGES:2.200=LUCKY CAT.mp4=1.000=0=0=0=StretchNoLoop====,
999.000=LUCKY CAT-bg.png=1.000=0=0=1,
99999.000=-nosongbg-=1.000=0=0=0=StretchNoLoop====
;
#FGCHANGES:;

//--------------- dance-single - forcednature ----------------
#NOTES:
     dance-single:
     forcednature:
     Beginner:
     2:
     0,0,0,0,0:
0000
0000
0000
0000
,
0000
0000
0000
0000
,
0000
0000
0000
0000
,
0000
0000
0000
0000
,
0000
0000
0000
0000
,
1000
0000
0000
0000
,
0001
0000
0000
0000
,
0100
0000
0000
0000
,
1001
0000
0000
0000
,
1000
0000
0000
0001
,
0010
0000
0000
0000
,
0100
0000
0000
0000
,
1000
0000
0000
0000
,
0001
0000
0100
0000
,
0001
0000
0000
0000
,
1000
0000
0000
0000
,
0100
0000
0000
0000
,
0010
0000
0001
0000
,
1000
0000
0000
0000
,
0010
0000
0000
0000
,
0000
0100
0000
0100
,
0001
0000
1000
0000
,
0100
0000
0000
0000
,
0010
0000
0000
0000
,
0000
0001
0000
0001
,
1000
0000
0010
0000
,
0100
0000
0000
0000
,
0001
0000
0000
0000
,
1000
0000
0100
0000
,
1000
0000
0000
0000
,
0001
0000
0000
0000
,
0010
0000
0000
0000
,
0001
0000
0100
0000
,
0010
0010
0010
0000
,
1000
1000
0001
0000
,
0010
0000
0100
0000
,
0010
0000
0001
0000
,
1000
0000
0000
0000
,
0010
0010
0100
0000
,
0001
0000
0010
0000
,
0001
0000
1000
0000
,
0010
0000
0000
0000
,
0100
0100
0001
0000
,
1000
0000
0100
0000
,
0010
0000
0001
0000
,
1000
0000
0000
0000
,
0010
0010
0100
0000
,
0001
0000
0010
0000
,
0001
0000
1000
0000
,
2002
0000
3003
0000
,
1000
0000
0100
0000
,
1000
0000
0000
0000
,
0001
0000
0100
0000
,
0001
0000
0000
0000
,
0010
0000
0100
0000
,
0010
0000
0001
0000
,
1000
0000
0001
0000
,
0100
0000
0000
0000
,
0001
0000
0010
0000
,
0001
0000
0000
0000
,
1000
0000
0010
0000
,
1000
0000
0000
0000
,
0100
0000
0010
0000
,
0100
0000
1000
0000
,
0001
0000
1000
0000
,
2002
0000
3003
0000
,
0001
0000
0000
0000
,
0100
0000
0000
0000
,
0010
0000
0000
0000
,
1000
0000
0001
0000
,
1000
0000
0000
0000
,
0100
0000
0000
0000
,
0010
0000
0000
0000
,
1001
0000
0001
0000
,
0100
0000
0010
0000
,
1000
0000
0000
2002
,
0000
0000
0000
0000
,
0000
0000
0000
0000
,
3003
0000
0000
0000
;

//--------------- dance-single - forcednature ----------------
#NOTES:
     dance-single:
     forcednature:
     Easy:
     6:
     0,0,0,0,0:
0000
0000
0000
0000
,
0000
0000
0000
0000
,
0000
0000
0000
0000
,
0000
0000
0000
0000
,
0000
0000
0000
0000
,
0002
0000
2003
0000
,
3200
0000
0000
0000
,
0320
0000
0032
0003
,
2002
0000
3003
0000
,
0100
0010
0000
0110
,
1000
0000
0001
0100
,
0001
0000
1000
0010
,
1000
0000
0001
0010
,
0200
0000
0320
0000
,
0031
0000
1000
0100
,
1000
0000
0001
0100
,
0001
0000
0010
0100
,
0220
0330
2002
3003
,
0001
0001
0100
0000
,
0010
1000
0001
0000
,
0000
1100
0000
0011
,
0001
0100
0010
1000
,
0010
0010
0100
0000
,
0001
1000
0100
0000
,
0000
1010
0000
0101
,
0001
0001
1000
0010
,
0100
0000
0001
1000
,
0100
0000
1000
0001
,
0010
0010
0100
0100
,
1000
0001
0100
0000
,
0010
0000
1000
0001
,
0100
0000
0001
1000
,
0010
0000
0000
0000
0100
0000
0000
1001
,
0000
0010
0110
0000
,
1001
1001
0001
0000
,
1000
0100
1000
0000
,
0010
0100
0010
0000
,
1000
0001
1000
0000
,
1001
1001
1000
0000
,
0001
0100
0001
0000
,
0010
0100
0010
0001
,
2000
0000
3000
0000
,
0110
0110
0010
0000
,
1000
0001
1000
0000
,
0001
0100
0001
0000
,
1000
0100
1000
0000
,
0110
0110
0100
0000
,
0001
1000
0001
0000
,
1000
0010
0100
0001
,
2000
0000
0000
3001
,
1000
1000
0100
0010
,
0001
1000
0002
0003
,
0100
0100
0010
1000
,
0001
0010
0200
0000
,
0310
0010
0001
1000
,
0010
0100
0001
1000
,
0100
1000
0001
0100
,
0020
0000
0000
0030
,
1000
1000
0001
0010
,
0001
0100
0020
0030
,
1000
1000
0100
0010
,
0100
1000
0002
0000
,
0103
0100
0010
1000
,
0001
0010
0100
1000
,
0001
0100
0001
1000
,
0020
0000
0000
0130
,
1001
0001
1000
0010
,
1000
0001
0010
0001
,
0100
0010
1000
0001
,
0020
0000
0230
0000
,
1300
0001
0100
0010
,
1000
0100
1000
0001
,
0100
0010
1000
0001
,
2002
3003
0220
0330
,
1000
0000
0000
0000
0001
0000
0000
0000
0100
0000
0000
0100
0000
0000
0000
0000
,
0010
0000
0000
0010
0000
0000
0010
0000
0000
0000
0000
0000
2002
0000
0000
0000
,
0000
0000
0000
0000
,
0000
0000
0000
0000
,
3003
0000
0000
0000
;

//--------------- dance-single - forcednature ----------------
#NOTES:
     dance-single:
     forcednature:
     Medium:
     8:
     0,0,0,0,0:
0000
0000
0000
0000
,
0000
0000
0000
0000
,
0000
0000
0000
0000
,
0000
0000
0000
0000
,
0000
0000
0000
0000
,
1000
0000
1000
0000
0001
0100
0001
0000
,
0010
0100
1000
0001
,
0100
0010
0100
0000
0001
1000
0001
0000
,
1100
0000
0101
0000
,
0010
0010
0010
0000
0100
0000
1001
0000
,
0001
0000
0000
0000
0100
0000
0000
0000
0010
0000
0000
1000
0000
0000
0010
0000
,
0100
0000
0000
0000
0001
0000
0000
0000
1000
0000
0000
0100
0000
0000
0010
0000
,
0100
0000
0000
0000
1000
0000
0000
0000
0001
0000
0000
0100
0000
0000
0001
0000
,
0010
0000
0000
0100
0000
0000
0000
2000
0000
0000
0001
0000
3001
0000
0000
0000
,
1000
0000
0000
0000
0010
0000
0000
0000
0100
0000
0000
0001
0000
0000
1000
0000
,
0001
0000
0000
0000
0010
0000
0000
0000
0100
0000
0000
1000
0000
0000
0001
0000
,
0100
0000
0000
0000
0010
0000
0000
0000
1000
0000
0000
0001
0000
0000
0010
0000
,
0200
0000
0300
0000
1001
0000
0010
0100
,
0010
0000
0110
0000
1000
0001
1000
0000
,
0010
0000
0100
0001
2000
0000
3000
0001
,
0001
0000
0200
0001
0301
0000
0200
0000
,
0320
2030
3002
0023
,
0130
0000
0110
0000
0001
1000
0100
0000
,
1000
0000
0010
0100
0002
0000
0003
1000
,
1000
0000
0200
1000
1300
0000
0200
0000
,
0310
1001
0110
1001
,
1000
0000
0000
0100
0000
0000
1000
0000
0001
0000
0000
0010
0000
0000
0001
0000
,
1000
0000
0000
0010
0000
0000
1000
0000
0001
0000
0000
0100
0000
0000
0001
0000
,
0010
0000
0000
0100
0000
0000
0010
0000
0001
0000
0000
1000
0000
0000
0001
0000
,
0100
0000
0000
0010
0000
0000
1000
0000
0002
0000
0000
0000
0003
0000
0000
0000
,
0001
0000
0000
0100
0000
0000
0001
0000
1000
0000
0000
0010
0000
0000
1000
0000
,
0001
0000
0000
0010
0000
0000
0001
0000
1000
0000
0000
0100
0000
0000
1000
0000
,
0010
0000
0000
0100
0000
0000
0010
0000
1000
0000
0000
0000
0001
0000
0001
0000
,
0000
0100
0001
0100
0002
0000
0003
0000
,
1001
0000
1001
0000
1000
0010
1000
0000
,
0001
0010
0220
0330
,
0002
0000
2003
0000
3001
0010
0001
0000
,
0100
0010
0220
0330
,
1001
0000
1001
0000
0001
0100
0001
0000
,
1000
0100
0010
0001
,
0100
0001
0100
0000
0010
1000
0010
0000
,
0200
0001
0001
0300
,
1001
0000
1001
0000
0001
0010
0001
0000
,
1000
0010
0220
0330
,
2000
0000
3002
0000
1003
0010
1000
0000
,
0100
0010
0220
0330
,
1001
0000
1001
0000
1000
0100
1000
0000
,
0001
0100
0010
1000
,
0100
1000
0100
0000
0010
0001
0010
0000
,
0200
1000
1300
1001
,
0001
0000
0100
0000
0010
1000
0010
0000
,
0200
0302
2003
3000
,
1000
0000
0100
0000
0010
0001
0010
0000
,
0200
2300
3002
0000
,
0103
0000
0010
0000
1000
0001
1000
0000
,
0200
0320
0032
2003
,
3001
0100
0001
0000
1000
0100
1000
0000
,
0020
0100
0100
0030
,
1000
0000
0100
0000
0010
0001
1000
0001
,
0200
0320
2030
3000
,
0001
0000
0100
0000
0010
1000
0001
1000
,
0200
0320
0032
0000
,
0103
0000
0010
0000
1000
0001
1000
0100
,
0020
0032
2003
3020
,
0130
0001
1000
0000
0100
1000
0001
0000
,
2002
0000
3003
0110
,
1000
0000
0000
0000
0100
0000
0000
0000
0010
0000
0000
0001
0000
0000
1000
0000
,
0010
0000
0000
0000
0100
0000
0000
0000
0001
0000
0000
0001
0000
0000
0010
0000
,
0100
0000
0000
0000
1000
0000
0000
0000
0001
0000
0000
0100
0000
0000
0010
0000
,
1000
0000
0000
0001
0000
0000
0000
0020
0000
0000
0100
0000
0130
0000
0000
0000
,
0010
0000
0000
0000
0001
0000
0000
0000
1000
0000
0000
0010
0000
0000
0100
0000
,
0001
0000
0000
0000
1000
0000
0000
0000
0100
0000
0000
0100
0000
0000
0010
0000
,
0001
0000
0000
0000
1000
0000
0000
0000
0010
0000
0000
0100
0000
0000
0001
0000
,
0020
0000
0030
0000
1001
0000
0100
0010
,
0100
0000
0000
0000
0110
0000
0000
0000
1000
0000
0000
0001
0000
0000
1000
0000
,
0100
0000
0000
0010
0000
0000
0110
0000
0000
0000
0000
0000
2002
0000
0000
0000
,
0000
0000
0000
0000
,
0000
0000
0000
0000
,
3003
0000
0000
0000
;

//--------------- dance-single - forcednature ----------------
#NOTES:
     dance-single:
     forcednature:
     Hard:
     11:
     0,0,0,0,0:
0000
0000
0000
0000
,
0000
0000
0000
0000
,
0000
0000
0000
0000
,
0000
0000
0000
0000
,
0000
0000
0000
0000
,
0001
0000
0001
0000
1000
0010
0100
0001
,
1000
0100
0010
0001
,
0100
0010
0100
0001
1000
0100
1000
0010
,
0210
0000
0002
0303
,
1000
0000
1000
0000
0100
0000
0010
0001
0010
0000
0001
0000
0011
0000
0000
0000
,
0001
0000
0100
0000
0010
0000
0100
0000
0001
0000
0000
1000
0000
0000
0100
0000
,
1000
0000
0010
0000
0100
0000
0010
0000
2000
0000
0000
0001
0000
0000
3010
0000
,
1000
0000
0100
0000
0010
0000
0100
0000
1000
0000
0000
0001
0000
0000
0010
0000
,
0001
0000
0100
0010
0000
1000
0000
0002
0000
0000
0013
0000
0100
0000
1000
0000
,
0001
0000
0100
0000
1000
0000
0100
0000
0010
0000
0000
1000
0000
0000
0001
0000
,
0010
0000
0100
0000
1000
0000
0100
0000
0020
0000
0000
0001
0000
0000
0130
0000
,
0010
0000
0001
0000
1000
0000
0001
0000
0100
0000
0000
0010
0000
0000
1000
0000
,
2002
0000
0000
0000
3003
0000
0000
0000
0110
0000
0000
0001
1000
0000
0001
0000
,
0100
0000
0000
0000
0101
0000
0000
0000
0001
0000
1000
0000
0010
0000
0000
0100
,
0000
0000
0001
0000
1000
0000
0000
0200
0000
0000
0000
0000
1300
0000
0001
0000
,
0100
0000
1010
0001
0100
0000
1010
0000
,
1100
0110
0011
1001
,
0010
0000
0000
0000
0101
0000
0000
0000
1000
0000
0001
0000
0100
0000
0000
0010
,
0000
0000
1000
0000
0001
0000
0000
0020
0000
0000
0000
0000
0031
0000
1000
0000
,
0100
0000
0011
1000
0100
0000
0011
0000
,
0101
1010
1100
0011
,
1001
0000
0000
1000
0000
0000
0001
0000
0100
0000
0000
0010
0000
0000
1000
0000
,
0001
0000
0000
0010
0000
0000
0001
0000
0100
0000
0000
0010
0000
0000
1000
0000
,
0100
0000
0000
0001
0000
0000
0100
0000
1000
0000
0000
0001
0000
0000
0010
0000
,
0001
0000
0000
0100
0000
0000
1000
0000
0200
0000
0000
0000
0300
0000
0000
0000
,
0010
0000
0000
1000
0000
0000
0001
0000
0010
0000
0000
0001
0000
0000
0100
0000
,
0010
0000
0000
1000
0000
0000
0001
0000
0010
0000
0000
0100
0000
0000
0001
0000
,
0100
0000
0000
1000
0000
0000
0001
0000
0100
0000
0010
0000
1000
0000
1001
0000
,
0000
0010
0100
0010
0220
0000
0330
0000
,
1000
0001
0000
0000
1000
0001
0000
0000
0100
0000
0010
0000
1000
0000
0001
0000
,
0010
0011
2200
3300
,
1010
0000
0101
0000
0001
0010
0001
0100
,
0010
1010
2200
3300
,
0001
0010
0000
0000
0001
0010
0000
0000
0001
0000
0100
0000
1000
0000
0100
0000
,
0020
2030
3002
0023
,
0130
1000
0100
0010
0001
1000
0010
0200
,
1000
0000
0010
0000
0001
0001
0301
0000
,
1000
0001
0000
0000
1000
0001
0000
0000
0010
0000
0100
0000
1000
0000
0001
0000
,
0100
0110
2020
3030
,
0011
0000
0101
0000
0100
0010
0100
0001
,
0010
1100
0202
0303
,
1000
0010
0000
0000
1000
0010
0000
0000
1000
0000
0100
0000
0001
0000
0100
0000
,
0020
0032
2003
3020
,
0130
1000
0100
0001
1000
0010
1000
0001
,
0020
0000
1000
0000
0130
0010
0011
0000
,
1001
0000
1001
0000
0001
0010
0100
1000
,
0010
0110
0202
0303
,
1010
0000
1100
0000
0100
0010
0001
0100
,
0010
0110
2002
3003
,
0101
0000
0101
0000
1000
0001
0010
0001
,
0200
0320
2030
3002
,
0013
1000
0010
0001
0100
0010
1000
0002
,
0010
0000
1000
0000
0100
0100
0103
0000
,
0101
0000
0101
0000
0001
0010
0001
0100
,
0010
1010
0202
0303
,
0011
0000
0110
0000
0100
1000
0010
0100
,
0001
0011
2020
3030
,
1100
0000
1100
0000
1000
0010
0100
0001
,
0020
0230
2300
3002
,
0103
1000
0100
0001
1000
0001
0010
0001
,
0200
0000
1000
0000
0310
0100
0101
0000
,
0001
0000
0010
0000
0001
0000
0100
0000
0010
0000
0000
1000
0000
0000
0001
0000
,
0010
0000
0100
0000
1000
0000
0100
0000
0020
0000
0000
1000
0000
0000
0031
0000
,
0010
0000
0100
0000
1000
0000
0001
0000
0100
0000
0000
0010
0000
0000
1000
0000
,
0001
0000
0010
0001
0000
0100
0000
0020
0000
0000
1030
0000
0001
0000
0010
0000
,
0100
0000
1000
0000
0100
0000
0010
0000
0001
0000
0000
0100
0000
0000
0010
0000
,
1000
0000
0001
0000
0010
0000
0001
0000
0200
0000
0000
1000
0000
0000
0301
0000
,
0100
0000
0010
0000
1000
0000
0001
0000
0010
0000
0000
0100
0000
0000
1000
0000
,
2002
0000
0000
0000
3003
0000
0000
0000
0110
0000
0000
1000
0001
0000
0100
0000
,
0101
0000
0000
0000
1010
0000
0000
0000
1100
0000
0000
0011
0000
0000
0001
1000
,
0010
0000
0000
1001
0000
0000
0110
0000
0000
0000
0000
0000
2002
0000
0000
0000
,
0000
0000
0000
0000
,
0000
0000
0000
0000
,
3003
0000
0000
0000
;

//--------------- dance-single - forcednature ----------------
#NOTES:
     dance-single:
     forcednature:
     Challenge:
     15:
     0,0,0,0,0:
0000
0000
0000
0000
,
0000
0000
0000
0000
,
0000
0000
0000
0000
,
0000
0000
0000
0000
,
0000
0000
0000
0000
,
1000
0000
1000
0000
0001
0100
0010
1000
,
0100
0010
0001
1000
,
0010
0100
0001
0100
0010
1000
0001
0010
,
0220
0330
2002
3003
,
0001
0000
0001
0000
0100
0000
0010
1000
0010
1000
0001
0000
0011
0000
0000
0000
,
0010
0000
0100
0000
1000
0000
0001
0000
0100
0000
0010
1000
0000
1000
0001
0000
,
0010
0000
0100
0000
1000
0000
0001
0100
0001
0000
0010
0100
0000
0100
1000
0000
,
0001
0000
0100
0000
0001
0000
0010
0000
0100
0000
1000
0001
0000
0001
0100
0000
,
0010
0000
1000
0100
0000
0100
0000
0020
0000
0000
0031
1000
0010
0100
0001
0000
,
0010
0000
0100
0000
0010
0000
0001
0000
1000
0000
0010
0100
0000
0100
0001
0000
,
1000
0000
0100
0000
0010
0000
0100
1000
0001
0000
0100
0001
0000
0001
0010
0000
,
0100
0000
1000
0000
0001
0000
0100
0000
0010
0000
1000
0100
0000
0100
0010
0000
,
0011
0000
0001
1000
0000
1000
0000
0010
0100
0000
0001
0010
0100
1000
0010
0000
,
1010
0000
0000
0000
0101
0000
0000
0000
0001
0000
0010
0000
0100
1000
0000
0100
,
0010
0000
0001
0000
1000
0010
0000
2000
0100
0000
0000
0000
3010
0000
1000
0100
,
0001
0000
0100
0000
1100
0000
1000
0100
0001
0000
0100
0000
1100
0000
1000
0000
,
0010
0100
0000
0000
0001
0010
0000
0000
0100
1000
0000
0000
0001
0100
0000
0000
,
0110
0000
0000
0000
1001
0000
0000
0000
1000
0000
0010
0000
1000
0100
0000
0010
,
0001
0000
0100
0000
0001
1000
0000
0020
0100
0000
0000
0000
1030
0000
0001
0100
,
1000
0000
0100
0000
0101
0000
0001
0100
1000
0000
0100
0000
0101
0000
0001
0000
,
0011
1100
1010
0101
,
1001
0000
0000
0001
0010
0000
0100
0000
1000
0000
0000
0010
0100
0000
0001
0000
,
1000
0000
0000
1000
0100
0000
0010
0000
0001
0000
0000
0100
0010
0000
1000
0000
,
0001
0010
0000
0001
1000
0000
0100
0000
1000
0010
0000
1000
0001
0000
0100
0000
,
0101
0000
0000
0011
0000
0000
1000
0000
2200
0000
0000
0000
3300
0000
0000
0000
,
0011
0000
0000
0001
0100
0000
1000
0000
0100
0000
0000
0010
1000
0000
0001
0000
,
1010
0000
0000
1000
0100
0000
0001
0000
0100
0000
0000
0010
0001
0000
1000
0000
,
1001
0000
0000
0001
0100
0000
1000
0000
0001
0000
0010
0000
1000
0000
1010
0000
,
0000
0000
0001
0000
0101
0000
1000
0000
1100
0000
0000
0000
0001
1000
0001
1000
,
0100
0010
0001
0000
0010
0100
1000
0000
0001
0000
1000
0000
0010
0000
0100
0000
,
0001
0010
0000
0000
0100
1000
0000
0000
0001
0100
0000
0000
MMMM
0000
0000
0000
,
1000
0010
1000
0000
0001
0010
0001
0000
0100
0000
1000
0000
0100
0000
0001
0000
,
0010
0100
0000
0000
1000
0010
0000
0000
0001
0010
0000
0000
MMMM
0000
0000
0000
,
0001
1000
0100
0000
1000
0001
0100
0000
0010
0000
0001
0000
0010
0000
1000
0000
,
0100
0010
0000
0000
0001
0100
0000
0000
0010
0001
0000
0000
0010
1000
0000
0000
,
0100
0010
0001
0100
1000
0001
0010
1000
,
0010
1000
0010
0000
1000
0100
1000
0000
0100
0000
0010
0001
0010
0000
0001
0000
,
1000
0010
0100
0000
0001
0100
0010
0000
1000
0000
0001
0000
0010
0000
0001
0000
,
0100
0010
0000
0000
1000
0100
0000
0000
0010
0001
0000
0000
MMMM
0000
0000
0000
,
0010
1000
0010
0000
0100
0001
0100
0000
0010
0000
1000
0000
0100
0000
1000
0000
,
0010
0100
0000
0000
1000
0100
0000
0000
0001
0010
0000
0000
MMMM
0000
0000
0000
,
1000
0001
0010
0000
0001
1000
0010
0000
0100
0000
0001
0000
1000
0000
0001
0000
,
0010
0100
0000
0000
0001
0100
0000
0000
1000
0001
0000
0000
0100
0010
0000
0000
,
0001
0010
1000
0001
0010
0100
0001
0100
,
1100
0000
1000
0000
0001
0000
0100
0010
1000
0001
0010
0000
0110
0000
0000
0000
,
0200
1000
0000
0000
0320
0001
0000
0000
0130
0000
1000
0000
0001
0000
0100
0000
,
0120
2030
3002
0003
,
2000
0100
0000
0000
3002
0010
0000
0000
1003
0000
0010
0000
0001
0000
0010
0000
,
0200
0001
0302
0010
0020
0000
0003
0000
,
0032
1000
0000
0000
0203
0010
0000
0000
0301
0000
0010
0000
0100
0000
0001
0000
,
0200
2300
3020
0032
,
1003
0000
0100
0000
0001
0000
0100
0000
0010
0000
1000
0000
0001
0000
0010
0100
,
1000
0100
1000
0000
0001
0100
0001
0000
0010
0000
0010
0100
1000
0000
1000
0000
,
0002
0100
0000
0000
2003
0100
0000
0000
3010
0000
1000
0000
0100
0000
0001
0000
,
0200
0320
0032
0003
,
0200
0010
0000
0000
0302
1000
0000
0000
0013
0000
0100
0000
0001
0000
0100
0000
,
2000
0010
3020
0001
0002
0000
0030
0000
,
0023
0100
0000
0000
2030
0001
0000
0000
3100
0000
0001
0000
0100
0000
1000
0000
,
0020
0230
2300
3002
,
0013
1000
0001
1000
0100
0001
0100
1000
,
1010
0000
0010
0000
0100
0000
0001
0010
0100
1000
0010
0000
0110
0000
0000
0000
,
1000
0000
0001
0000
0010
0000
0001
0000
0100
0000
0010
1000
0000
1000
0001
0000
,
0010
0000
0100
0000
1000
0000
0001
0100
0001
1000
0100
0010
0000
0001
0010
0000
,
0001
0000
0100
0000
0001
0000
0010
0000
0100
0000
1000
0001
0000
0001
0100
0000
,
0010
1000
0001
1000
0000
0100
0000
0020
0000
0000
0031
1000
0001
0100
0010
0000
,
1000
0000
0100
0000
1000
0000
0010
0000
0100
0000
0001
0010
0000
0010
0100
0000
,
0001
0000
0100
0000
1000
0000
0001
0010
0001
1000
0010
0100
0000
0001
0010
0000
,
0100
0000
1000
0000
0001
0000
0100
0000
1000
0000
0100
0001
0000
0001
0010
0000
,
0110
0000
0100
1000
0000
1000
0000
0001
0100
0000
0010
1000
0001
0010
0100
0000
,
0011
0000
0000
0000
1010
0000
0000
0000
0110
0000
0000
1001
0000
0000
1000
0100
,
0001
0000
0000
0101
0000
0000
1100
0000
0000
0000
0000
0000
2002
0000
0000
0000
,
0000
0000
0000
0000
,
0000
0000
0000
0000
,
3003
0000
0000
0000
;

//--------------- dance-double - forcednature ----------------
#NOTES:
     dance-double:
     forcednature:
     Easy:
     6:
     0,0,0,0,0:
00000000
00000000
00000000
00000000
,
00000000
00000000
00000000
00000000
,
00000000
00000000
00000000
00000000
,
00000000
00000000
00000000
00000000
,
00000000
00000000
00000000
00000000
,
00020000
00000000
00030200
00000000
,
00002300
00000000
00000000
00000000
,
00003020
00000000
00020030
00030000
,
00022000
00000000
00033000
00000000
,
01000000
00100000
00000000
01100000
,
10000000
00000000
00010000
00100000
,
00001000
00000000
00010000
00000010
,
00001000
00000000
00000100
00000010
,
00000002
00000000
00002003
00000000
,
00003010
00000000
00010000
00001000
,
00100000
00000000
00010000
01000000
,
00100000
00000000
10000000
00010000
,
20020000
30030000
02200000
03300000
,
00010000
00010000
01000000
00000000
,
00001000
00010000
00000100
00000000
,
00000000
00000110
00000000
00000110
,
00000000
00000010
00000001
00000100
,
00000010
00000010
00001000
00000000
,
00000100
00010000
00001000
00000000
,
00000000
01100000
00000000
01100000
,
00000000
10000000
00010000
00100000
,
01000000
00000000
00100000
00001000
,
00010000
00000000
00000010
00001000
,
00000100
00000100
00000010
00000010
,
00000001
00001000
00000001
00000000
,
00000100
00000000
00000010
00010000
,
00001000
00000000
00100000
00010000
,
01000000
00000000
00000000
00000000
00100000
00000000
00000000
10010000
,
00000000
01000000
01100000
00000000
,
10010000
10010000
00010000
00000000
,
01000000
00001000
00010000
00000000
,
00000100
00001000
00000100
00000000
,
00000010
00000001
00001000
00000000
,
00001001
00001001
00000001
00000000
,
00001000
00000010
00010000
00000000
,
00001000
00100000
00010000
00100000
,
02000000
00000000
03000000
00000000
,
01100000
01100000
00100000
00000000
,
01000000
10000000
00010000
00000000
,
01000000
00001000
00010000
00000000
,
00000100
00001000
00000010
00000000
,
00000110
00000110
00000010
00000000
,
00001000
00000001
00000010
00000000
,
00000100
00001000
00000100
00010000
,
00002000
00000000
00000000
01003000
,
00001000
00001000
00010000
00001000
,
01000000
00010000
00200000
00300000
,
00001000
00010000
00001000
00010000
,
00000100
00001000
00000020
00000000
,
00000130
00000100
00000001
00000010
,
00000100
00010000
00001000
00100000
,
01000000
10000000
01000000
00100000
,
00002000
00000000
00000000
00003000
,
00010000
00010000
00001000
00010000
,
00000100
00001000
00000020
00000030
,
00010000
00001000
00010000
00001000
,
01000000
00010000
00200000
00000000
,
01300000
01000000
10000000
00100000
,
01000000
00001000
00010000
00000010
,
00000100
00000001
00000100
00000010
,
00020000
00000000
00000000
00031000
,
00011000
00000000
00010000
00001000
,
01000000
00010000
00100000
01000000
,
00100000
00010000
01000000
00001000
,
00020000
00000000
00030200
00000000
,
00001300
00000010
00000100
00000010
,
00001000
00000001
00000010
00000001
,
00000100
00000010
00001000
00000100
,
00020200
00030300
02002000
03003000
,
00001000
00000000
00000000
00000000
00001000
00000000
00000000
00000000
01000000
00000000
00000000
01000000
00000000
00000000
00000000
00000000
,
00010000
00000000
00000000
00100000
00000000
00000000
01000000
00000000
00000000
00000000
00000000
00000000
20020000
00000000
00000000
00000000
,
00000000
00000000
00000000
00000000
,
00000000
00000000
00000000
00000000
,
30030000
00000000
00000000
00000000
;

//--------------- dance-double - forcednature ----------------
#NOTES:
     dance-double:
     forcednature:
     Medium:
     9:
     0,0,0,0,0:
00000000
00000000
00000000
00000000
,
00000000
00000000
00000000
00000000
,
00000000
00000000
00000000
00000000
,
00000000
00000000
00000000
00000000
,
00000000
00000000
00000000
00000000
,
00001000
00000000
00001000
00000000
01000000
00010000
01000000
00000000
,
00100000
10000000
00010000
10000000
,
01000000
00100000
01000000
00000000
00010000
00001000
00010000
00000000
,
00010100
00000000
01001000
00000000
,
00100000
00100000
00100000
00000000
00001000
00000000
00011000
00000000
,
00010000
00000000
00000000
00000000
00000010
00000000
00000000
00000000
00001000
00000000
00000000
00000100
00000000
00000000
00001000
00000000
,
00000001
00000000
00000000
00000000
00000100
00000000
00000000
00000000
00000010
00000000
00000000
00010000
00000000
00000000
00001000
00000000
,
01000000
00000000
00000000
00000000
00010000
00000000
00000000
00000000
00100000
00000000
00000000
01000000
00000000
00000000
00100000
00000000
,
00010000
00000000
00000000
01000000
00000000
00000000
00000000
00002000
00000000
00000000
00010000
00000000
00013000
00000000
00000000
00000000
,
00000100
00000000
00000000
00000000
00001000
00000000
00000000
00000000
00000010
00000000
00000000
00000100
00000000
00000000
00000001
00000000
,
00000010
00000000
00000000
00000000
00000100
00000000
00000000
00000000
00010000
00000000
00000000
00001000
00000000
00000000
01000000
00000000
,
00010000
00000000
00000000
00000000
00100000
00000000
00000000
00000000
01000000
00000000
00000000
10000000
00000000
00000000
00010000
00000000
,
02000000
00000000
03000000
00000000
00011000
00000000
00000100
00001000
,
00000100
00000000
00000110
00000000
00000010
00000001
00000010
00000000
,
00000100
00000000
00010000
00001000
02000000
00000000
03000000
00010000
,
00010000
00000000
00200000
00010000
00310000
00000000
00200000
00000000
,
02300000
23000000
30020000
02030000
,
03001000
00000000
00011000
00000000
00010000
00000100
00001000
00000000
,
00001000
00000000
00000001
00000010
00000200
00000000
00000300
00001000
,
00001000
00000000
00000020
00001000
00001030
00000000
00000020
00000000
,
00010030
00010100
00011000
01001000
,
00001000
00000000
00000000
01000000
00000000
00000000
00001000
00000000
00010000
00000000
00000000
00000010
00000000
00000000
00010000
00000000
,
00001000
00000000
00000000
00100000
00000000
00000000
00001000
00000000
00010000
00000000
00000000
00000100
00000000
00000000
00010000
00000000
,
00000010
00000000
00000000
00001000
00000000
00000000
00000100
00000000
00010000
00000000
00000000
00001000
00000000
00000000
01000000
00000000
,
00010000
00000000
00000000
00100000
00000000
00000000
01000000
00000000
20000000
00000000
00000000
00000000
30000000
00000000
00000000
00000000
,
00010000
00000000
00000000
01000000
00000000
00000000
00001000
00000000
00010000
00000000
00000000
00000100
00000000
00000000
00001000
00000000
,
00000010
00000000
00000000
00010000
00000000
00000000
00001000
00000000
00100000
00000000
00000000
00010000
00000000
00000000
10000000
00000000
,
01000000
00000000
00000000
00010000
00000000
00000000
00001000
00000000
00010000
00000000
00000000
00000000
00000100
00000000
00000100
00000000
,
00000000
00001000
00000001
00001000
00000002
00000000
00000003
00000000
,
00000110
00000000
00000110
00000000
00001000
00000100
00010000
00000000
,
00001000
01000000
02200000
03300000
,
00020000
00000000
20030000
00000000
30010000
01000000
00010000
00000000
,
00100000
00001000
00022000
00033000
,
01100000
00000000
01100000
00000000
10000000
01000000
10000000
00000000
,
00100000
00010000
00001000
00000100
,
00000010
00001000
00000010
00000000
00000100
00000001
00000100
00000000
,
00000020
00010000
00010000
00000030
,
00011000
00000000
00011000
00000000
00100000
00010000
00100000
00000000
,
01000000
10000000
22000000
33000000
,
00020000
00000000
02030000
00000000
03001000
00010000
00001000
00000000
,
00100000
00010000
00220000
00330000
,
01001000
00000000
01001000
00000000
00001000
00010000
00001000
00000000
,
00000010
00000100
00001000
00000010
,
00000100
00001000
00010000
00000000
00100000
00010000
00001000
00000000
,
02000000
00010000
03010000
10100000
,
10000000
00000000
01000000
00000000
00100000
00010000
00100000
00000000
,
00002000
00023000
00030200
00000300
,
00001000
00000000
00000010
00000000
00010000
00001000
00010000
00000000
,
00000020
00002030
00003002
00000000
,
00000013
00000000
00000100
00000000
00010000
00001000
00010000
00000000
,
00000020
00020030
00032000
02003000
,
03010000
00100000
00001000
00000000
00010000
00000100
00001000
00000000
,
00000020
00001000
00001000
00000030
,
00000001
00000000
00000100
00000000
00000010
00001000
00000010
00000000
,
00020000
00032000
02003000
03000000
,
00010000
00000000
00100000
00000000
00001000
00010000
00001000
00000000
,
00200000
00320000
20030000
00000000
,
30100000
00000000
01000000
00000000
00001000
00010000
00001000
00000000
,
00200000
00302000
00023000
00030200
,
00001300
00000010
00010000
00000000
00001000
01000000
00010000
00000000
,
00200000
00010000
00310000
11000000
,
10000000
00000000
00000000
00000000
00010000
00000000
00000000
00000000
01000000
00000000
00000000
00001000
00000000
00000000
00010000
00000000
,
00000100
00000000
00000000
00000000
00001000
00000000
00000000
00000000
00000010
00000000
00000000
00000010
00000000
00000000
00000100
00000000
,
00000001
00000000
00000000
00000000
00000010
00000000
00000000
00000000
00000100
00000000
00000000
00010000
00000000
00000000
00001000
00000000
,
01000000
00000000
00000000
00010000
00000000
00000000
00000000
00200000
00000000
00000000
01000000
00000000
01300000
00000000
00000000
00000000
,
00100000
00000000
00000000
00000000
00010000
00000000
00000000
00000000
10000000
00000000
00000000
00100000
00000000
00000000
01000000
00000000
,
00010000
00000000
00000000
00000000
00100000
00000000
00000000
00000000
00001000
00000000
00000000
00001000
00000000
00000000
00010000
00000000
,
00000010
00000000
00000000
00000000
00001000
00000000
00000000
00000000
00000001
00000000
00000000
00000010
00000000
00000000
00000100
00000000
,
00002000
00000000
00003000
00000000
00000011
00000000
00000001
00000100
,
00001000
00000000
00000000
00000000
00011000
00000000
00000000
00000000
00010000
00000000
00000000
00100000
00000000
00000000
10000000
00000000
,
00010000
00000000
00000000
00100000
00000000
00000000
01100000
00000000
00000000
00000000
00000000
00000000
20020000
00000000
00000000
00000000
,
00000000
00000000
00000000
00000000
,
00000000
00000000
00000000
00000000
,
30030000
00000000
00000000
00000000
;

//--------------- dance-double - forcednature ----------------
#NOTES:
     dance-double:
     forcednature:
     Hard:
     12:
     0,0,0,0,0:
00000000
00000000
00000000
00000000
,
00000000
00000000
00000000
00000000
,
00000000
00000000
00000000
00000000
,
00000000
00000000
00000000
00000000
,
00000000
00000000
00000000
00000000
,
00010000
00000000
00010000
00000000
00000100
00001000
00000100
00000010
,
00000001
00000100
00001000
00010000
,
00100000
01000000
00100000
10000000
00010000
00100000
00010000
01000000
,
01002000
00000000
00020000
00033000
,
00000100
00000000
00000100
00000000
00001000
00000000
00000001
00000100
00000001
00000000
00000010
00000000
00000110
00000000
00000000
00000000
,
00000100
00000000
00010000
00000000
00001000
00000000
00010000
00000000
00100000
00000000
00000000
01000000
00000000
00000000
00100000
00000000
,
10000000
00000000
00010000
00000000
00100000
00000000
00010000
00000000
02000000
00000000
00000000
00010000
00000000
00000000
03001000
00000000
,
01000000
00000000
00100000
00000000
10000000
00000000
00010000
00000000
00100000
00000000
00000000
00001000
00000000
00000000
00010000
00000000
,
00000010
00000000
00001000
00000100
00000000
00000010
00000000
00000002
00000000
00000000
00000103
00000000
00000010
00000000
00000100
00000000
,
00000001
00000000
00000010
00000000
00000100
00000000
00000010
00000000
00001000
00000000
00000000
00010000
00000000
00000000
00001000
00000000
,
01000000
00000000
00010000
00000000
10000000
00000000
00010000
00000000
00200000
00000000
00000000
01000000
00000000
00000000
10300000
00000000
,
00100000
00000000
00010000
00000000
00100000
00000000
00001000
00000000
00010000
00000000
00000000
00000010
00000000
00000000
00001000
00000000
,
00002200
00000000
00000000
00000000
00003300
00000000
00000000
00000000
00000011
00000000
00000000
00000001
00000100
00000000
00000100
00000000
,
00000010
00000000
00000000
00000000
00001010
00000000
00000000
00000000
00010000
00000000
00001000
00000000
00100000
00000000
00000000
01000000
,
00000000
00000000
00100000
00000000
00010000
00000000
00000000
20000000
00000000
00000000
00000000
00000000
30010000
00000000
01000000
00000000
,
00001000
00000000
00110000
01000000
00001000
00000000
00110000
01000000
,
01010000
00101000
00010010
00001100
,
00000010
00000000
00000000
00000000
00001001
00000000
00000000
00000000
00000001
00000000
00000010
00000000
00000001
00000000
00000000
00000100
,
00000000
00000000
00000010
00000000
00001000
00000000
00000000
00000020
00000000
00000000
00000000
00000000
00010030
00000000
00000100
00000000
,
00001000
00000000
00010010
00000100
00001000
00000000
00010010
00000000
,
00010100
00101000
00010010
01001000
,
10010000
00000000
00000000
10000000
00000000
00000000
00010000
00000000
00100000
00000000
00000000
01000000
00000000
00000000
00100000
00000000
,
00001000
00000000
00000000
00010000
00000000
00000000
00001000
00000000
00000100
00000000
00000000
00000010
00000000
00000000
00000100
00000000
,
00000001
00000000
00000000
00000010
00000000
00000000
00001000
00000000
00010000
00000000
00000000
00001000
00000000
00000000
00000100
00000000
,
00010000
00000000
00000000
01000000
00000000
00000000
00100000
00000000
02000000
00000000
00000000
00000000
03000000
00000000
00000000
00000000
,
00010000
00000000
00000000
00100000
00000000
00000000
01000000
00000000
00100000
00000000
00000000
00001000
00000000
00000000
00010000
00000000
,
00000010
00000000
00000000
00000100
00000000
00000000
00001000
00000000
00000100
00000000
00000000
00000001
00000000
00000000
00000010
00000000
,
00000100
00000000
00000000
00010000
00000000
00000000
00001000
00000000
01000000
00000000
00010000
00000000
00100000
00000000
01100000
00000000
,
00000000
01000000
00010000
00001000
00000020
00000000
00000030
00000000
,
00000001
00000100
00000000
00000000
00000001
00000100
00000000
00000000
00000010
00000000
00001000
00000000
00000010
00000000
00010000
00000000
,
00001000
00101000
02002000
03003000
,
10100000
00000000
11000000
00000000
01000000
00010000
00001000
00010000
,
00000100
00001100
00002020
00003030
,
00010000
00001000
00000000
00000000
00010000
00001000
00000000
00000000
00100000
00000000
00010000
00000000
01000000
00000000
10000000
00000000
,
02000000
03020000
00230000
00302000
,
00013000
00100000
00010000
00001000
00000010
00000100
00000010
00002000
,
00010000
00000000
01000000
00000000
00100000
00100000
00103000
00000000
,
01000000
00010000
00000000
00000000
01000000
00010000
00000000
00000000
00100000
00000000
01000000
00000000
00010000
00000000
00001000
00000000
,
00100000
00101000
00022000
00033000
,
00010010
00000000
00001010
00000000
00001000
00000100
00000001
00000100
,
00000010
00000011
00000202
00000303
,
00000010
00001000
00000000
00000000
00000010
00001000
00000000
00000000
00000100
00000000
00010000
00000000
00001000
00000000
00010000
00000000
,
00200000
20300000
32000000
03020000
,
00031000
00000010
00000100
00001000
00000001
00000100
00001000
00010000
,
00200000
00000000
01000000
00000000
10300000
00100000
01100000
00000000
,
10010000
00000000
10010000
00000000
10000000
01000000
00010000
00001000
,
00000010
00000110
00002200
00003300
,
00000011
00000000
00000101
00000000
00000100
00000010
00000001
00000010
,
00001000
00001100
00020200
00030300
,
01001000
00000000
01001000
00000000
01000000
00010000
00100000
10000000
,
00200000
02300000
03020000
00032000
,
00003010
00000100
00000001
00000100
00001000
00000010
00010000
00002000
,
00100000
00000000
00010000
00000000
00000100
00000100
00003100
00000000
,
01001000
00000000
01001000
00000000
01000000
00010000
00001000
00000010
,
00010000
00010100
00002200
00003300
,
00000011
00000000
00000101
00000000
00000100
00001000
00010000
00001000
,
00100000
01100000
22000000
33000000
,
10100000
00000000
10100000
00000000
00100000
01000000
00010000
01000000
,
00002000
00023000
00030200
00000320
,
00001030
00010000
00100000
01000000
00010000
00100000
01000000
00010000
,
00002000
00000000
00000010
00000000
00013000
00001000
00010010
00000000
,
00000010
00000000
00000100
00000000
00001000
00000000
00000100
00000000
00000001
00000000
00000000
00000010
00000000
00000000
00000001
00000000
,
00000100
00000000
00001000
00000000
00010000
00000000
00001000
00000000
00200000
00000000
00000000
01000000
00000000
00000000
00310000
00000000
,
00100000
00000000
00001000
00000000
00010000
00000000
00100000
00000000
01000000
00000000
00000000
00010000
00000000
00000000
10000000
00000000
,
01000000
00000000
00010000
00001000
00000000
00010000
00000000
00000020
00000000
00000000
00001030
00000000
00000001
00000000
00000010
00000000
,
00000001
00000000
00000100
00000000
00001000
00000000
00000100
00000000
00000010
00000000
00000000
00010000
00000000
00000000
00001000
00000000
,
00100000
00000000
01000000
00000000
00100000
00000000
00010000
00000000
02000000
00000000
00000000
10000000
00000000
00000000
03010000
00000000
,
01000000
00000000
00001000
00000000
00010000
00000000
00000100
00000000
00001000
00000000
00000000
00000010
00000000
00000000
00000100
00000000
,
00000202
00000000
00000000
00000000
00000303
00000000
00000000
00000000
00001010
00000000
00000000
00000010
00010000
00000000
00001000
00000000
,
00011000
00000000
00000000
00000000
00101000
00000000
00000000
00000000
11000000
00000000
00000000
10100000
00000000
00000000
00100000
01000000
,
00010000
00000000
00000000
01001000
00000000
00000000
00010100
00000000
00000000
00000000
00000000
00000000
00002002
00000000
00000000
00000000
,
00000000
00000000
00000000
00000000
,
00000000
00000000
00000000
00000000
,
00003003
00000000
00000000
00000000
;

//--------------- dance-double - forcednature ----------------
#NOTES:
     dance-double:
     forcednature:
     Challenge:
     15:
     0,0,0,0,0:
00000000
00000000
00000000
00000000
,
00000000
00000000
00000000
00000000
,
00000000
00000000
00000000
00000000
,
00000000
00000000
00000000
00000000
,
00000000
00000000
00000000
00000000
,
00001000
00000000
00001000
00000000
01000000
00010000
01000000
00100000
,
10000000
01000000
00010000
00001000
,
00000010
00000100
00001000
00000001
00000100
00000010
00001000
00000010
,
00020020
00030030
00202000
00303000
,
00100000
00000000
00100000
00000000
00010000
00000000
10000000
00100000
10000000
00100000
01000000
00000000
0101MMMM
00000000
00000000
00000000
,
00010000
00000000
00100000
00000000
01000000
00000000
00100000
00000000
00001000
00000000
00010000
00000010
00000000
00000010
00001000
00000000
,
00000100
00000000
00000010
00000000
00000001
00000000
00001000
00000010
00001000
00000000
00000100
00010000
00000000
00010000
00001000
00000000
,
01000000
00000000
00010000
00000000
01000000
00000000
00100000
00000000
10000000
00000000
01000000
00100000
00000000
00100000
00001000
00000000
,
00010000
00000000
00000010
00001000
00000000
00001000
00000000
00000002
00000000
00000000
00000013
00000100
00001000
00000100
00010000
00000000
,
00001000
00000000
01000000
00000000
00100000
00000000
01000000
00000000
00010000
00000000
10000000
01000000
00000000
01000000
00100000
00000000
,
00001000
00000000
00010000
00000000
00000010
00000000
00001000
00000100
00000010
00000000
00000001
00000100
00000000
00000100
00001000
00000000
,
00000100
00000000
00000010
00000000
00001000
00000000
00000010
00000000
00010000
00000000
00001000
00100000
00000000
00100000
01000000
00000000
,
01100000
00000000
00100000
00010000
00000000
00010000
00000000
10000000
00100000
00000000
01000000
00010000
01000000
00001000
00010000
00000000
,
00010100
00000000
00000000
00000000
00010010
00000000
00000000
00000000
00000010
00000000
00000100
00000000
00001000
00000100
00000000
00000001
,
00000100
00000000
00000010
00000000
00001000
00000100
00000000
00020000
00000010
00000000
00000000
00000000
00030100
00000000
00010000
00000000
,
00100000
00000000
0101MMMM
00001000
00000010
00000000
MMMM1100
00001000
,
00000100
00010000
00000000
00000000
00001000
00100000
00000000
00000000
01000000
00010000
00000000
00000000
01000000
10000000
00000000
00000000
,
10100000
00000000
00000000
00000000
01100000
00000000
00000000
00000000
01000000
00000000
10000000
00000000
01000000
00010000
00000000
00100000
,
00010000
00000000
00001000
00000000
00000100
00010000
00000000
00000020
00001000
00000000
00000000
00000000
00000130
00000000
00000010
00000000
,
00010000
00000000
0101MMMM
00100000
00001000
00000100
MMMM1100
00000100
,
00000110
00011000
01100000
10010000
,
11000000
00000000
00000000
01000000
10000000
00000000
01000000
00000000
00010000
00000000
00000000
00001000
00010000
00000000
00000010
00000000
,
00000100
00000000
00000000
00000100
00001000
00000000
00000100
00000000
00000001
00000000
00000000
00000010
00000100
00000000
00010000
00000000
,
00001000
00100000
00000000
00010000
01000000
00000000
00001000
00000000
00010000
00000010
00000000
00001000
00000100
00000000
00000010
00000000
,
00000001
00000000
00000000
00000100
00000000
00000000
00010000
00000000
00200000
00000000
00000000
00000000
00300000
00000000
00000000
00000000
,
01100000
00000000
00000000
01000000
10000000
00000000
01000000
00000000
00010000
00000000
00000000
00001000
00100000
00000000
00010000
00000000
,
00001000
00000000
00000000
00001000
00000010
00000000
00000100
00000000
00001000
00000000
00000000
00010000
00000100
00000000
00001000
00000000
,
00000010
00000000
00000000
00000010
00000100
00000000
00001000
00000000
00010000
00000000
01000000
00000000
00100000
00000000
01100000
00000000
,
00000000
00000000
10000000
00000000
00010000
00000000
00001000
00000000
00000001
00000000
00000000
00000000
00000100
00000010
00000100
00000010
,
MMMM1000
00000001
00000010
00000000
MMMM0100
00001000
00000010
00000000
00010000
00000000
00001000
00000000
00100000
00000000
00001000
00000000
,
00010000
00100000
00000000
00000000
01000000
10000000
00000000
00000000
01000000
00010000
00000000
00000000
MMMMMMMM
00000000
00000000
00000000
,
01000000
10000000
01000000
00000000
00100000
00010000
00100000
00000000
01000000
00000000
00010000
00000000
00001000
00000000
00000010
00000000
,
00000100
00000001
00000000
00000000
00000100
00010000
00000000
00000000
00001000
00100000
00000000
00000000
MMMMMMMM
00000000
00000000
00000000
,
1000MMMM
00010000
00100000
00000000
0001MMMM
10000000
00100000
00000000
01000000
00000000
10000000
00000000
01000000
00000000
00010000
00000000
,
00100000
01000000
00000000
00000000
00010000
00001000
00000000
00000000
00000100
00000010
00000000
00000000
00001000
00000001
00000000
00000000
,
00000010
00000100
00010000
00000100
00001000
00000010
00001000
00010000
,
01000000
00100000
01000000
00000000
00010000
10000000
00010000
00000000
00100000
00000000
00001000
00010000
00001000
00000000
00000100
00000000
,
MMMM0010
00001000
00000100
00000000
MMMM0010
00000001
00000100
00000000
00000010
00000000
00000001
00000000
00000010
00000000
00001000
00000000
,
00000100
00010000
00000000
00000000
00001000
00000100
00000000
00000000
00010000
01000000
00000000
00000000
MMMMMMMM
00000000
00000000
00000000
,
00100000
00010000
00100000
00000000
00001000
00010000
00001000
00000000
00100000
00000000
01000000
00000000
00010000
00000000
01000000
00000000
,
00100000
00001000
00000000
00000000
00010000
00000010
00000000
00000000
00000100
00001000
00000000
00000000
MMMMMMMM
00000000
00000000
00000000
,
0100MMMM
10000000
00100000
00000000
0100MMMM
00010000
00100000
00000000
01000000
00000000
00010000
00000000
00001000
00000000
00000010
00000000
,
00000100
00000001
00000000
00000000
00000100
00001000
00000000
00000000
00000001
00000010
00000000
00000000
00000001
00000100
00000000
00000000
,
00000010
00001000
00010000
01000000
00010000
00100000
01000000
10000000
,
10100000
00000000
00100000
00000000
00010000
00000000
00001000
00010000
00000010
00001000
00000010
00000000
MMMM0110
00000000
00000000
00000000
,
00000010
00000000
00002000
00000000
00103000
01000000
00010000
00100000
,
02000000
03020000
00030020
00000030
,
00000200
00000000
00020300
00000000
01030000
00001000
00010000
00100000
,
20000000
30020000
00032000
00000000
,
00003020
00000000
00000230
00000000
00001300
01000000
00010000
00100000
,
02000000
03002000
00003200
00020300
,
00130000
10000000
00010000
00100000
01000000
00010000
00001000
00000010
,
00000100
00001000
00000100
00000000
00000010
00000001
00000010
00000000
00000100
00000000
00010000
00001000
00010000
00000000
00000010
00000000
,
00000200
00000000
00020300
00000000
00130000
01000000
10000000
01000000
,
00020000
00030020
00002030
00003000
,
00020000
00000000
02030000
00000000
03100000
00010000
00001000
00000100
,
00000020
00020030
02030000
00000000
,
03200000
00000000
00302000
00000000
00003010
00000001
00000100
00000001
,
00000020
00002030
00203000
00320000
,
00031000
00000100
00010000
00001000
00000100
00010000
01000000
00010000
,
00110000
00000000
00100000
00000000
01000000
00000000
10000000
01000000
00100000
00010000
00100000
00000000
0011MMMM
00000000
00000000
00000000
,
00001000
00000000
00010000
00000000
00000010
00000000
00010000
00000000
00001000
00000000
00000010
00000100
00000000
00000100
00001000
00000000
,
00000001
00000000
00000100
00000000
00000001
00000000
00000010
00000100
00001000
00000100
00010000
00001000
00000000
01000000
00010000
00000000
,
00100000
00000000
00001000
00000000
00010000
00000000
00001000
00000000
01000000
00000000
00100000
10000000
00000000
10000000
01000000
00000000
,
00100000
00010000
00100000
00001000
00000000
00010000
00000000
00000020
00000000
00000000
00001030
00000010
00001000
00000100
00000010
00000000
,
00000100
00000000
00000001
00000000
00000100
00000000
00001000
00000000
00000010
00000000
00010000
00001000
00000000
00001000
00100000
00000000
,
00010000
00000000
01000000
00000000
10000000
00000000
01000000
00010000
01000000
00100000
10000000
00010000
00000000
00100000
00010000
00000000
,
01000000
00000000
00100000
00000000
00010000
00000000
00100000
00000000
01000000
00000000
00001000
00010000
00000000
00010000
00000100
00000000
,
00000110
00000000
00000010
00000001
00000000
00000001
00000000
00000100
00000010
00000000
00001000
00000100
00010000
00001000
00100000
00000000
,
00110000
00000000
00000000
00000000
11000000
00000000
00000000
00000000
10100000
00000000
00000000
00110000
00000000
00000000
10000000
01000000
,
00010000
00000000
00000000
00101000
00000000
00000000
00010010
00000000
00000000
00000000
00000000
00000000
MMMM2002
00000000
00000000
00000000
,
00000000
00000000
00000000
00000000
,
00000000
00000000
00000000
00000000
,
00003003
00000000
00000000
00000000
;
