#VERSION:0.83;
#TITLE:Keep Warm;
#SUBTITLE:;
#ARTIST:Jinny;
#TITLETRANSLIT:;
#SUBTITLETRANSLIT:;
#ARTISTTRANSLIT:;
#GENRE:;
#ORIGIN:;
#CREDIT:;
#BANNER:;
#BACKGROUND:;
#PREVIEWVID:;
#JACKET:;
#CDIMAGE:;
#DISCIMAGE:;
#LYRICSPATH:;
#CDTITLE:;
#MUSIC:keepwarm.ogg;
#OFFSET:-0.050318;
#SAMPLESTART:25.905001;
#SAMPLELENGTH:15.513000;
#SELECTABLE:YES;
#BPMS:0.000=127.635;
#STOPS:;
#DELAYS:;
#WARPS:;
#TIMESIGNATURES:0.000=4=4;
#TICKCOUNTS:0.000=4;
#COMBOS:0.000=1;
#SPEEDS:0.000=1.000=0.000=0;
#SCROLLS:0.000=1.000;
#FAKES:;
#LABELS:0.000=Song Start;
#BGCHANGES:;
#KEYSOUNDS:;
#ATTACKS:
;

//---------------dance-single - ----------------
#NOTEDATA:;
#CHARTNAME:;
#STEPSTYPE:dance-single;
#DESCRIPTION:;
#CHARTSTYLE:;
#DIFFICULTY:Hard;
#METER:12;
#RADARVALUES:0.575608,0.530235,0.127575,0.106313,0.451830,379.000000,367.000000,12.000000,10.000000,0.000000,0.000000,0.000000,0.000000,0.000000,0.575608,0.530235,0.127575,0.106313,0.451830,379.000000,367.000000,12.000000,10.000000,0.000000,0.000000,0.000000,0.000000,0.000000;
#CREDIT:TonyAkita;
#NOTES:
0000
0000
0000
0000
,
0000
0000
0000
0000
,
1000
0000
0001
0010
0000
0001
0010
0000
0001
0100
0000
0000
1010
0000
0000
0000
,
0001
0000
1000
0100
0000
1000
0100
0000
1000
0010
0000
0000
0100
0000
0100
0000
,
0001
0000
1000
0001
0000
1000
0001
0000
1000
0100
0000
0000
0011
0000
0000
0000
,
1000
0000
0001
1000
0000
0001
1000
0000
0001
0100
0000
0000
0010
0000
0010
0000
,
1000
0000
0001
0100
0000
0001
0010
0000
0001
0100
0000
0000
1010
0000
0000
0000
,
0001
0000
1000
0100
0000
1000
0010
0000
1000
0100
0000
0000
0010
0000
0010
0000
,
0001
0000
0100
0010
0000
0100
0001
0000
0100
0010
0000
0000
1010
0000
0000
0000
,
1000
0000
0100
0010
0000
0100
1000
0000
0001
0000
0100
0000
0010
0000
1000
0000
,
0001
0000
0010
0000
1000
0000
0001
0200
0000
1000
0000
1300
0000
0000
0001
0000
,
1000
0000
0010
0000
0001
0000
1000
0200
0000
0001
0000
0301
0000
0000
1000
0000
,
0100
0000
0010
0000
0100
0000
1000
0002
0000
0010
0000
0013
0000
0000
0001
0000
,
0100
0010
0100
0001
0100
0010
1000
0001
,
0010
0000
1000
0000
0010
0000
0100
2000
0000
0010
0000
3010
0000
0000
1000
0000
,
0010
0000
0001
0000
0010
0000
0100
0002
0000
0010
0000
0013
0000
0000
0100
0000
,
0001
0000
0100
0000
1000
0000
0001
0200
0000
0010
0000
0310
0000
0000
1000
0000
,
0100
0001
0100
0010
0001
0001
1000
1000
,
0001
0000
0100
0000
0010
0000
0100
0000
0001
0000
0100
0010
0000
0000
1000
0000
,
1000
0000
0001
0000
0010
0000
0100
2000
0000
0000
0010
0000
3010
0000
0000
0000
,
1000
0000
0100
0000
0010
0000
0100
0000
1000
0000
0100
0010
0000
0000
0001
0000
,
1000
0000
0001
0100
0000
0001
0010
0000
0100
0000
1000
0000
0100
0000
0000
0000
,
1000
0000
0100
0000
0001
0000
0100
0000
1000
0000
0100
0010
0000
0000
0001
0000
,
0001
0000
1000
0000
0010
0000
0100
0002
0000
0000
0010
0000
0013
0000
0000
0000
,
0001
0000
0100
0000
1000
0000
0100
0000
0001
0000
0100
0010
0000
0000
0000
0000
,
1000
0000
1000
0000
1000
1000
0001
0001
,
1000
0000
0001
0010
0000
0001
0010
0000
0001
0100
0000
0000
1010
0000
0000
0000
,
0001
0000
1000
0100
0000
1000
0100
0000
1000
0010
0000
0000
0100
0000
0100
0000
,
0001
0000
1000
0001
0000
1000
0001
0000
1000
0100
0000
0000
0011
0000
0000
0000
,
1000
0000
0001
1000
0000
0001
1000
0000
0001
0100
0000
0000
0010
0000
0010
0000
,
1000
0000
0001
0100
0000
0001
0010
0000
0001
0100
0000
0000
1010
0000
0000
0000
,
0001
0000
1000
0100
0000
1000
0010
0000
1000
0100
0000
0000
0010
0000
0010
0000
,
0001
0000
1000
0100
0000
0010
0100
0000
1000
0100
0000
0000
0011
0000
0000
0000
,
1000
0000
0001
0100
0000
0010
0100
0000
0001
0100
0000
0000
0010
0000
0010
0000
,
1010
0000
0001
0010
1000
0001
0100
1000
,
0000
0000
0010
0001
1000
0100
0001
1000
,
0000
0000
0100
0010
0001
1000
0010
0100
,
0001
0000
1000
0100
0000
1000
0010
0000
0100
0000
0001
0000
0100
0000
0000
0000
,
0011
0000
1000
0010
0001
1000
0100
0001
,
0000
0000
0010
1000
0001
0100
1000
0001
,
0000
0000
0100
0010
1000
0001
0010
0100
,
1000
0000
1000
0000
0001
0001
1000
1000
,
0100
0010
0000
0000
0100
0010
0000
0000
0100
0000
1000
0001
0000
0000
0100
0000
,
0100
0000
0010
0000
1000
0000
0001
0020
0000
0000
0000
0000
0000
0000
0030
0000
,
0100
0010
0000
0000
0100
0010
0000
0000
0100
0000
1000
0001
0000
0000
0000
0000
,
1000
0010
0001
0010
1000
0100
0001
0100
,
1000
0000
0100
0000
0010
0000
0100
0000
1000
0000
0100
0010
0000
0000
0001
0000
,
0001
0000
0100
0000
0010
0000
1000
0002
0000
0000
0010
0000
0013
0000
0000
0000
,
0001
0000
0100
0000
0010
0000
0100
0000
0001
0000
0100
0010
0000
0000
0000
0000
,
1000
0000
1000
0000
0001
0001
1001
1001
;

//---------------dance-single - ----------------
#NOTEDATA:;
#CHARTNAME:;
#STEPSTYPE:dance-single;
#DESCRIPTION:;
#CHARTSTYLE:;
#DIFFICULTY:Medium;
#METER:9;
#RADARVALUES:0.399433,0.397677,0.212626,0.000000,0.228573,263.000000,243.000000,20.000000,0.000000,0.000000,0.000000,0.000000,0.000000,0.000000,0.399433,0.397677,0.212626,0.000000,0.228573,263.000000,243.000000,20.000000,0.000000,0.000000,0.000000,0.000000,0.000000,0.000000;
#CREDIT:TonyAkita;
#NOTES:
0000
0000
0000
0000
,
0000
0000
0000
0000
,
1000
0000
0000
0010
0000
0000
1000
0000
0000
0010
0000
0000
0101
0000
0000
0000
,
0001
0000
0000
0010
0000
0000
0001
0000
0000
0010
0000
0000
0100
0000
0100
0000
,
1000
0000
0000
0001
0000
0000
1000
0000
0000
0001
0000
0000
1010
0000
0000
0000
,
0001
0000
0000
1000
0000
0000
0001
0000
0000
1000
0000
0000
0001
0000
0010
0000
,
0100
0000
0000
1000
0000
0000
0010
0000
0000
1000
0000
0000
1100
0000
0000
0000
,
0001
0000
0000
0010
0000
0000
0001
0000
0000
0100
0000
0000
0010
0000
0010
0000
,
1000
0000
0000
0001
0000
0000
1000
0000
0000
0010
0000
0000
0101
0000
0000
0000
,
0001
0000
0000
1000
0000
0000
0001
0000
0010
0000
0100
0000
0010
0000
0100
0000
,
1000
0000
0100
0000
0001
0100
1000
0000
,
0001
0000
0100
0000
1000
0100
0001
0000
,
0100
0000
0010
0000
1000
0001
1000
0000
,
0100
0010
0001
1000
,
0010
0000
0100
0000
0010
1000
0001
0000
,
0010
0000
0100
0000
0010
0001
1000
0000
,
0010
0000
0100
0000
0001
1000
0001
0000
,
0010
0000
0010
0000
0100
0010
0100
0010
,
0100
0000
0000
0000
0100
0000
0000
0000
1000
0000
0000
0101
0000
0000
0000
0000
,
0000
0000
1000
0000
1000
0000
0100
0010
0000
0000
0000
0000
0011
0000
0000
0000
,
0001
0000
0000
0000
0001
0000
0000
0000
0100
0000
0000
1010
0000
0000
0000
0000
,
1000
0100
0010
0001
,
0100
0000
0000
0000
0100
0000
0000
0000
0001
0000
0000
1100
0000
0000
0000
0000
,
0000
0000
0001
0000
0001
0000
0100
0010
0000
0000
0000
0000
1010
0000
0000
0000
,
1000
0000
0000
0000
1000
0000
0000
0000
0100
0000
0000
0011
0000
0000
0000
0000
,
1000
0000
1000
0000
0001
1000
0001
1000
,
0001
0000
0000
0010
0000
0000
0001
0000
0000
0010
0000
0000
1100
0000
0000
0000
,
1000
0000
0000
0010
0000
0000
1000
0000
0000
0010
0000
0000
0100
0000
0100
0000
,
0001
0000
0000
1000
0000
0000
0001
0000
0000
1000
0000
0000
0011
0000
0000
0000
,
1000
0000
0000
0001
0000
0000
1000
0000
0000
0001
0000
0000
1000
0000
0010
0000
,
0100
0000
0000
0001
0000
0000
0010
0000
0000
0001
0000
0000
0101
0000
0000
0000
,
1000
0000
0000
0100
0000
0000
1000
0000
0000
0010
0000
0000
0100
0000
0100
0000
,
0001
0000
0000
1000
0000
0000
0001
0000
0000
0010
0000
0000
1100
0000
0000
0000
,
1000
0000
0000
0001
0000
0000
1000
0000
0000
0010
0000
0000
0100
0000
0100
0000
,
0001
0000
1000
0100
0001
0000
0100
0000
,
1000
0000
0001
0100
1000
0000
0100
0010
,
0100
0000
0010
1000
0001
0000
1000
0000
,
0001
0010
0100
1000
,
0001
0000
1000
0100
0001
0000
0100
0010
,
0100
0000
0010
0001
1000
0000
0001
0000
,
0100
0000
1000
0100
0001
0000
0100
0000
,
0010
0000
0010
0000
1000
0001
1000
0001
,
0010
0000
0000
0000
0010
0000
0000
0000
0010
0000
0000
1100
0000
0000
0000
0000
,
0000
0000
0001
0000
1000
0000
0000
0101
0000
0000
0000
0000
0000
0000
0000
0000
,
1000
0000
0000
0000
1000
0000
0000
0000
1000
0000
0000
0011
0000
0000
0000
0000
,
0001
1000
0001
1000
0010
0100
0010
0100
,
0010
0000
0000
0000
0010
0000
0000
0000
0010
0000
0000
0101
0000
0000
0000
0000
,
0000
0000
1000
0000
0001
0000
0000
1100
0000
0000
0000
0000
0000
0000
0000
0000
,
0001
0000
0000
0000
0001
0000
0000
0000
0001
0000
0000
1010
0000
0000
0000
0000
,
1000
0000
1000
0000
0010
0100
0010
0100
;

//---------------dance-single - ----------------
#NOTEDATA:;
#CHARTNAME:;
#STEPSTYPE:dance-single;
#DESCRIPTION:;
#CHARTSTYLE:;
#DIFFICULTY:Easy;
#METER:4;
#RADARVALUES:0.249076,0.264453,0.127575,0.063788,0.000000,164.000000,152.000000,12.000000,6.000000,0.000000,0.000000,0.000000,0.000000,0.000000,0.249076,0.264453,0.127575,0.063788,0.000000,164.000000,152.000000,12.000000,6.000000,0.000000,0.000000,0.000000,0.000000,0.000000;
#CREDIT:TonyAkita;
#NOTES:
// measure 0
0000
0000
0000
0000
,  // measure 1
0000
0000
0000
0000
,  // measure 2
1000
0000
0000
1000
0000
0000
0011
0000
,  // measure 3
0100
0000
0000
0100
0000
0000
1000
1000
,  // measure 4
0001
0000
0000
0001
0000
0000
1010
0000
,  // measure 5
0100
0000
0000
0100
0000
0000
0001
0001
,  // measure 6
0010
0000
0000
0010
0000
0000
1100
0000
,  // measure 7
0001
0000
0000
0001
0000
0000
1000
1000
,  // measure 8
0010
0000
0000
0010
0000
0000
0101
0000
,  // measure 9
1000
1000
0001
0001
,  // measure 10
1000
0010
1000
0000
,  // measure 11
0001
0100
0001
0000
,  // measure 12
0010
0100
0010
0000
,  // measure 13
0100
1000
0100
0001
,  // measure 14
0100
1000
0100
0000
,  // measure 15
0010
0001
0010
0000
,  // measure 16
0001
1000
0001
0000
,  // measure 17
0100
0010
1000
0001
,  // measure 18
1000
1000
2000
0000
,  // measure 19
3000
0010
0010
0101
,  // measure 20
0001
0001
0002
0000
,  // measure 21
0003
0000
1000
0000
,  // measure 22
0001
0001
0002
0000
,  // measure 23
0003
0010
0010
1100
,  // measure 24
1000
1000
2000
0000
,  // measure 25
3010
0010
0010
0010
,  // measure 26
0010
0000
0000
0010
0000
0000
0101
0000
,  // measure 27
1000
0000
0000
1000
0000
0000
0001
0001
,  // measure 28
0010
0000
0000
0010
0000
0000
1100
0000
,  // measure 29
0001
0000
0000
0001
0000
0000
1000
1000
,  // measure 30
0100
0000
0000
0100
0000
0000
0011
0000
,  // measure 31
1000
0000
0000
1000
0000
0000
0001
0001
,  // measure 32
0100
0000
0000
0100
0000
0000
1010
0000
,  // measure 33
0001
0000
0000
0001
0000
0000
1000
1000
,  // measure 34
0100
0010
0100
0000
,  // measure 35
1000
0100
1000
0000
,  // measure 36
0001
0100
0001
0000
,  // measure 37
0100
0000
0010
0000
,  // measure 38
1000
0010
1000
0000
,  // measure 39
0001
0010
0001
0000
,  // measure 40
0100
0010
1000
0000
,  // measure 41
0001
0001
0001
0001
,  // measure 42
1000
0000
1000
0000
,  // measure 43
0001
0000
0101
0000
,  // measure 44
0100
0000
0100
0000
,  // measure 45
0010
0010
0010
0010
,  // measure 46
1000
1000
2000
0000
,  // measure 47
3000
0100
0100
0011
,  // measure 48
0001
0001
0002
0000
,  // measure 49
0103
0100
0010
0010
;
