#TITLE:I'm In Love With You;
#SUBTITLE:;
#ARTIST:THE 1975;
#TITLETRANSLIT:;
#SUBTITLETRANSLIT:;
#ARTISTTRANSLIT:;
#GENRE:;
#CREDIT:;
#BANNER:I'm In Love With You.png;
#BACKGROUND:I'm In Love With You-bg.png;
#LYRICSPATH:I'm In Love With You.lrc;
#CDTITLE:;
#MUSIC:I'm In Love With You.ogg;
#OFFSET:-0.008000;
#SAMPLESTART:50.908463;
#SAMPLELENGTH:18.920004;
#SELECTABLE:YES;
#BPMS:0.000000=119.000000
;
#STOPS:
;
#BGCHANGES:0.000=I'm In Love With You.avi=1.000=0=0=0=StretchNoLoop====,
99999=-nosongbg-=1.000=0=0=0 // don't automatically add -songbackground-
;
#KEYSOUNDS:;
#ATTACKS:;

//---------------dance-single - ----------------
#NOTES:
     dance-single:
     :
     Hard:
     10:
     0.479293,0.416787,0.186392,0.525286,0.000000,396.000000,374.000000,22.000000,62.000000,0.000000,0.000000,0.479293,0.416787,0.186392,0.525286,0.000000,396.000000,374.000000,22.000000,62.000000,0.000000,0.000000:
0000
0000
0000
0000
,
0000
0000
0000
0000
,
1010
0000
2001
0000
3010
0100
0001
0000
,
1000
0000
0001
0010
1000
0010
0001
0000
,
0011
0000
2001
0000
3010
0100
0010
2000
,
0000
3001
0100
0002
0000
1003
0100
0010
,
0001
0000
1002
0000
0133
0010
1000
0000
,
0001
0000
1000
0010
0010
0100
0100
0001
,
0010
0100
2000
0000
3010
0100
0010
2000
,
0000
3001
0100
0002
0000
1003
0010
0100
,
0001
0001
1000
0000
0001
0010
0100
0010
,
0010
0100
1000
0000
0001
0100
0010
2010
,
0000
3001
0002
0000
1003
0100
0010
0001
,
0200
0000
1000
0000
0301
0010
0010
0100
,
1000
1000
0001
0000
1000
0100
0010
0100
,
0100
0010
0001
0000
1000
0010
0100
0102
,
0000
1003
2000
0000
3001
0010
0100
1000
,
0020
0000
0230
0000
0302
0000
1003
0100
,
0001
0100
2000
0000
3020
0000
0130
0001
,
1000
0001
0200
0000
0320
0000
1030
0001
,
0001
0010
0100
1000
1000
0010
0100
0001
,
2000
0000
3100
0000
1100
0000
0001
0010
,
1000
0010
0002
0000
0103
0010
1000
0001
,
2000
0000
3100
0020
0000
0031
1000
0001
,
0100
0100
0010
1000
0000
1010
0000
1001
,
0000
0001
0100
0010
0010
1000
0100
0010
,
1001
0000
0002
0010
2003
0010
3002
0100
,
2003
0100
3001
0010
0100
1000
0010
0100
,
0001
0000
2000
0100
3002
0100
2003
0010
,
3002
0010
1003
0100
0010
0001
0100
0010
,
1000
0000
0002
0100
2003
0010
3002
0010
,
2003
0100
3001
0010
1000
0010
0001
0100
,
0010
1000
1000
0001
0001
1000
0100
0010
,
0002
0000
2003
0000
3010
0100
0001
1000
,
0001
0100
0101
0000
1000
0100
1100
0000
,
0001
0010
0100
0010
1000
0010
0001
0000
,
1000
1100
0000
0001
0100
0101
0000
0001
,
1000
0100
0010
0100
0001
0100
1000
0000
,
0001
0100
1010
0000
1000
0100
0011
0000
,
1000
0010
0100
0001
0010
0100
1000
0000
,
2010
3001
0012
1003
,
0001
0100
0100
0010
0010
1000
0100
0010
,
1001
0000
2000
0100
3002
0100
2003
0100
,
3002
0100
1003
0010
0100
0001
0010
0100
,
1000
0000
0002
0010
2003
0010
3002
0010
,
2003
0010
3001
0100
0010
1000
0100
0010
,
0001
0000
2000
0100
3002
0010
2003
0010
,
3002
0100
1003
0010
0001
0010
1000
0001
,
0100
0000
0002
0010
2003
0100
3002
0100
,
2003
0010
3001
0100
1000
0100
0100
1001
,
0000
0001
0001
0100
0100
0001
0100
0020
,
0000
1030
1000
0100
0100
1000
0100
0020
,
0000
0331
0001
1000
1000
0010
0100
0001
,
1000
0100
0010
0002
0000
0000
1003
0000
,
0001
0100
1000
0001
0010
1000
1000
0001
,
0000
1030
0100
0001
1000
0010
0010
0001
,
0000
1000
1000
0001
1000
0010
0100
0001
,
0020
0000
0230
0000
2300
0001
3001
1001
;

//---------------dance-single - ----------------
#NOTES:
     dance-single:
     :
     Medium:
     6:
     0.320739,0.367753,0.271115,0.372783,0.000000,265.000000,233.000000,32.000000,44.000000,0.000000,0.000000,0.320739,0.367753,0.271115,0.372783,0.000000,265.000000,233.000000,32.000000,44.000000,0.000000,0.000000:
0000
0000
0000
0000
,
0000
0000
0000
0000
,
2000
3002
0103
0000
,
0001
0000
0100
0000
0001
1000
0001
0000
,
2000
3200
0310
0000
,
0001
0000
1000
0000
0010
0000
1000
0100
,
0020
0032
1003
0000
,
0001
0000
1000
0000
0001
0100
0001
0000
,
2000
3020
0130
0000
,
0010
0010
1000
0000
,
0001
0100
0001
0000
1000
0000
0000
0000
,
1000
0100
1000
0000
0001
0000
0000
0000
,
2000
0100
3001
0000
,
0002
0100
1003
0000
,
0001
0100
0001
0000
0100
0000
0000
0000
,
0010
1000
0010
0000
1000
0000
0000
0000
,
0002
0203
0320
2030
,
3100
0100
0100
0000
,
1000
0001
0100
0000
0001
0000
1000
0000
,
0001
0100
0010
0000
1000
0000
0001
0000
,
0020
0100
0230
1000
,
1300
0000
0001
1000
,
0001
0100
0010
0000
1000
0000
0001
0000
,
0020
0000
0000
0230
0000
0000
1300
0000
,
0001
0100
0001
0000
1000
0100
1000
0000
,
0001
0000
1000
0000
0001
0100
0010
1000
,
0001
0101
0101
0101
,
0202
0000
0303
0000
0100
0001
1000
0000
,
0010
1010
1010
1010
,
2020
0000
3030
0000
1000
0100
0010
0000
,
0001
0011
0011
0011
,
0022
0000
0033
0000
0001
1000
0001
0000
,
1000
0000
0010
0000
1000
0001
0100
0000
,
0002
2003
3200
0300
,
1000
1000
0000
0000
0001
0001
0000
0000
,
1000
0000
0001
0000
0100
0010
1000
0000
,
0001
0001
0000
0000
1000
1000
0000
0000
,
0001
0000
0010
0000
0100
1000
0001
0000
,
1000
0100
0000
0000
0010
0001
0000
0000
,
1000
0001
0200
0000
0320
0000
1030
0000
,
2020
3030
0202
0303
,
1000
0001
1000
0001
0100
0000
0010
0000
,
1000
1010
0011
1010
,
0022
0000
0033
0000
0001
0010
0100
0000
,
1000
1100
0101
1100
,
0202
0000
0303
0000
0001
0100
0010
0000
,
1000
1010
1100
1010
,
2200
0000
3300
0000
1000
0100
0010
0000
,
0001
0011
0101
0011
,
0202
0000
0303
0000
0001
1000
0001
1000
,
0000
0001
0001
0000
0100
0000
0010
0000
,
0000
1000
1000
0000
0100
0000
0010
0000
,
0000
0001
0001
0000
1000
0000
0010
0000
,
1000
0100
0010
0000
0002
0000
0003
0000
,
0000
1000
0100
1000
0100
0000
1100
0000
,
0000
0001
0100
0001
0100
0000
0101
0000
,
0000
1000
0001
1000
0010
0000
0100
0000
,
0002
0000
0023
0000
0130
1000
1000
0001
;

//---------------dance-single - ----------------
#NOTES:
     dance-single:
     :
     Easy:
     4:
     0.192443,0.220175,0.008472,0.050834,0.000000,159.000000,158.000000,1.000000,6.000000,0.000000,0.000000,0.192443,0.220175,0.008472,0.050834,0.000000,159.000000,158.000000,1.000000,6.000000,0.000000,0.000000:
0000
0000
0000
0000
,
0000
0000
0000
0000
,
1000
1000
0000
0000
,
0001
1000
0010
0000
,
0100
0100
0000
0000
,
0001
1000
0100
0000
,
0010
0010
0000
0000
,
0001
0010
0100
0000
,
1000
1000
0000
0000
,
0001
1000
0001
0000
,
2000
3000
1000
0000
,
0020
0030
0010
0000
,
1000
1000
0001
0001
,
0100
0000
0100
0000
,
0002
0003
0001
0000
,
0020
0030
0010
0000
,
0001
0001
0100
0100
,
0010
1000
0001
0000
,
1000
0100
0000
0000
,
0010
0001
0000
0000
,
1000
1000
0001
0001
,
0100
0000
0000
0000
,
0001
0100
0000
0000
,
0010
0000
0010
0000
,
1000
1000
0001
0001
,
0010
0100
1000
0010
,
0100
0010
0010
0010
,
0010
0000
1000
0001
,
0010
0100
0100
0100
,
0100
0000
0010
0001
,
1000
0001
0001
0001
,
0001
0000
1000
0001
,
0100
0000
0100
0000
,
0010
0010
0010
0000
,
1001
0000
1000
0000
,
0001
0001
0010
0000
,
0001
0000
0001
0000
,
1000
1000
0010
0000
,
1000
0000
0100
0000
,
0010
0010
0001
0000
,
2000
3000
0002
0003
,
0100
0100
0001
1000
,
0100
0010
0010
0010
,
0010
0000
0001
1000
,
0010
0100
0100
0100
,
0100
0000
0010
1000
,
0001
1000
1000
1000
,
1000
0000
1000
0100
,
0010
0001
0001
0001
,
0001
0000
1000
0000
,
0010
0000
0010
0000
,
0100
0000
0100
0000
,
0001
0000
1000
0000
,
0001
0010
0100
0000
,
0000
1000
1000
0100
,
0000
0010
0010
0001
,
0000
1000
1000
0010
,
0100
0100
0100
0100
;

//---------------dance-single - ----------------
#NOTES:
     dance-single:
     :
     Beginner:
     2:
     0.114982,0.146783,0.008472,0.000000,0.000000,95.000000,94.000000,1.000000,0.000000,0.000000,0.000000,0.114982,0.146783,0.008472,0.000000,0.000000,95.000000,94.000000,1.000000,0.000000,0.000000,0.000000:
0000
0000
0000
0000
,
0000
0000
0000
0000
,
0001
0001
0000
0000
,
0100
0000
0000
0000
,
0010
0010
0000
0000
,
1000
0000
0000
0000
,
0100
0100
0000
0000
,
1000
0000
0000
0000
,
0001
0001
0000
0000
,
0100
0000
0000
0000
,
0010
0000
0010
0000
,
0010
0000
0000
0000
,
1000
0000
1000
0000
,
1000
0000
0000
0000
,
0001
0000
0001
0000
,
0001
0000
0000
0000
,
0100
0000
0100
0000
,
0100
0000
0000
0000
,
0001
0001
0000
0000
,
1000
1000
0000
0000
,
0010
0000
0010
0000
,
0010
0000
0000
0000
,
1000
1000
0000
0000
,
0001
0000
0000
0000
,
0100
0000
0100
0000
,
0100
0000
0000
0000
,
1001
0000
0000
0000
,
0010
0000
0010
0010
,
0010
0000
0000
0000
,
1000
0000
1000
1000
,
1000
0000
0000
0000
,
0001
0000
0001
0001
,
0001
0000
0000
0000
,
0100
0000
0000
0000
,
0010
0000
0000
0000
,
1000
1000
1000
0000
,
1000
0000
0000
0000
,
0001
0001
0001
0000
,
0001
0000
0000
0000
,
0100
0100
0100
0000
,
0100
0000
0100
0000
,
0100
0000
0000
0000
,
0000
0001
0001
0001
,
0001
0000
0000
0000
,
0000
1000
1000
1000
,
1000
0000
0000
0000
,
0000
0010
0010
0010
,
0010
0000
0000
0000
,
0000
0100
0100
0100
,
0100
0000
0000
0000
,
0001
0000
0000
0000
,
1000
0000
0000
0000
,
0010
0000
0010
0000
,
0010
0000
0000
0000
,
1000
0000
0000
0000
,
0001
0000
0000
0000
,
0100
0000
0100
0000
,
0100
0000
0100
0100
;

//---------------dance-double - ----------------
#NOTES:
     dance-double:
     :
     Hard:
     11:
     0.476872,0.441304,0.186392,0.559175,0.000000,394.000000,372.000000,22.000000,66.000000,0.000000,0.000000,0.476872,0.441304,0.186392,0.559175,0.000000,394.000000,372.000000,22.000000,66.000000,0.000000,0.000000:
// measure 0
00000000
00000000
00000000
00000000
,  // measure 1
00000000
00000000
00000000
00000000
,  // measure 2
00011000
00000000
20010000
00000000
30100000
01000000
00010000
00000000
,  // measure 3
10000000
00000000
00010000
00100000
10000000
00100000
00010000
00000000
,  // measure 4
01010000
00000000
01002000
00000000
00013000
00000100
00000010
00000200
,  // measure 5
00000000
00001300
00000010
00002000
00000000
00003001
00000100
00001000
,  // measure 6
00010000
00000000
00001002
00000000
00000013
00000100
00001000
00000000
,  // measure 7
00000001
00000000
00001000
00000100
00000001
00000001
00000100
00000100
,  // measure 8
00001000
00000010
00020000
00000000
00031000
00100000
01000000
00200000
,  // measure 9
00000000
00310000
01000000
00020000
00000000
10030000
01000000
00100000
,  // measure 10
00010000
00010000
01000000
00000000
00001000
00010000
00001000
00010000
,  // measure 11
00010000
00000100
00000010
00000000
00000001
00000100
00000010
00002010
,  // measure 12
00000000
00003001
00000020
00000000
00000130
00001000
00000001
00000000
,  // measure 13
00002000
00000000
00003020
00000000
00000130
00003001
00000010
00000100
,  // measure 14
00001000
00001000
00000010
00000000
00010000
00001000
00010000
00001000
,  // measure 15
00001000
00100000
01000000
00000000
10000000
00100000
01000000
01020000
,  // measure 16
00000000
10030000
02000000
00000000
03100000
00010000
10000000
00100000
,  // measure 17
10100000
00000000
01100000
00000000
20010000
00000000
30010000
01000000
,  // measure 18
10000000
01000000
00020000
00000000
00133000
00000000
00001000
00010000
,  // measure 19
00100000
00010000
00002000
00000000
00013000
00000100
00000010
00000001
,  // measure 20
00000001
00001000
00001000
00000001
00000100
00000010
00001000
00000100
,  // measure 21
00020000
00000000
00031000
00000000
00011000
00000000
00001000
00000100
,  // measure 22
00000001
00000100
00000020
00000000
00001030
00000100
00010000
00001000
,  // measure 23
00020000
00000000
00130000
00200000
00000000
10300000
01000000
00100000
,  // measure 24
00100000
00010000
01000000
00200000
00000000
20300000
00000000
30020000
,  // measure 25
00000000
01030000
01000000
00001000
00001000
00010000
00000100
00000010
,  // measure 26
00001001
00000000
00000002
00001000
00020003
00001000
00030002
00001000
,  // measure 27
00020003
00001000
00030001
00000100
00001000
00010000
00100000
10000000
,  // measure 28
00010000
00000000
20000000
00010000
30002000
00010000
20003000
00010000
,  // measure 29
30002000
00010000
10003000
01000000
00010000
00001000
00000010
00000001
,  // measure 30
00001000
00000000
00000200
00001000
00020300
00001000
00030200
00001000
,  // measure 31
00020300
00001000
00030100
00010000
00100000
10000000
00010000
10000000
,  // measure 32
00000000
00010000
00010000
01000000
01000000
00100000
00010000
00001000
,  // measure 33
00020000
00000000
00030200
00000000
00000310
00000001
00001000
00000000
,  // measure 34
00000001
00000100
00000101
00000000
00001000
00000100
00001100
00000000
,  // measure 35
00000001
00000100
00000010
00000100
00001000
00010000
00100000
10000000
,  // measure 36
00010000
00110000
00000000
10000000
00100000
10100000
00000000
00010000
,  // measure 37
10000000
00100000
01000000
00100000
00010000
00001000
00000100
00000001
,  // measure 38
00001000
00000100
00000011
00000000
00000001
00000100
00001010
00000000
,  // measure 39
00000001
00000010
00002000
00000000
00023000
00000000
00031000
00000000
,  // measure 40
00102000
00013000
00020010
00031000
,  // measure 41
00010000
00001000
00100000
00010000
01000000
00100000
00010000
00001000
,  // measure 42
00010000
00000000
00000200
00010000
00200300
00001000
00300200
00010000
,  // measure 43
00200300
00001000
00300100
00010000
00100000
10000000
01000000
00010000
,  // measure 44
00001000
00000000
00200000
00001000
00300200
00010000
00200300
00001000
,  // measure 45
00300200
00010000
00100300
00001000
00000100
00000001
00000010
00001000
,  // measure 46
00010000
00000000
00000200
00010000
02000300
00010000
03000200
00010000
,  // measure 47
02000300
00010000
03000100
00010000
00100000
10000000
01000000
00010000
,  // measure 48
00001000
00000000
00200000
00001000
00300020
00001000
00200030
00001000
,  // measure 49
00300020
00001000
00100030
00001000
00000010
00000001
00001000
00001001
,  // measure 50
00000000
00001000
00000100
00000001
00000100
00001000
00001000
00000020
,  // measure 51
00000000
00000130
00001000
00000100
00001000
00010000
00100000
20000000
,  // measure 52
00000000
30010000
00010000
10000000
10000000
01000000
00200000
00000000
,  // measure 53
00310000
00100000
00001000
02000000
00000000
00100000
03100000
00000000
,  // measure 54
10000000
00010000
00100000
10000000
00100000
00010000
00010000
02000000
,  // measure 55
00000000
03100000
00010000
00100000
00010000
00001000
00000100
00000002
,  // measure 56
00000000
00001003
00001000
00000001
00000001
00000010
00000100
00001000
,  // measure 57
00000020
00000000
00000230
00000000
00001300
00010000
00001000
00011000
;

//---------------dance-double - ----------------
#NOTES:
     dance-double:
     :
     Medium:
     7:
     0.348577,0.318719,0.152502,0.499869,0.000000,288.000000,270.000000,18.000000,59.000000,0.000000,0.000000,0.348577,0.318719,0.152502,0.499869,0.000000,288.000000,270.000000,18.000000,59.000000,0.000000,0.000000:
00000000
00000000
00000000
00000000
,
00000000
00000000
00000000
00000000
,
00011000
00012000
00013000
00000100
,
00000010
00000000
00000001
00000000
00001000
00000001
00000100
00000000
,
00000101
00000201
00000310
00001000
,
00000100
00000000
00000100
00000000
00010000
00000100
00010000
00000000
,
00011000
00012000
00103000
00100000
,
00010000
00000000
10000000
00000000
00010000
01000000
00100000
00000000
,
10100000
20100000
30010000
00010000
,
00100000
00001000
00010000
00000100
,
00001000
00000010
00000200
00000000
00000301
00000000
00001000
00000000
,
00000001
00000010
00000200
00000000
00001300
00000000
00000010
00020000
,
00000000
00031000
00002000
00000000
00103000
00010000
01000000
00000000
,
00020000
20030000
30100000
10310000
,
00010000
01000000
00200000
00000000
10300000
00000000
00010000
00000000
,
10000000
01000000
00200000
00000000
00310000
00000000
01000000
00002000
,
00000000
00013000
00020000
00000000
00030100
00001000
00000010
00000100
,
00000002
00000000
00002003
00000000
00003200
00000000
00010300
00010000
,
00001000
00010000
00002000
00000000
00103000
00000000
00001000
00001000
,
00010000
00001000
00020000
00000000
00030010
00000000
00010000
00000000
,
00001000
00100000
01000000
00000000
10000000
00100000
01000000
00000000
,
00020000
00230000
00302000
00013000
,
00000100
00010000
00000200
00000000
00010300
00000000
00001000
00000000
,
02000000
00000000
00000000
03200000
00000000
00000000
10300000
00000000
,
00010000
10000000
00010000
00000000
10000000
01000000
10000000
00000000
,
00010000
01000000
00100000
01000000
00200000
00000000
20300000
00000000
,
30010000
20010000
01000000
00010000
,
01000000
00000000
30010000
00000000
10000000
00010000
01000000
00000000
,
00001000
00012000
00100000
00010000
,
00100000
00000000
00013000
00000000
00001000
00010000
00000100
00000000
,
00000010
00002001
00000100
00000001
,
00000100
00000000
00003001
00000000
00001000
00000001
00000100
00000000
,
00000001
00000100
00000001
00000000
00001000
00000010
00001000
00000000
,
00000200
00020300
00032000
00003000
,
00100000
00100000
00001000
00000000
00010000
00010000
00000100
00000000
,
00020000
00000000
00032000
00000000
00103000
00010000
01000000
00000000
,
00001000
00010000
00000000
00000000
00000100
00001000
00000000
00000000
,
00000001
00000100
00000020
00000000
00002030
00000000
00003100
00000000
,
00010000
00010000
00000100
00000000
00010000
00010000
00000010
00000000
,
00010000
00000100
00000020
00000000
00000032
00000000
00001003
00000000
,
00002002
00003003
00022000
00033000
,
20010000
00000000
30010000
00000000
10000000
01000000
00100000
00010000
,
02000000
00001000
00010000
00001000
,
00010000
00000000
03001000
00000000
00010000
00000100
00000010
00000001
,
00002000
00000001
00000100
00000001
,
00000100
00000000
00003001
00000000
00001000
00000001
00000001
00000100
,
00000020
00000000
00010000
00003000
00001000
00000000
00010000
00000000
,
00001000
00000000
00010030
00000000
00000010
00010000
00001000
00100000
,
00020000
10000000
00100000
10000000
,
00100000
00000000
10030000
00000000
00010000
01000000
01000000
00100000
,
00000000
10000000
02000000
00000000
03100000
00000000
00010000
00000000
,
00000000
00100000
00002000
00000000
00023000
00000000
00030100
00000000
,
00000000
00001000
00000020
00000000
00000230
00000000
00000302
00000000
,
00001003
00000100
00000010
00000001
00001000
00000000
00001001
00000000
,
00000000
00000001
00000200
00000000
00000320
00000000
00001030
00000000
,
00000000
00000100
00020000
00000000
00032000
00000000
00103000
00000000
,
00000000
00010000
10000000
00010000
02000000
00000000
03100000
00000000
,
10100000
00000000
01010000
00000000
00100000
00001000
00010000
00010000
;

//---------------dance-double - ----------------
#NOTES:
     dance-double:
     :
     Easy:
     4:
     0.209388,0.220175,0.042362,0.135558,0.000000,173.000000,168.000000,5.000000,16.000000,0.000000,0.000000,0.209388,0.220175,0.042362,0.135558,0.000000,173.000000,168.000000,5.000000,16.000000,0.000000,0.000000:
00000000
00000000
00000000
00000000
,
00000000
00000000
00000000
00000000
,
10000000
20020000
30030000
00000000
,
10000000
00100000
01000000
00000000
,
00001000
00022000
00033000
00000000
,
00000100
00000100
00000010
00000000
,
00000001
00002002
00003003
00000000
,
00000001
00000100
00000010
00000000
,
00010000
00022000
00033000
00000000
,
00100000
00100000
01000000
00000000
,
10000000
00100000
01000000
00000000
,
00010000
00100000
00001000
00000000
,
00010000
00010000
00000010
00000010
,
00000100
00000000
00000001
00001000
,
00000001
00000100
00000010
00000000
,
00001000
00000100
00010000
00000000
,
00001000
00001000
01000000
01000000
,
00100000
10000000
00010000
00000000
,
10000000
01000000
10000000
00000000
,
00010000
01000000
00010000
00000000
,
00100000
00100000
00001000
00001000
,
00010000
00000000
00000100
00000010
,
00000001
00001000
00000001
00000000
,
00001000
00000010
00001000
00000000
,
00000100
00000100
00010000
00010000
,
00001000
00100000
00010000
10000000
,
00000000
00100000
00100000
00100000
,
00100000
10000000
00010000
01000000
,
00000000
00001000
00001000
00001000
,
00001000
00010000
00000100
00000010
,
00000000
00000001
00000001
00000001
,
00000001
00001000
00000001
00000100
,
00000000
00000010
00000010
00000000
,
00001000
00000000
00000100
00000000
,
00020000
00030000
00002000
00003000
,
00100000
00100000
00010000
00000000
,
20000000
30000000
00200000
00300000
,
01000000
01000000
00001000
00000000
,
00020000
00030000
00002000
00003000
,
00010000
00010000
00000100
00000000
,
00000020
00000030
00000020
00000030
,
00000001
00001000
00000001
00000000
,
00000000
00001000
00001000
00001000
,
00001000
00000100
00010000
00001000
,
00000000
00100000
00100000
00100000
,
00100000
00010000
10000000
00100000
,
00000000
01000000
01000000
01000000
,
01000000
00010000
00100000
00001000
,
00000000
00010000
00010000
00010000
,
00010000
00000100
00000010
00000000
,
00000001
00000000
00001000
00000000
,
00000001
00000100
00000010
00000000
,
00001000
00000000
00000100
00000000
,
00010000
00001000
00010000
00000000
,
00001000
00000000
00100000
00000000
,
00010000
01000000
00100000
00000000
,
10000000
10000000
00010000
00010000
,
00100000
00001000
00010000
00011000
;
