#TITLE:How Long;
#SUBTITLE:;
#ARTIST:Tove Lo;
#TITLETRANSLIT:;
#SUBTITLETRANSLIT:;
#ARTISTTRANSLIT:;
#GENRE:;
#CREDIT:;
#BANNER:How Long.png;
#BACKGROUND:How Long-bg.png;
#LYRICSPATH:;
#CDTITLE:;
#MUSIC:How Long.ogg;
#OFFSET:0.000000;
#SAMPLESTART:44.342972;
#SAMPLELENGTH:17.320007;
#SELECTABLE:YES;
#BPMS:0.000000=97.000000
;
#STOPS:
;
#BGCHANGES:;
#KEYSOUNDS:;
#ATTACKS:;

//---------------dance-double - ----------------
#NOTES:
     dance-double:
     :
     Easy:
     5:
     0.182840,0.200463,0.161912,0.254433,0.000000,166.000000,145.000000,21.000000,33.000000,0.000000,0.000000,0.182840,0.200463,0.161912,0.254433,0.000000,166.000000,145.000000,21.000000,33.000000,0.000000,0.000000:
// measure 0
00000000
00000000
00000000
00000000
,  // measure 1
00000000
00000000
00000000
00000000
,  // measure 2
00000000
20000000
30000000
01000000
,  // measure 3
00100000
00001000
00010000
00000000
,  // measure 4
00000010
00000200
00000300
00000001
,  // measure 5
00000010
00000100
00010000
00000000
,  // measure 6
00000100
00000020
00000030
00000001
,  // measure 7
00001000
00000002
00000003
00000100
,  // measure 8
00000010
00020000
00000000
00031000
,  // measure 9
00000000
00100000
00100000
00101000
,  // measure 10
00000000
01100000
00000000
01000000
,  // measure 11
10000000
00020000
00030000
00100000
,  // measure 12
00001000
00011000
00000000
00010000
,  // measure 13
00000010
00000100
00000010
00001000
,  // measure 14
00000001
00001001
00000000
00001000
,  // measure 15
00000100
00010100
00000000
00100000
,  // measure 16
00010000
20000000
30000000
00000000
,  // measure 17
00000000
00020000
00030000
00000000
,  // measure 18
10010000
10000000
01000000
00100000
,  // measure 19
00000000
00001000
00001000
00010000
,  // measure 20
00000000
00000020
00000130
00000000
,  // measure 21
00000010
00020000
00031000
00000000
,  // measure 22
00100000
01100000
00000000
00010000
,  // measure 23
00000000
00101000
00000000
00000010
,  // measure 24
00001000
00002020
00003030
00000001
,  // measure 25
00000000
00000010
00000100
00010000
,  // measure 26
00001000
00100000
01000000
10000000
,  // measure 27
00000000
00100000
00100000
10000000
,  // measure 28
00010000
00220000
00330000
00001000
,  // measure 29
00010000
00020020
00030030
00000010
,  // measure 30
00000100
00000110
00000000
00000001
,  // measure 31
00000000
00001000
00000000
00000200
,  // measure 32
00020300
00031000
00000000
00100000
,  // measure 33
00000000
00010000
00000000
02000000
,  // measure 34
03002000
00013000
00000000
00001000
,  // measure 35
00000000
00100000
01000000
10000000
,  // measure 36
00100000
02000000
03000000
00000000
,  // measure 37
00000000
00000000
00001000
00000000
00000000
00010000
00000000
00000000
,  // measure 38
00011000
00001000
00010000
00000010
,  // measure 39
00000000
00000100
00000100
00000001
,  // measure 40
00000000
00000000
00000020
00000000
00000000
00000100
00000130
00000000
,  // measure 41
00000000
00000000
00020000
00000000
00000000
00001000
00031000
00000000
,  // measure 42
01000000
00100000
20200000
30300000
,  // measure 43
10000000
00010000
00220000
00330000
,  // measure 44
00100000
00000000
00101000
00000000
00000000
00001000
00010000
00000000
,  // measure 45
00000000
00000100
00000010
00000001
,  // measure 46
00000100
00000110
00000010
00010000
,  // measure 47
00000000
00001000
01000000
00001000
,  // measure 48
00100000
02200000
03300000
00010000
,  // measure 49
10000000
20020000
30030000
20200000
,  // measure 50
30300000
00100000
00000000
01000000
,  // measure 51
00000000
00001000
00010000
00001000
,  // measure 52
00011000
00000000
00000000
00000000
;

//---------------dance-double - ----------------
#NOTES:
     dance-double:
     :
     Medium:
     9:
     0.327129,0.360833,0.092521,0.254433,0.154202,297.000000,285.000000,12.000000,33.000000,0.000000,0.000000,0.327129,0.360833,0.092521,0.254433,0.154202,297.000000,285.000000,12.000000,33.000000,0.000000,0.000000:
00000000
00000000
00000000
00000000
,
00000000
00000000
00000000
00000000
,
00000000
00001000
01000000
00000100
,
00010000
00001000
00100000
00001000
00010000
00000000
00001000
00000000
,
01000000
00001000
00010000
00000000
00000010
00000000
00100000
00000000
,
00001000
00010000
00000100
00010000
00001000
00000000
00010000
00000000
,
00000010
00000000
00001000
00000000
00000001
00000000
00000000
00000010
00000000
00000000
00000100
00000000
00010000
00000000
00000000
00000000
,
00001000
00000000
00100000
00000000
00010000
00000000
00000000
01000000
00000000
00000000
00100000
00000000
10000000
00000000
00000000
01000000
,
00000000
00100000
00002000
00000000
00013000
00000010
00000100
00000000
,
00000010
00000000
00000000
00010000
00001000
00000000
00000000
00010000
00001000
00000000
00010000
00000000
00200000
00000000
00000000
00000000
,
10300000
00000000
00010000
00000000
00100000
00000000
00000000
00001000
00020000
00000000
00000000
00000000
00030100
00000000
00000000
00000000
,
00000010
00000001
00000200
00000000
00000310
00000000
00001010
00000000
,
00001000
00000000
00000100
00000000
00010000
00000000
00000000
00001000
02000000
00000000
00000000
00000000
03100000
00000000
10000000
00000000
,
00010000
00100000
00001000
00010000
00000010
00000000
00000110
00000000
,
00000100
00000000
00000001
00000000
00000010
00000000
00000000
00001000
00000000
00000000
00010000
00000000
00001000
00000000
00010000
00000000
,
01000000
00000000
10000000
00000000
00100000
00000000
00000000
00010000
00000000
00000000
00001000
00000000
00020000
00000000
00000000
00000000
,
00031000
00000000
00000100
00000000
00000020
00000000
00000000
00000030
00000000
00000000
00000000
00000000
00000000
00000000
00000000
00000000
,
00000000
00000000
00001000
00000000
00000002
00000000
00000000
00000003
00000000
00000000
00000000
00000000
00000000
00000000
00000000
00000000
,
00010100
00000000
00000000
00000000
00012000
00000000
00000000
00000000
01003000
00000000
00100000
10000000
00000000
00100000
00000000
00000000
,
01000000
00000000
00001000
00000000
00010000
00000000
00000000
00000000
00000100
00000000
00000010
00000001
00000000
00000010
00000000
00000000
,
00000100
00010000
00002000
00000000
00010000
00000000
02003000
00000000
,
03010000
00100000
00002000
00000000
00010000
00000000
02003000
00000000
,
03100000
10000000
00010000
00000000
00100000
01000000
00010000
00000000
,
00001000
00010000
00000100
00000000
00001000
00000001
00000100
00000000
,
00001000
00010000
00022000
00000000
00033000
00000000
00001000
00000000
,
00100000
00000000
00000000
00000000
01000000
00000000
00000000
10000000
00000000
00000000
00010000
00000000
00000000
00100000
00000000
00000000
,
00001000
00000000
00000000
00011000
00000000
00000000
00010000
00000000
00000100
00000000
00000000
00000000
00000010
00000000
00000001
00000000
,
00000100
00000001
00000010
00000000
00000001
00000000
00001000
00000000
,
00000100
00010000
00022000
00000000
00033000
00000000
00001000
00000000
,
01000000
00100000
20200000
00000000
30300000
00010000
00200000
00000000
,
00302000
00013000
00000010
00010000
,
00000010
00000000
00000000
00000000
00000100
00000000
00000000
00000000
00000001
00000000
00000000
00000000
00002000
00000000
00000000
00003100
,
00000000
00010000
00001000
00010000
00000000
00000000
00001000
00000000
01000000
00000000
00000000
00000000
00001000
00000000
00000000
00000000
,
01000000
00000000
00000000
00000000
00100000
00000000
00000000
00000000
10000000
00000000
00000000
00000000
00020000
00000000
00000000
00130000
,
00000000
00001000
00010000
00001000
00000000
00000000
00010000
00000000
00000010
00000000
00000000
00000000
00000100
00000000
00000001
00000000
,
00001000
00000000
00000100
00010000
00001000
00000000
01000000
00010000
,
10000000
01000000
00200000
00000000
00300000
00000000
00002000
00000000
,
00000000
00000000
00000000
00000000
00010000
00000000
00000000
01000000
00000000
00000000
00013000
00000000
00000000
00001000
00010000
00000100
,
00000000
00000010
00000000
00000000
00000120
00000000
00000000
00000000
00000031
00000000
00001000
00000010
00000000
00001000
00000000
00000000
,
00000100
00000000
00010000
00000000
00001000
00000000
01000000
00000000
00100000
00000000
10000000
01000000
00000000
10000000
00000000
00000000
,
00010000
01000000
00002000
00000000
00003010
00000001
00000001
00000000
,
00000100
00001000
00020000
00000000
00130000
10000000
10000000
00000000
,
01000000
00000000
00100000
00000000
00001000
00000000
00010000
00000000
00000010
00000000
00000100
00000001
00000000
00000100
00000000
00000000
,
00000010
00000000
00010000
00000000
00001000
00000000
00100000
00000000
01000000
00000000
10000000
00010000
00000000
10000000
00000000
00000000
,
00010000
00000000
01000000
00000000
02002000
00000000
00000000
00000000
03003000
00000000
00001000
00010000
00001000
00000000
00000000
00000000
,
00010000
00000000
00000000
00000000
00000100
00000000
00000000
00000010
00000000
00000000
00000001
00000000
00000000
00000100
00000000
00000000
,
00001000
00000000
00000000
00011000
00000000
00000000
00010000
00000000
00000100
00000000
00000000
00000000
00010000
00000000
00001000
00000000
,
00100000
01000000
10000000
00010000
01000000
00000000
00001000
00010000
,
00001000
00000010
00000002
00000000
00001003
00000000
00000010
00010000
,
00001000
00000100
00000002
00000000
00000013
00001000
00020000
00000000
,
01030000
10000000
00010000
00000000
10000000
00000000
00100000
00000000
,
01000000
00001000
00010000
00000000
00000100
00000010
00000100
00010000
,
00011000
00000000
00000000
00000000
;

//---------------dance-double - ----------------
#NOTES:
     dance-double:
     :
     Hard:
     12:
     0.458200,0.481110,0.161912,0.285274,0.516577,416.000000,395.000000,21.000000,37.000000,0.000000,0.000000,0.458200,0.481110,0.161912,0.285274,0.516577,416.000000,395.000000,21.000000,37.000000,0.000000,0.000000:
00000000
00000000
00000000
00000000
,
00000000
00000000
00000000
00000000
,
00000000
00000000
00001000
00100000
01000000
00100000
00001000
00010000
,
00000010
00000100
00000100
00000001
00001000
00000000
00000001
00000000
,
00000010
00001000
00010000
00000100
00000010
00000100
00010000
00001000
,
01000000
00100000
00100000
10000000
01000000
00000000
00100000
00000000
,
01000000
00100000
00010000
00100000
00001000
00000000
00000000
00010000
00001000
00000000
00000020
00000000
00000031
00000000
00000000
00000000
,
00000100
00000010
00001000
00000010
00010000
00000000
00000000
00001000
00010000
00000000
00200000
00000000
10300000
00000000
00010000
01000000
,
00100000
00000000
00010000
00000000
00002000
00000000
00000000
00000000
00003100
00000010
00001000
00000001
00000010
00000000
00000100
00000000
,
00010000
00000000
00001000
00010000
00000100
00000000
00010000
00001000
01000000
00000000
00100000
00000000
01100000
00000000
00000000
00000000
,
01000000
00000000
00001000
00000000
00011000
00000000
00000000
00010000
00000010
00000000
00001000
00000000
00000100
00000000
00000010
00000000
,
00001000
00000001
00000200
00000000
00001300
00000000
00001010
00000000
,
00000010
00000000
00010000
00000000
00011000
00000000
00000000
00001000
00100000
00000000
00010000
00000000
01000000
00000000
10000000
00000000
,
00010000
00000000
00100000
00000000
10000000
00010000
10000000
00000000
01000000
00000000
00000000
00000000
00110000
00000000
00000000
00000000
,
00100000
00001000
00010000
00000100
00001000
00000000
00000000
00000001
00000100
00000000
00002000
00000000
00003100
00000000
00000010
00001000
,
00000010
00010000
00001000
01000000
00010000
00000000
00000000
00100000
01000000
00000000
00020000
00000000
02030000
00000000
00000000
00000000
,
23000000
00000000
30200000
00000000
00320000
00000000
00000000
00031000
00000000
00000000
00000000
00000000
00000000
00000000
00000000
00000000
,
00000000
00000000
02000000
00000000
03002000
00000000
00000000
00013000
00000000
00000000
00000000
00000000
00000000
00000000
00000000
00000100
,
00000000
00000010
00000000
00000001
00000000
00001000
00000010
00000000
00000100
00000000
00001000
00010000
00000000
00010000
00000000
00000010
,
00000000
00000100
00000000
00000001
00000000
00001000
00000100
00000000
00000010
00000000
00001000
00010000
00000000
00010000
00000000
00000000
,
00001000
00010000
00001000
00010000
00100000
00000000
00010000
00100000
10000000
00000000
01000000
00000000
00200000
00000000
00000000
00000000
,
00301000
00010000
00001000
00010000
01000000
00000000
00010000
01000000
10000000
00000000
00100000
00000000
02000000
00000000
00000000
03001000
,
00000000
00010000
00000000
00000010
00000000
00100000
00001000
00000000
00010000
00000000
00000100
00001000
00000000
00000010
00000000
00010000
,
00000000
00001000
00000000
01000000
00000000
00000100
00010000
00000000
00001000
00000000
00100000
00010000
00000000
00010000
00000000
00000000
,
01000000
01100000
02002000
00000000
03003000
10000000
00010000
00000000
,
00100000
00000000
01000000
00000000
20000000
00000000
00000000
30100000
00000000
00000000
00020000
00000000
00000000
00031000
00000000
00000100
,
00000010
00001000
00000001
00000010
00000000
00000100
00001000
00000000
00000001
00000000
00000010
00001000
00000000
00010000
00000000
01000000
,
00000000
10000000
00000000
00100000
00000000
10000000
00010000
00000000
01000000
00000000
00100000
00010000
00000000
00001000
00000000
00000000
,
00000010
00000001
00000022
00000000
00000033
00000010
00001000
00010000
,
00100000
00000000
10000000
00000000
20100000
00000000
00000000
00000000
30010000
00000000
00100000
00000000
00010000
00100000
00001000
00010000
,
00000010
00001000
00000001
00001000
00000100
00000000
00000000
00000000
00000110
00000000
00000000
00000000
00000010
00000001
00000000
00000100
,
00000001
00000000
00000000
00000000
00001000
00000000
00000000
00000000
00001100
00000000
00000000
00000000
00020100
00000000
00000000
00031000
,
00000000
00010000
00001000
01000000
00100000
00000000
00000000
00000000
10100000
00000000
00000000
00000000
10000000
01000000
00000000
10000000
,
00100000
00000000
00000000
00000000
01000000
00000000
00000000
00000000
01010000
00000000
00000000
00000000
01002000
00000000
00000000
00013000
,
00000000
00000010
00000100
00000010
00000000
00000000
00000001
00000000
00000010
00000000
00001000
00000000
00000100
00010000
00000000
00010000
,
00001000
00000000
01000000
00000000
00100000
00000000
00010000
00000000
00100000
00000000
10000000
00000000
01000000
00000000
00010000
00001000
,
00000000
00010000
00001000
00000020
00000000
00000000
00000000
00000000
00000030
00000000
00000000
00000000
00000200
00000000
00000000
00000000
,
00000000
00000000
00000000
00000000
00000001
00000000
00000000
00000010
00000000
00000000
00001300
00000000
00000000
00000100
00010000
00001000
,
00000000
01000000
00000000
00100000
10000000
00010000
01000000
00000000
00100000
00000000
00010000
00001000
00000000
00000100
00000000
00000001
,
00000000
00000010
00000000
00000100
00001000
00000001
00000100
00000000
00001000
00000000
00010000
00100000
00000000
10000000
00000000
00000000
,
00010000
00100000
01000000
00010000
00001000
00000000
00000010
00001000
00020000
00000000
00000100
00000000
00030100
00000000
00000000
00000000
,
00001000
00000010
00000100
00001000
00010000
00000000
00100000
00010000
00002000
00000000
01000000
00000000
01003000
00010000
10000000
01000000
,
00000000
00010000
00001000
00100000
00000000
00001000
00010000
00000000
00000200
00000000
01000300
00002000
00000000
10003000
00000000
00010000
,
00100000
00001000
00000000
00010000
00001000
01000000
00010000
00000000
00200000
00000000
00300010
00020000
00000000
00030001
00000000
00000000
,
00000010
00000000
00000110
00000000
00020200
00000000
00000000
00000000
00030300
00000000
00001000
00010000
00001000
00000000
00000000
00000000
,
00000000
00000000
00000000
00000000
01000000
00000000
00000000
00000100
00000000
00000000
00010000
00000000
00001000
00100000
00000000
00001000
,
01000000
00001000
00010000
00000010
00000000
00000100
00000010
00000000
00000001
00000000
00001000
00000100
00000000
00000010
00000000
00010000
,
00000000
00001000
00000000
00100000
00000000
01000000
00010000
00000000
10000000
00000000
00100000
00001000
00000000
00010000
00000000
00000000
,
00000010
00000100
00000202
00000000
00000303
00000100
00001000
00010000
,
01000000
10000000
21000000
00000000
30010000
00100000
00102000
00000000
,
00013000
00000010
00000100
00000000
00000001
00000000
00001000
00000000
,
00000100
00010000
00001000
00010000
00000010
00010000
00001000
01000000
,
01010000
00000000
00000000
00000000
;
