#VERSION:0.83;
#TITLE:Hoedown Throwdown;
#SUBTITLE:;
#ARTIST:Miley Cyrus;
#TITLETRANSLIT:;
#SUBTITLETRANSLIT:;
#ARTISTTRANSLIT:;
#GENRE:;
#ORIGIN:;
#CREDIT:;
#BANNER:banner.png;
#BACKGROUND:Hoedown Throwdown-bg.png;
#PREVIEWVID:;
#JACKET:jacket.png;
#CDIMAGE:;
#DISCIMAGE:;
#LYRICSPATH:;
#CDTITLE:;
#MUSIC:Hoedown Throwdown.ogg;
#OFFSET:-0.375000;
#SAMPLESTART:46.659000;
#SAMPLELENGTH:8.800000;
#SELECTABLE:YES;
#BPMS:0.000=108.893;
#STOPS:;
#DELAYS:;
#WARPS:;
#TIMESIGNATURES:0.000=4=4;
#TICKCOUNTS:0.000=4;
#COMBOS:0.000=1;
#SPEEDS:0.000=1.000=0.000=0;
#SCROLLS:0.000=1.000;
#FAKES:;
#LABELS:0.000=Song Start;
#BGCHANGES:-0.375=Hoedown Throwdown.avi=1.000=0=0=0=StretchNoLoop====,
99999=-nosongbg-=1.000=0=0=0 // don't automatically add -songbackground-
;
#KEYSOUNDS:;
#ATTACKS:
;

//---------------dance-single - ----------------
#NOTEDATA:;
#CHARTNAME:;
#STEPSTYPE:dance-single;
#DESCRIPTION:;
#CHARTSTYLE:;
#DIFFICULTY:Beginner;
#METER:2;
#RADARVALUES:0.113166,0.153863,0.069641,0.000000,0.000000,91.000000,83.000000,8.000000,0.000000,0.000000,0.000000,0.000000,0.000000,0.000000,0.113166,0.153863,0.069641,0.000000,0.000000,91.000000,83.000000,8.000000,0.000000,0.000000,0.000000,0.000000,0.000000,0.000000;
#CREDIT:Venomothim;
#NOTES:
0000
0000
0000
0000
,
0000
0000
0000
0000
,
0000
0000
0000
0000
,
0000
0000
0000
0000
,
0000
0000
0000
0000
,
0000
0000
0000
0000
,
0000
0000
0000
0000
,
0000
0000
0000
0000
,
0000
0000
0000
0000
,
0000
0000
0000
0000
,
0001
0000
0001
0000
,
1000
0000
1000
0000
,
0001
0000
0001
0000
,
1000
0000
1000
0000
,
0100
0000
0100
0000
,
0010
0000
0010
0000
,
0001
0000
0001
0000
,
1000
0000
0000
0000
,
0010
0000
0000
0000
,
0100
0000
0100
0000
,
0001
0000
1001
0000
,
1000
0000
1000
0000
,
0100
0000
0100
0000
,
0010
0000
0010
0000
,
0001
0000
1001
0000
,
0001
0000
0001
0000
,
1000
1000
1000
0000
,
0010
0000
0010
0000
,
0100
0000
1001
0000
,
1000
0000
0100
0000
,
0001
0000
0100
0000
,
1000
0000
0010
0000
,
0100
0000
1001
0000
,
0001
0000
0001
0001
,
0001
0000
1000
0000
,
1000
0000
1000
0000
,
0010
0000
0010
0000
,
0100
0000
0100
0000
,
0001
0000
1001
0000
,
1000
0000
1000
0000
,
0100
0000
0100
0000
,
0010
0000
0010
0000
,
0001
0000
1001
0000
,
0001
0000
0001
0000
,
1000
1000
1000
0000
,
0010
0000
0100
0000
,
0010
0000
1001
0000
,
0001
0000
0100
0000
,
1000
0000
0100
0000
,
0001
0000
0010
0000
,
0100
0000
1001
0000
;

//---------------dance-single - ----------------
#NOTEDATA:;
#CHARTNAME:;
#STEPSTYPE:dance-single;
#DESCRIPTION:;
#CHARTSTYLE:;
#DIFFICULTY:Easy;
#METER:6;
#RADARVALUES:0.207679,0.309249,0.208923,0.069641,0.000000,167.000000,143.000000,24.000000,8.000000,0.000000,0.000000,0.000000,0.000000,0.000000,0.207679,0.309249,0.208923,0.069641,0.000000,167.000000,143.000000,24.000000,8.000000,0.000000,0.000000,0.000000,0.000000,0.000000;
#CREDIT:Venomothim;
#NOTES:
0000
0000
0000
0000
,
0000
0000
0000
0000
,
0000
0000
0000
0000
,
0000
0000
0000
0000
,
0000
0000
0000
0000
,
0000
0000
0000
0000
,
0000
0000
0000
0000
,
0000
0000
0000
0000
,
0000
0000
0000
0000
,
0000
0000
0000
0000
,
0001
0001
0001
0000
,
1000
1000
1000
0000
,
0100
0100
0100
0000
,
1000
1000
0010
0000
,
0001
0001
0010
0000
,
1000
1000
0100
0000
,
0001
0001
0100
0000
,
1000
0010
0100
0001
,
0010
0100
1000
1000
,
0001
0001
1010
0011
,
0001
1100
0110
1001
,
1000
0010
0100
0100
,
0001
0010
0011
1100
,
1000
0100
0001
0010
,
0001
0100
1000
0001
,
1000
0010
1001
0101
,
0001
0000
1000
0000
0000
1000
1000
1000
,
0100
1000
0010
0100
,
0001
0010
0100
1001
,
0002
0000
0103
0000
,
2000
0000
3100
0000
,
0002
0000
0013
0000
,
0200
0300
0110
1001
,
0001
0001
1000
0000
,
1000
1000
0001
0000
,
1000
0010
0100
0001
,
0010
0100
1000
0001
,
1000
0010
1100
0101
,
0001
1010
0110
1001
,
0001
0010
0001
0001
,
1000
0001
1010
0101
,
1000
0010
0001
0100
,
0001
0010
1000
0001
,
1000
0001
0011
1100
,
0001
0000
1000
0000
0000
1000
1000
1000
,
0010
1000
0010
0100
,
0001
0010
0100
1001
,
2000
0000
3100
0000
,
0002
0000
0103
0000
,
2000
0000
3010
0000
,
0200
0300
0110
1001
;

//---------------dance-single - ----------------
#NOTEDATA:;
#CHARTNAME:;
#STEPSTYPE:dance-single;
#DESCRIPTION:;
#CHARTSTYLE:;
#DIFFICULTY:Medium;
#METER:9;
#RADARVALUES:0.289756,0.353428,0.261153,0.104461,0.091404,233.000000,203.000000,30.000000,12.000000,0.000000,0.000000,0.000000,0.000000,0.000000,0.289756,0.353428,0.261153,0.104461,0.091404,233.000000,203.000000,30.000000,12.000000,0.000000,0.000000,0.000000,0.000000,0.000000;
#CREDIT:Venomothim;
#NOTES:
0000
0000
0000
0000
,
0000
0000
0000
0000
,
0000
0000
0000
0000
,
0000
0000
0000
0000
,
0000
0000
0000
0000
,
0000
0000
0000
0000
,
0000
0000
0000
0000
,
0000
0000
0000
0000
,
0000
0000
0000
0000
,
0000
0000
0000
0000
,
0000
0000
0000
0000
0001
0000
0000
0000
0000
0000
0000
0001
0000
0000
0001
0000
,
0000
0000
0000
0000
1000
0000
0000
0000
0000
0000
0000
1000
0000
0000
1000
0000
,
0000
0000
0000
0000
0010
0000
0000
0000
0000
0000
0000
0010
0000
0000
0010
0000
,
1000
0000
0000
0000
1000
0000
0000
0000
0001
0000
0000
0001
0000
0000
0001
0000
,
0100
0000
0000
0000
0100
0000
0000
0000
0010
0000
0000
0010
0000
0000
0010
0000
,
1000
0000
0000
0000
1000
0000
0000
0000
0100
0000
0000
0100
0000
0000
0100
0000
,
0010
0000
0000
0000
0010
0000
0000
0000
0001
0000
0000
0001
0000
0000
0001
0000
,
1000
1000
0010
0000
0001
0001
0010
0000
,
1000
1000
0100
0000
0001
0001
0100
0000
,
1000
0001
0010
0000
1010
0000
0011
0000
,
0001
1000
1100
0000
0110
0000
1001
0000
,
0001
0000
1000
0000
0100
0000
0000
0000
0010
0000
0000
0010
0000
0000
0000
0000
,
0001
0000
0100
0000
0010
0000
0000
0000
1010
0000
0000
0101
0000
0000
0001
0000
,
1000
0000
0000
0000
0100
0000
0000
0000
0110
0000
0000
1001
0000
0000
0000
0000
,
1000
0010
0001
0100
0001
0010
1000
0000
,
0001
0000
1000
0000
0100
0000
0000
0000
1010
0000
0000
0011
0000
0000
0000
0000
,
0001
0000
0001
0000
1000
0000
0000
0100
0000
0000
1000
0000
1000
0000
1000
0000
,
0001
0000
0000
0000
1000
0000
0000
0000
0010
0000
0000
0100
0000
0000
0000
0000
,
0001
0010
0100
0000
0110
0000
1001
0000
,
0002
0103
2000
3100
,
0002
0013
2000
3010
,
0002
0103
2000
3100
,
0001
0010
0100
0000
0110
0000
1001
0000
,
0001
0000
0000
0000
0001
0000
0000
0000
1000
0000
0000
0010
0000
0000
0010
0000
,
1000
0000
0000
0000
1000
0000
0000
0000
0001
0000
0000
0010
0000
0000
0010
0000
,
0001
0100
1000
0000
1000
0100
0001
0000
,
1000
0100
0001
0000
0001
0100
1000
0000
,
0001
1000
0010
0000
1010
0000
0011
0000
,
0001
1000
1100
0000
0110
0000
1001
0000
,
0001
0000
1000
0000
0010
0000
0000
0000
0100
0000
0000
0100
0000
0000
0000
0000
,
0001
0000
1000
0000
0100
0000
0000
0000
0011
0000
0000
1100
0000
0000
0001
0000
,
1000
0000
0000
0000
0100
0000
0000
0000
1010
0000
0000
0011
0000
0000
0000
0000
,
0001
0100
1000
0010
1000
0100
0001
0000
,
0001
0000
1000
0000
0010
0000
0000
0000
1100
0000
0000
0101
0000
0000
0000
0000
,
0001
0000
0001
0000
1000
0000
0000
0010
0000
0000
1000
0000
1000
0000
1000
0000
,
0001
0000
0000
0000
1000
0000
0000
0000
0010
0000
0000
0100
0000
0000
0000
0000
,
0001
1000
0010
0000
0110
0000
1001
0000
,
0002
0100
2003
0100
,
3002
0010
2003
0010
,
3002
0100
2003
0100
,
3001
0100
0010
0000
0110
0000
1001
0000
;

//---------------dance-single - ----------------
#NOTEDATA:;
#CHARTNAME:;
#STEPSTYPE:dance-single;
#DESCRIPTION:;
#CHARTSTYLE:;
#DIFFICULTY:Hard;
#METER:11;
#RADARVALUES:0.414115,0.465016,0.513602,0.017410,0.187160,333.000000,274.000000,59.000000,2.000000,0.000000,0.000000,0.000000,0.000000,0.000000,0.414115,0.465016,0.513602,0.017410,0.187160,333.000000,274.000000,59.000000,2.000000,0.000000,0.000000,0.000000,0.000000,0.000000;
#CREDIT:;
#NOTES:
// measure 0
0000
0000
0000
0000
,  // measure 1
0000
0000
0000
0000
,  // measure 2
0000
0000
0000
0000
,  // measure 3
0000
0000
0000
0000
,  // measure 4
0000
0000
0000
0000
,  // measure 5
0000
0000
0000
0000
,  // measure 6
0000
0000
0000
0000
,  // measure 7
0000
0000
0000
0000
,  // measure 8
0000
0000
0000
0000
,  // measure 9
0000
0000
0000
0000
,  // measure 10
0001
0000
0000
0000
0101
0000
0000
0000
0001
0000
0000
1100
0000
0000
0101
0000
,  // measure 11
1000
0000
0000
0000
1010
0000
0000
0000
1000
0000
0000
0011
0000
0000
1010
0000
,  // measure 12
0100
0000
0000
0000
1001
0000
0000
0000
0100
0000
0000
1010
0000
0000
0011
0000
,  // measure 13
0001
0000
0000
0000
0101
0000
0000
0000
0001
0000
1000
0001
0000
1000
0001
0000
,  // measure 14
1000
0000
0000
0000
1100
0000
0000
0000
0001
0000
1000
0001
0000
1000
0001
0000
,  // measure 15
0100
0000
0000
0000
0110
0000
0000
0000
0010
0000
1000
0001
0000
1000
0001
0000
,  // measure 16
0010
0000
0000
0000
0110
0000
0000
0000
0010
0000
0001
1000
0000
0001
1000
0000
,  // measure 17
0001
0010
1000
0001
0100
1000
0010
0100
,  // measure 18
0001
0100
1000
0100
0001
0001
1000
1000
,  // measure 19
0010
0000
1000
0000
0001
0000
0000
0000
0011
0000
0000
1010
0000
0000
0000
0000
,  // measure 20
0001
0000
1000
0100
1000
0000
0000
0000
1000
0001
0000
0000
0200
0000
0000
0000
,  // measure 21
0301
0000
1000
0000
0010
0000
0000
1000
0001
0000
0001
0100
0000
0000
0110
0000
,  // measure 22
1000
0000
0010
0000
0001
0000
1000
0000
0101
0000
0000
1010
0000
0000
0001
0000
,  // measure 23
1000
0000
0110
0001
0010
0100
1000
0000
,  // measure 24
1000
0010
0001
0100
0001
0010
1000
0001
,  // measure 25
1000
0000
0100
0000
1000
0000
0000
1000
0001
0000
0100
0001
0000
0000
1001
0000
,  // measure 26
0001
0000
0001
0000
1000
0000
0100
1000
0000
0000
1100
0000
1001
0000
1010
0000
,  // measure 27
0010
1000
0100
0000
0010
0001
0100
0000
,  // measure 28
1000
0000
0100
0000
0001
0000
0010
0000
0100
0000
0000
0110
0000
0000
0001
0000
,  // measure 29
1000
0000
0000
0000
1100
0000
0000
0000
0001
0000
0000
0101
0000
0000
0101
0000
,  // measure 30
1000
0000
0000
0000
1010
0000
0000
0000
0001
0000
0000
0011
0000
0000
0011
0000
,  // measure 31
1000
0000
0000
0000
1100
0000
0000
0000
0001
0000
0000
0101
0000
0000
1001
0000
,  // measure 32
0001
0000
0100
0000
1000
0000
0100
0000
0010
0000
0000
0110
0000
0000
1001
0000
,  // measure 33
0001
0000
0000
0000
1100
0000
0000
0000
1000
0000
0001
0010
0000
0001
0010
0000
,  // measure 34
0001
0000
0001
0000
1010
0000
0000
0000
0001
0000
0100
0001
0000
0100
0001
0000
,  // measure 35
1000
0100
0001
1000
0010
0001
0100
0010
,  // measure 36
0001
0010
1000
0001
1000
1000
0001
0001
,  // measure 37
1000
0000
0100
0000
0010
0000
0000
0000
0011
0000
0000
1010
0000
0000
0000
0000
,  // measure 38
0001
0000
1000
0010
1000
0000
0000
0000
1000
0001
0000
0000
0200
0000
0000
0000
,  // measure 39
0301
0000
1000
0000
0100
0000
0000
1000
0001
0000
0001
0010
0000
0000
1001
0000
,  // measure 40
0001
0000
0010
0000
1000
0000
0001
0000
1100
0000
0000
0011
0000
0000
1000
0000
,  // measure 41
0001
0000
0101
0001
1000
1000
0100
0000
,  // measure 42
1000
0010
0001
0100
0001
0010
1000
0001
,  // measure 43
1000
0000
0001
0000
0100
0000
0000
0001
1000
0000
1000
0001
0000
0000
0011
0000
,  // measure 44
0001
0000
0001
0000
1000
0000
0100
1000
0000
0000
1010
0000
1001
0000
1100
0000
,  // measure 45
0001
1000
0100
0000
0010
0001
0100
0000
,  // measure 46
1000
0000
0100
0000
0001
0000
0010
0000
0100
0000
0000
0110
0000
0000
0001
0000
,  // measure 47
1000
0000
0000
0000
1010
0000
0000
0000
0001
0000
0000
0011
0000
0000
0011
0000
,  // measure 48
1000
0000
0000
0000
1100
0000
0000
0000
0001
0000
0000
0101
0000
0000
0101
0000
,  // measure 49
1000
0000
0000
0000
0110
0000
0000
0000
0001
0000
0000
0011
0000
0000
1100
0000
,  // measure 50
0001
0000
0010
0000
1000
0000
0100
0000
0010
0000
0000
0110
0000
0000
1001
0000
;
