#TITLE:Heart Of Stone;
#SUBTITLE:;
#ARTIST:Leslie Parrish;
#TITLETRANSLIT:;
#SUBTITLETRANSLIT:;
#ARTISTTRANSLIT:;
#CREDIT:;
#BANNER:Heart Of Stone.png;
#BACKGROUND:Heart Of Stone-bg.png;
#LYRICSPATH:;
#CDTITLE:;
#MUSIC:Heart of Stone.ogg;
#OFFSET:-5.127;
#SAMPLESTART:62.101;
#SAMPLELENGTH:12.000;
#SELECTABLE:YES;
#BPMS:0.000=157.835;
#STOPS:;
#BGCHANGES:;

//---------------dance-single - ----------------
#NOTES:
     dance-single:
     :
     Hard:
     12:
     0.615,0.640,0.423,0.038,0.048:
0000
0000
0000
0000
,
0000
0000
0000
0000
,
0000
0000
0000
0000
,
0000
0000
0000
0000
,
1000
0000
0000
0000
0010
0000
0100
0001
0000
0100
0010
0000
1000
0000
0100
0000
,
0010
0000
0000
0000
0001
0000
1000
0010
0000
1000
0001
0000
0010
0000
0100
0000
,
1000
0000
0000
0000
0010
0000
0100
0001
0000
1000
0100
0000
0010
0000
0100
0000
,
1000
0000
0000
0000
0001
0000
0010
0001
0000
1000
0010
1000
0001
0000
0010
0000
,
0100
1000
0010
1000
0100
0001
0100
0000
,
0010
0001
0100
0001
0010
1000
0010
0000
,
0100
1000
0010
1000
0001
0100
1000
0000
,
0100
0001
0010
0001
1000
0010
0001
0000
,
0010
0000
0000
0000
,
0000
0000
0000
0000
,
1000
0100
1000
0001
1000
0100
0010
0001
,
0100
0010
0100
0001
2000
0000
0010
0000
,
3001
0100
0001
1000
0001
0100
0010
1000
,
0100
0010
0001
0000
0100
0010
1000
0000
,
0001
1000
0010
1000
0001
0010
0100
1000
,
0001
0100
0010
0100
0002
0000
0010
0000
,
1003
0010
1000
0001
1000
0010
0100
0001
,
1000
0100
1000
0100
0001
0100
0001
0100
,
1000
0001
0100
0010
0100
0001
0000
0001
,
1000
0010
0100
0001
0010
0100
0010
0001
,
0000
0001
1000
0010
0001
0010
1000
0000
,
0100
0010
0100
0010
0001
1000
0001
1000
,
0010
0100
0001
0010
0100
1000
0000
1000
,
0001
0100
0010
0100
0001
1000
0100
0010
,
0100
1000
0010
0100
0010
0001
0010
0000
,
1000
0010
1000
0010
0100
0001
0100
0001
,
1001
0000
1100
0000
0011
0001
0100
0110
,
0000
1010
0000
1100
0100
0010
0001
0000
,
0101
0000
1001
0000
1100
1000
0010
1010
,
0000
1001
0000
0011
0010
0100
1000
0000
,
1001
0000
0101
0000
0110
0010
1000
1010
,
0000
1001
0000
0011
0010
0100
1000
0000
,
1010
0000
1001
0000
0011
1000
0010
1010
,
0000
0110
0000
0101
1001
1000
0100
0010
,
0110
0000
1100
0000
1001
0001
0100
0010
,
1000
0100
0001
0100
0010
0001
0100
0010
,
1001
0000
1010
0000
0110
0100
0001
1000
,
0000
1000
0100
0000
0010
0100
1000
0001
,
0101
0000
0110
0000
1010
0010
1000
0001
,
0000
0001
0010
0100
0010
1000
0010
0001
,
0100
0010
0100
1000
0100
0010
0100
0001
,
1000
0100
0010
0000
0010
0001
1000
0010
,
0110
0000
0101
0000
1001
1000
0100
0010
,
0100
1000
0001
0100
1000
0100
0010
1000
,
1001
0000
0011
0000
0110
0010
0100
1000
,
0010
1000
0001
0000
0010
0100
1000
0001
,
0101
0000
0110
0000
1010
0010
1000
0001
,
0010
0100
1000
0100
0010
0100
0001
0100
,
1000
0010
0100
0010
0001
0010
0100
0010
,
1000
0100
0010
0001
1001
0000
0000
0000
,
1000
0100
1000
0001
1000
0010
0100
1000
,
0100
0001
1000
0100
0020
0000
1000
0000
,
0031
0010
0001
1000
0001
0010
1000
0010
,
0100
1000
0010
0000
0100
0001
0010
0000
,
0001
0100
0001
1000
0001
0100
1000
0100
,
0010
1000
0100
0010
0200
0000
0001
0000
,
1300
0100
1000
0001
1000
0100
0001
0100
,
1000
0010
1000
0010
0001
0010
1000
0001
,
0010
0000
0100
0000
1000
0010
0000
0010
,
0100
0000
0100
0000
0100
0000
0001
1000
0000
0000
0000
0000
0000
0000
0000
0000
;

//---------------dance-single - ----------------
#NOTES:
     dance-single:
     :
     Medium:
     9:
     0.468,0.457,0.221,0.077,0.005:
0000
0000
0000
0000
,
0000
0000
0000
0000
,
0000
0000
0000
0000
,
0000
0000
0000
0000
,
1000
0000
0010
0000
0100
0001
0100
0000
,
0001
0000
0010
0000
0100
1000
0100
0000
,
0010
0000
0001
0000
1000
0010
1000
0000
,
0100
0000
0010
0000
0001
0100
0001
0000
,
1000
0100
1000
0100
0010
0100
1000
0000
,
0001
0100
0001
0100
0010
0100
0001
0000
,
1000
0010
1000
0010
1000
0100
1000
0000
,
0001
0010
0001
0010
0001
0100
0001
0000
,
1000
0000
0000
0000
,
0000
0000
0000
0000
,
0001
1000
0010
0000
1000
0001
0010
0000
,
0100
1000
0001
1000
0200
0000
0000
0000
,
0310
0001
1000
0000
0010
1000
0001
0000
,
0012
1003
2010
3100
,
0010
0001
0100
0000
0010
1000
0100
0000
,
0010
0001
1000
0010
2000
0000
0000
0000
,
3001
0010
0100
0000
1000
0010
0100
0000
,
0001
0010
0001
0000
1000
0010
1000
0000
,
0001
0010
0001
1000
0001
1000
0000
0000
,
0010
0100
0010
0100
0001
0100
0010
0100
,
0000
0100
0001
1000
0100
1000
0000
0000
,
1000
0001
1000
0001
0010
0100
0010
0100
,
1000
0010
1000
0001
1000
0001
0000
0000
,
0010
0100
0010
0100
1000
0001
1000
0100
,
0000
0100
0010
0001
1000
0001
0000
0000
,
0100
0010
0100
0010
1000
0001
1000
0001
,
0010
0000
0100
0000
1100
0000
0000
1010
,
0000
0110
0000
0101
0000
0000
0000
0000
,
0001
0000
0010
0000
0110
0000
0000
1100
,
0000
1001
0000
0101
0000
0000
0000
0000
,
0100
0000
0010
0000
1010
0000
0000
1001
,
0000
0011
0000
0110
0000
0000
0000
0000
,
0100
0000
1000
0000
0001
0100
1000
0100
,
0000
0100
0000
0100
0110
0000
0000
0000
,
1010
0000
1001
0000
0001
0010
0000
0100
,
0000
1000
0001
0100
0001
1000
0001
1000
,
0100
0000
0010
0000
0001
0100
0010
1000
,
0000
0100
0010
0000
0001
1000
0010
1000
,
0001
0000
0011
0000
0010
0100
0000
1000
,
0000
0001
0000
0100
0000
1000
0000
0100
,
0000
0001
0000
0010
0000
1000
0000
0010
,
0000
0100
0000
0000
0100
1000
0001
0100
,
0010
0000
0110
0000
0010
1000
0000
0100
,
0000
0010
0001
0100
0010
1000
0001
1000
,
0100
0000
0010
0000
0001
1000
0010
1000
,
0000
0001
0000
0000
0010
0100
1000
0001
,
0100
0000
0110
0000
0010
1000
0000
0100
,
0000
0010
0000
0001
0000
0100
0000
1000
,
0000
0100
0000
0001
0000
0010
0000
1000
,
0000
0010
0000
0000
1001
0000
0000
0000
,
1000
0010
0100
0000
1000
0100
0001
0000
,
1000
0100
0010
0100
2000
0000
0000
0000
,
3001
0100
1000
0000
0100
0010
1000
0000
,
2100
3001
0012
1003
,
1000
0010
0100
0000
1000
0100
0001
0000
,
1000
0100
0001
0100
0020
0000
0000
0000
,
0031
0100
1000
0000
0100
0010
1000
0000
,
0001
0010
0001
0010
1000
0010
0001
1000
,
0010
0000
0100
0000
1000
0100
0000
0100
,
0001
0000
0001
0000
0001
0000
0010
0100
0000
0000
0000
0000
0000
0000
0000
0000
;

//---------------dance-single - ----------------
#NOTES:
     dance-single:
     :
     Beginner:
     3:
     0.152,0.207,0.019,0.000,0.000:
0000
0000
0000
0000
,
0000
0000
0000
0000
,
0000
0000
0000
0000
,
0000
0000
0000
0000
,
1000
0000
0000
0000
,
1000
0000
0000
0000
,
0001
0000
0000
0000
,
0001
0000
0000
0000
,
1000
0000
1000
0000
,
0100
0000
0100
0000
,
0010
0000
0010
0000
,
0001
0000
0001
0000
,
0100
0000
0000
0000
,
0000
0000
0000
0000
,
0010
0000
1000
0000
,
0001
0000
0000
0000
,
0010
0000
0001
0000
,
1000
0000
1000
0000
,
0001
0000
1000
0000
,
0010
0000
0000
0000
,
1000
0000
0001
0000
,
0010
0000
0010
0000
,
0100
0000
0000
0000
,
1000
0000
0000
0000
,
0001
0000
0000
0000
,
0100
0000
0010
0000
,
0100
0000
0000
0000
,
0001
0000
0000
0000
,
1000
0000
0000
0000
,
0100
0000
0010
0000
,
0001
0001
0001
0000
,
1000
0000
1000
0000
,
0010
0010
0010
0000
,
0100
0000
0100
0000
,
0001
0001
0001
0000
,
0010
0000
0010
0000
,
0100
0000
1000
0000
,
0001
0001
1001
0000
,
0001
0000
0100
0000
,
0010
0000
1000
1000
,
1000
0000
0100
0000
,
0010
0000
0001
0001
,
0001
0000
0100
0000
,
0010
0000
1000
0000
,
0100
0000
0001
0000
,
0100
0000
0010
0010
,
0010
0000
0001
0000
,
1000
0000
0010
0010
,
0010
0000
0100
0000
,
0001
0000
1000
1000
,
1000
0000
0100
0000
,
0010
0000
0001
0000
,
0100
0000
1000
0000
,
0100
0000
1001
0000
,
1000
0000
0100
0000
,
0010
0000
0000
0000
,
0001
0000
0100
0000
,
0010
0000
0100
0000
,
0001
0000
0010
0000
,
0100
0000
0000
0000
,
1000
0000
0010
0000
,
0100
0100
0100
0000
;

//---------------dance-single - ----------------
#NOTES:
     dance-single:
     :
     Easy:
     7:
     0.290,0.335,0.077,0.038,0.000:
0000
0000
0000
0000
,
0000
0000
0000
0000
,
0000
0000
0000
0000
,
0000
0000
0000
0000
,
1000
0000
0001
0010
,
0001
0000
1000
0010
,
1000
0000
0001
0100
,
0001
0000
1000
0100
,
1000
1000
1000
0000
,
0100
0100
0100
0000
,
0010
0010
0010
0000
,
0001
0001
0001
0000
,
0100
0000
0000
0000
,
0000
0000
0000
0000
,
0010
1000
0001
1000
,
0010
0100
0001
0000
,
0001
0010
0001
1000
,
0002
0013
2000
3010
,
0001
0100
0010
0100
,
0001
1000
0100
0000
,
1000
0100
0010
0100
,
1000
1000
0001
0001
,
0100
0010
0100
0000
,
0001
1000
0100
0000
,
0010
0100
1000
0000
,
0001
0001
1000
1000
,
0010
0100
0001
0000
,
0010
0100
1000
0000
,
0001
0100
0010
0000
,
1000
1000
0001
0001
,
0010
0000
0100
0000
1100
0000
0000
0001
,
0000
0001
0000
0100
0000
0000
0000
0000
,
0010
0000
1000
0000
0100
0000
0000
0010
,
0000
0010
0000
0001
0000
0000
0000
0000
,
0100
0000
0010
0000
1010
0000
0000
0001
,
0000
0001
0000
0010
0000
0000
0000
0000
,
0100
0000
1000
0000
0001
1000
0002
0000
,
0100
1000
0003
0000
,
1000
0010
0100
0001
,
1001
0000
0001
0010
,
0100
0010
0001
1000
,
0010
0010
0100
0001
,
1000
0100
0010
0100
,
1100
1000
0001
0100
,
0010
0100
0001
1000
,
0100
0010
0100
0100
,
1000
0010
0100
0001
,
0101
0000
0001
1000
,
0100
0010
0100
1000
,
0010
0100
0001
0010
,
0100
1000
0010
0100
,
0101
0100
0010
0100
,
0001
1000
0100
0010
,
0001
1000
1001
0000
,
1000
0010
0001
0010
,
0100
0001
1000
0000
,
0001
0010
1000
0010
,
0100
1000
0001
0100
,
0010
0100
1000
0100
,
0001
1000
0100
0000
,
0010
0100
1000
0100
,
0010
0001
1001
0000
,
0000
0000
0000
0000
,
1000
0000
1000
0000
2000
0000
0000
3000
0000
0000
0000
0000
0000
0000
0000
0000
;

//---------------dance-double - ----------------
#NOTES:
     dance-double:
     :
     Hard:
     12:
     0.603,0.640,0.346,0.058,0.048:
00000000
00000000
00000000
00000000
,
00000000
00000000
00000000
00000000
,
00000000
00000000
00000000
00000000
,
00000000
00000000
00000000
00000000
,
00010000
00000000
00000000
00000000
00001000
00000000
00010000
00001000
00000000
00100000
00010000
00000000
10000000
00000000
00100000
00000000
,
01000000
00000000
00000000
00000000
00001000
00000000
00010000
00000010
00000000
00001000
00000010
00000000
00000100
00000000
00000001
00000000
,
00001000
00000000
00000000
00000000
00000100
00000000
00010000
00001000
00000000
01000000
00010000
00000000
10000000
00000000
01000000
00000000
,
00100000
00000000
00000000
00000000
00001000
00000000
00010000
00000010
00000000
00001000
00000010
00001000
00000001
00000000
00000010
00000000
,
00000001
00000100
00001000
00010000
00001000
00000100
00000010
00000000
,
00010000
01000000
10000000
01000000
00010000
00001000
00000010
00000000
,
00000001
00000010
00001000
00010000
00000010
00000100
00001000
00000000
,
00010000
00100000
10000000
00010000
00100000
01000000
00010000
00000000
,
00001000
00000000
00000000
00000000
,
00000000
00000000
00000000
00000000
,
10000000
00100000
10000000
00010000
10000000
01000000
00100000
00001000
,
00010000
00000010
00000100
00000001
00002000
00000000
00010000
00000000
,
00003001
00000010
00000001
00001000
00000001
00000100
00000010
00010000
,
00001000
00100000
00010000
00000000
10000000
00100000
01000000
00000000
,
00001000
00010000
00000010
00010000
00001000
00000010
00000001
00001000
,
00000010
00010000
00001000
00100000
00020000
00000000
00001000
00000000
,
10030000
00100000
10000000
00010000
00100000
00001000
00010000
00000010
,
00010000
00001000
00000010
00001000
00010000
00100000
00010000
00001000
,
00000010
00001000
00010000
00100000
01000000
00010000
10000000
01000000
,
00000000
01000000
00100000
00001000
00010000
00000010
00001000
00010000
,
00000000
00100000
01000000
10000000
00010000
01000000
00001000
00010000
,
00000010
00000100
00000010
00000100
00001000
00010000
00001000
00010000
,
01000000
00100000
00010000
10000000
00100000
01000000
00001000
00010000
,
00000000
00010000
00000010
00001000
00000001
00000010
00000100
00010000
,
00000000
00010000
00001000
00100000
00010000
01000000
00100000
10000000
,
01000000
00100000
01000000
00100000
00001000
00010000
00001000
00010000
,
00020010
00000000
00001000
00000000
00130000
10000000
00010000
00110000
,
00000000
01100000
00000000
01010000
00010000
00001000
00000100
00000000
,
00000101
00000000
00000011
00000000
00001010
00001000
00010000
01000000
,
00000000
11000000
00000000
10100000
10000000
00010000
01000000
00000000
,
01002000
00000000
00010000
00000000
00003100
00000001
00001000
00001100
,
00000000
00000110
00000000
00001010
00000010
00001000
00010000
00000000
,
00011000
00000000
00110000
00000000
10010000
10000000
00100000
01100000
,
00000000
01010000
00000000
00011000
00010100
00000100
00001000
00000001
,
00000101
00000000
00000110
00000000
00000010
00010000
00001000
00100000
,
00000000
00100000
01000000
00010000
01000000
10000000
00010000
01000000
,
01100000
00000000
10100000
00000000
00100000
00010000
00001000
00010000
,
00000000
00010000
00000100
00000000
00000100
00000010
00000001
00000100
,
00000110
00000000
00001100
00000000
00001000
00100000
00010000
01000000
,
00000000
00100000
10000000
01000000
00100000
01000000
00010000
00001000
,
00000010
00000100
00000010
00000001
00000100
00000010
00000100
00001000
,
00010000
00100000
10000000
00000000
10000000
01000000
00100000
00010000
,
01010000
00000000
01100000
00000000
00110000
00010000
00001000
00000100
,
00000000
00000010
00001000
00000001
00000100
00001000
00010000
00100000
,
00110000
00000000
10100000
00000000
11000000
01000000
00010000
00001000
,
00000000
00001000
00000010
00000000
00000010
00000001
00001000
00000010
,
00001010
00000000
00000110
00000000
00001100
00001000
00010000
00100000
,
00000000
00100000
10000000
01000000
00100000
01000000
00010000
00001000
,
00000100
00000010
00000100
00000001
00000010
00000100
00000010
00001000
,
00010000
01000000
00100000
01000000
11000000
00000000
00000000
00000000
,
10000000
00100000
10000000
00010000
01000000
00001000
00010000
00000010
,
00001000
00000001
00000100
00001000
00020000
00000000
00100000
00000000
,
00031000
00010000
00000010
00010000
00000001
00000100
00000010
00010000
,
00001000
00100000
00010000
00000000
10000000
00100000
01000000
00000000
,
00001000
00100000
00001000
00010000
00001000
00100000
01000000
10000000
,
00010000
01000000
00100000
00010000
00002000
00000000
00000001
00000000
,
00013000
00000010
00010000
00000100
00010000
00000010
00001000
00000001
,
00000100
00001000
00010000
01000000
10000000
00100000
00010000
00001000
,
00000010
00000000
00001000
00000000
00010000
00100000
00000000
00100000
,
00010000
00000000
00010000
00000000
00010000
00000000
00001000
00000010
00000000
00000000
00000000
00000000
00000000
00000000
00000000
00000000
;

//---------------dance-double - ----------------
#NOTES:
     dance-double:
     :
     Medium:
     11:
     0.483,0.457,0.135,0.096,0.024: // measure 1
00000000
00000000
00000000
00000000
,  // measure 2
00000000
00000000
00000000
00000000
,  // measure 3
00000000
00000000
00000000
00000000
,  // measure 4
00000000
00000000
00000000
00000000
,  // measure 5
10000000
00000000
00000000
00000000
00100000
00000000
00000000
00100000
00000000
00000000
01000000
00000000
00001000
00000000
00000000
00000000
,  // measure 6
00010000
00000000
00000000
00000000
00000100
00000000
00000000
00000100
00000000
00000000
00000010
00000000
00000001
00000000
00000000
00000000
,  // measure 7
00001000
00000000
00000000
00000000
00000010
00000000
00000000
00000010
00000000
00000000
00000100
00000000
00001000
00000000
00000000
00000000
,  // measure 8
00010000
00000000
00000000
00000000
00100000
00000000
00000000
00100000
00000000
00000000
01000000
00000000
00010000
00000000
00000000
00000000
,  // measure 9
10000000
01000000
10000000
01000000
00010000
01000000
00100000
00000000
,  // measure 10
00001000
00010000
00001000
00010000
00000010
00001000
00000001
00000000
,  // measure 11
00000001
00000010
00000001
00000010
00001000
00000010
00000100
00000000
,  // measure 12
00010000
00001000
00010000
00001000
00100000
00010000
10000000
00000000
,  // measure 13
00100000
00000000
00000000
00000000
,  // measure 14
00000000
00000000
00000000
00000000
,  // measure 15
10000000
01000000
00010000
00000000
01000000
00100000
00001000
00000000
,  // measure 16
00010000
00000010
00001000
00000001
00002000
00000000
00000000
00000000
,  // measure 17
00003001
00000100
00001000
00000000
00000100
00000010
00010000
00000000
,  // measure 18
00001000
01100000
00010000
00000110
,  // measure 19
00000001
00000010
00001000
00000000
00000010
00000100
00001000
00000000
,  // measure 20
00000001
00000100
00000010
00010000
00002000
00000000
00000000
00000000
,  // measure 21
00013000
01000000
10000000
00000000
00010000
01000000
00100000
00000000
,  // measure 22
00010000
00001000
00010000
00001000
00010000
00000010
00001000
00000001
,  // measure 23
00000100
00000010
00001000
00000001
00001000
00000010
00000000
00000000
,  // measure 24
00001000
00000010
00010000
00001000
00010000
00001000
00100000
00010000
,  // measure 25
00000000
00010000
10000000
00010000
01000000
00100000
01000000
00000000
,  // measure 26
10000000
01000000
10000000
01000000
00010000
01000000
00010000
01000000
,  // measure 27
00010000
00100000
00001000
00010000
00000010
00001000
00000000
00001000
,  // measure 28
00000001
00001000
00000100
00000010
00000001
00001000
00000001
00000010
,  // measure 29
00000000
00000010
00000100
00001000
00000001
00000100
00000000
00000000
,  // measure 30
00000001
00000010
00000001
00000010
00001000
00000010
00001000
00010000
,  // measure 31
00100000
00000000
10000000
00000000
01000000
00000000
00000000
01100000
,  // measure 32
00000000
00011000
00000000
00000220
00000000
00000000
00000330
00000000
,  // measure 33
00000001
00000000
00000100
00000000
00001000
00000000
00000000
00011000
,  // measure 34
00000000
00100000
00000000
20020000
00000000
00000000
30030000
00000000
,  // measure 35
10010000
00000000
01100000
00000000
00011000
00000000
00000000
00001010
,  // measure 36
00000000
00000001
00000000
00000022
00000000
00000000
00000033
00000000
,  // measure 37
00000110
00000000
00000010
00000000
00000100
00010000
00001000
00100000
,  // measure 38
00000000
00100000
00000000
00100000
00010000
00000000
00000000
00000000
,  // measure 39
00110000
00000000
10000000
00000000
00100000
01000000
00000000
00001000
,  // measure 40
00000000
00000010
00000100
00001000
00000100
00000010
00000001
00001000
,  // measure 41
00000010
00000000
00000100
00000000
00000001
00001000
00000100
00000010
,  // measure 42
00000000
00001000
00010000
00000000
00010000
01000000
00010000
01000000
,  // measure 43
00100000
00000000
00010000
00000000
10000000
00100000
00000000
00100000
,  // measure 44
01000000
00001000
00000000
00001000
00000010
00000001
00000000
00000001
,  // measure 45
00000100
00001000
00000000
00001000
00010000
01000000
00000000
01000000
,  // measure 46
10000000
00100000
00000000
00000000
00010000
00001000
00000010
00001000
,  // measure 47
00010000
00000000
00000010
00000000
00001000
00000001
00000000
00000001
,  // measure 48
00000100
00000010
00000100
00000001
00000100
00001000
00010000
00001000
,  // measure 49
00100000
00000000
00010000
00000000
10000000
00100000
01000000
00010000
,  // measure 50
00000000
00010000
00100000
00000000
00100000
01000000
00010000
01000000
,  // measure 51
00100000
00000000
00001000
00000000
00010000
00000010
00000000
00000010
,  // measure 52
00000100
00000001
00000000
00000001
00000010
00001000
00000000
00001000
,  // measure 53
00010000
01000000
00000000
01000000
10000000
00100000
00000000
00100000
,  // measure 54
00010000
00001000
00000000
00000100
00000001
00000000
00000000
00000000
,  // measure 55
00000010
00000100
00001000
00000000
00000001
00000100
00001000
00000000
,  // measure 56
00010000
01000000
10000000
01000000
00200000
00000000
00300000
00000000
,  // measure 57
00010000
10000000
00100000
00000000
00010000
00100000
10000000
00000000
,  // measure 58
00010000
00100000
01000000
00000000
00010000
00001000
00000100
00000000
,  // measure 59
00000010
00000100
00001000
00000000
00000001
00000010
00001000
00000000
,  // measure 60
00000001
00000010
00001000
00000010
00000200
00000000
00000300
00000000
,  // measure 61
00010000
00001000
01000000
00000000
00100000
10000000
01000000
00000000
,  // measure 62
10000000
00010000
10000000
00010000
10000000
01000000
00010000
00001000
,  // measure 63
00000100
00000000
00000001
00000000
00000010
00001000
00000000
00010000
,  // measure 64
00001000
00000000
00001000
00000000
00001000
00000000
00000000
00000010
00000000
00000000
00000000
00000000
00000000
00000000
00000000
00000000
;

//---------------dance-double - ----------------
#NOTES:
     dance-double:
     :
     Easy:
     8:
     0.295,0.335,0.077,0.077,0.000:
00000000
00000000
00000000
00000000
,
00000000
00000000
00000000
00000000
,
00000000
00000000
00000000
00000000
,
00000000
00000000
00000000
00000000
,
10000000
00000000
00000000
00001000
,
00000010
00000000
00000000
00010000
,
00100000
00000000
00000000
00001000
,
00000100
00000000
00000000
00001000
,
00010000
01000000
10000000
00000000
,
00001000
00000100
00000001
00000000
,
00010000
00100000
10000000
00000000
,
00001000
00000010
00000001
00000000
,
00010000
00000000
00000000
00000000
,
00000000
00000000
00000000
00000000
,
00001000
00000100
00000001
00000010
,
00000100
00000001
00000100
00000000
,
00010000
01000000
10000000
01000000
,
00002000
00000010
00023000
00100000
,
00031000
00000010
00000100
00001000
,
00010000
01000000
10000000
00000000
,
00010000
01000000
10000000
01000000
,
00100000
00010000
00100000
00010000
,
00001000
00000010
00000001
00000000
,
00000001
00000100
00001000
00000100
,
00000010
00010000
00001000
00000000
,
00010000
00010000
00001000
00001000
,
00100000
00010000
00001000
00000000
,
00000010
00001000
00010000
00001000
,
00000010
00000100
00001000
00000000
,
00010000
00010000
00001000
00001000
,
00011000
00000000
00100000
00000000
01100000
00000000
00000000
10000000
,
00000000
01000000
00000000
00020000
00000000
00000000
00030000
00000000
,
00011000
00000000
00000010
00000000
00000110
00000000
00000000
00000001
,
00000000
00000100
00000000
00002000
00000000
00000000
00003000
00000000
,
00011000
00000000
01000000
00000000
01100000
00000000
00000000
10000000
,
00000000
01000000
00000000
00020000
00000000
00000000
00030000
00000000
,
00001000
00000000
00000010
00000000
00000001
00000100
00001000
00010000
,
00000000
00010000
00000000
00010000
01000000
00000000
00000000
00000000
,
10000000
00100000
00010000
00000010
,
00001000
00000000
00000001
00000010
,
00001000
00100000
00010000
10000000
,
01000000
00010000
00001000
00000100
,
00000001
00000100
00001000
00100000
,
00010000
10000000
01000000
00100000
,
00001000
00010000
00000010
00000100
,
00001000
00000100
00000001
00001000
,
00000100
00000001
00001000
00010000
,
01000000
00000000
01000000
00100000
,
00010000
10000000
00100000
00010000
,
00001000
00001000
00010000
00100000
,
01000000
10000000
00010000
00001000
,
00000100
00000001
00000010
00000100
,
00010000
00001000
00100000
00010000
,
10000000
01000000
01100000
00000000
,
10000000
00100000
00010000
00001000
,
00000010
00000001
00001000
00000000
,
00000001
00000010
00001000
00010000
,
00002000
00000100
00023000
01000000
,
00031000
00010000
01000000
10000000
,
00100000
00010000
00001000
00000000
,
00010000
00100000
10000000
01000000
,
00010000
00001000
00011000
00000000
,
00000000
00000000
00000000
00000000
,
00001000
00000000
00010000
00000000
02000000
00000000
00000000
03000000
00000000
00000000
00000000
00000000
00000000
00000000
00000000
00000000
;
