#VERSION:0.83;
#TITLE:FAKE OFF;
#SUBTITLE:;
#ARTIST:Merm4id × 燐舞曲;
#TITLETRANSLIT:;
#SUBTITLETRANSLIT:;
#ARTISTTRANSLIT:Merm4id × RONDO;
#GENRE:;
#ORIGIN:;
#CREDIT:;
#BANNER:FAKE OFF banner.png;
#BACKGROUND:FAKE OFF bg.png;
#PREVIEWVID:;
#JACKET:FAKE OFF jk.png;
#CDIMAGE:FAKE OFF jk copy.png;
#DISCIMAGE:;
#LYRICSPATH:;
#CDTITLE:;
#MUSIC:FAKE OFF.ogg;
#OFFSET:-0.025000;
#SAMPLESTART:65.231003;
#SAMPLELENGTH:13.200005;
#SELECTABLE:YES;
#BPMS:0.000=150.000;
#STOPS:;
#DELAYS:;
#WARPS:;
#TIMESIGNATURES:0.000=4=4;
#TICKCOUNTS:0.000=4;
#COMBOS:0.000=1;
#SPEEDS:0.000=1.000=0.000=0;
#SCROLLS:0.000=1.000;
#FAKES:;
#LABELS:0.000=Song Start;
#BGCHANGES:;
#KEYSOUNDS:;
#ATTACKS:
;

//---------------dance-double - ----------------
#NOTEDATA:;
#CHARTNAME:;
#STEPSTYPE:dance-double;
#DESCRIPTION:;
#CHARTSTYLE:;
#DIFFICULTY:Hard;
#METER:14;
#RADARVALUES:0.618611,0.684664,0.124484,0.266752,0.204510,487.000000,473.000000,14.000000,30.000000,0.000000,0.000000,0.000000,0.000000,0.000000,0.618611,0.684664,0.124484,0.266752,0.204510,487.000000,473.000000,14.000000,30.000000,0.000000,0.000000,0.000000,0.000000,0.000000;
#CREDIT:Karl with a K;
#NOTES:
00000000
00000000
00000000
00000000
,
00000000
00000000
00000000
00000000
,
00000000
00000000
00000000
00000000
,
00000000
00000000
00000000
00000000
,
00000000
00000000
00000000
00000000
,
10000000
00000000
01000000
00000000
00100000
00000000
01000000
00000000
00010000
00000000
01000000
00100000
00000000
01000000
10000000
00000000
,
01000000
00000000
00100000
00000000
00001000
00000000
00010000
00000000
00000020
00000000
00000000
00000000
00000130
00000001
00000100
00000000
,
00000001
00000000
00000100
00000000
00000010
00000000
00000100
00000000
00001000
00000000
00000100
00000010
00000000
00000100
00000001
00000000
,
00002000
00000000
00003010
00000000
00010000
00001000
00010000
00000000
00200000
00000000
00000000
00000000
20300000
00000000
00000000
00000000
,
31000000
10000000
00010000
01000000
00100000
01000000
00002000
00000000
,
00003000
00010000
00000100
00001000
00000010
00001000
00000002
00000000
,
00000103
00000001
00001000
00000100
00000010
00000100
00020000
00000000
,
00030000
00001000
01000000
00010000
00100000
00010000
10000000
00000000
,
11000000
10000000
00010000
01000000
00100000
00010000
00002000
00000000
,
00003000
00010000
00000100
00000010
00000100
00001000
00000001
00000000
,
00000101
00000000
00000001
00000000
00001000
00000000
00000100
00000000
00000010
00000100
00010000
00000000
00001000
00010000
00001000
00000000
,
00020000
00000000
00230000
10000000
,
10300000
01000000
01000000
01000000
10000000
10000000
00100000
00100000
,
10000000
01000000
01000000
01000000
00010000
00010000
00001000
00001000
,
00010000
00000100
00000100
00000100
00001000
00001000
00000010
00000010
,
00001000
00001000
00000100
00000000
00001000
00000010
00000001
00000000
,
00000110
00000000
00000100
00000010
00000100
00000000
00000100
00000000
00000001
00000000
00000001
00000000
00000010
00000000
00000010
00000000
,
00000001
00000100
00000100
00000100
00001000
00001000
00010000
00010000
,
00001000
01000000
00000000
00001000
01000000
00000000
01000000
00000000
00010000
00000000
00010000
00000000
00100000
00000000
00100000
00000000
,
00010000
00000000
00100000
01000000
10000000
00010000
00000000
10000000
00100000
01000000
00000000
00001000
00010000
00001000
00000000
00000000
,
00011000
00010000
00000100
00000020
00000000
00000031
00000100
00000010
,
00000000
00000010
00000010
00010000
00001000
00000000
00011000
00000000
,
00011000
00001000
01000000
00200000
00000000
10300000
01000000
00100000
,
00000000
00000000
00100000
00010000
00100000
00000000
00001000
00000000
00011000
00000000
00020000
00000000
00001000
00000000
00000000
00000000
,
00031000
00000100
00000001
00000020
00000000
00000130
00000010
00000002
,
00000000
00000013
00001000
00010000
00001000
00010000
00001000
00000000
,
00011000
00000000
00001000
00000000
01000000
00000000
00100000
01000000
00100000
00000000
01000000
00010000
01000000
00010000
10000000
00000000
,
01000000
00000000
00100000
00100000
00200000
01000000
00310000
00000000
,
10010000
10000000
01000000
00100000
,
00001000
00000000
00010000
00000000
00100000
00000000
01000000
00010000
,
10000000
00100000
01000000
00001000
,
00010000
00000000
01000000
00000000
00010000
00001000
00010000
00001000
,
00000010
00000001
00000100
00000010
,
00010000
00000000
00001000
00000000
00000010
00000000
00000100
00001000
,
00000001
00000001
00000100
00000100
00000010
00000010
00010000
00010000
,
00010100
00000000
00000000
00011000
00000000
00000000
01010000
00000000
00000000
00000000
00000000
00000000
00000000
00000000
00000000
00000000
,
10010000
10000000
01000000
00010000
01000000
10000000
00010000
01000000
,
00001000
00000000
00010000
00000100
00000010
00000000
00001000
00000000
00000010
00000000
00000100
00000000
00001000
00000000
00000001
00000000
,
00001000
00000001
00000100
00001000
00000100
00000001
00001000
00000100
,
00010000
00000000
00001000
01000000
00100000
00000000
00010000
00000000
00100000
00000000
01000000
00000000
00010000
00000000
10000000
00000000
,
01000000
00100000
00010000
00001000
00000100
00000010
00000001
00001000
,
00000010
00000100
00001000
00010000
00100000
01000000
00010000
10000000
,
01000000
00100000
01000000
00010000
01000000
00100000
00010000
10000000
,
01000000
00000000
00010000
00000000
00001000
00000000
00000100
00000000
00000001
00000000
00000100
00000000
00000001
00000000
00000010
00000100
,
00000020
00000100
00000031
00000100
00001000
00010000
00001000
00010000
,
02000000
00010000
03100000
00100000
00010000
01000000
00100000
10000000
,
01000000
00100000
00010000
00100000
00001000
00010000
00001000
00010000
,
00000020
00000000
00001030
00000100
00001000
00000010
00000100
00000001
,
00001000
00000001
00000010
00001000
00000010
00000001
00001000
00000010
,
00010000
00000000
00001000
00100000
01000000
00000000
00010000
00000000
01000000
00000000
00100000
00000000
00010000
00000000
10000000
00000000
,
00010000
10000000
00100000
00010000
00100000
10000000
00010000
00100000
,
00001000
00010000
00001000
00000000
00010000
00000010
00010000
00000000
00000010
00000100
00000010
00000000
00000200
00000000
00000001
00000000
,
00000301
00000000
00000100
00000000
00000010
00000000
00000100
00000000
00001000
00000000
00000100
00000010
00000000
00000100
00000001
00000000
,
00000100
00000000
00000010
00000000
00010000
00000000
00001000
00000000
00200000
00000000
00000000
00000000
01300000
10000000
01000000
00000000
,
10000000
00000000
01000000
00000000
00100000
00000000
01000000
00000000
00010000
00000000
01000000
00100000
00000000
01000000
10000000
00000000
,
00020000
00000000
01030000
00000000
00001000
00010000
00001000
00000000
00000020
00000000
00000000
00000000
00000001
00000000
00000000
00000000
,
00000031
00000000
00000010
00000000
00000100
00000000
00000010
00000000
00001000
00000000
00000010
00000100
00000000
00000010
00000001
00000000
,
00000010
00000000
00000100
00000000
00010000
00000000
00001000
00000000
02000000
00000000
00000000
00000000
03100000
10000000
00100000
00000000
,
10000000
00000000
00100000
00000000
01000000
00000000
00100000
00000000
00010000
00000000
00100000
01000000
00000000
00100000
10000000
00000000
,
00020000
00000000
00130000
00000000
00001000
00010000
00001000
00000000
00000020
00000000
00000000
00000000
00000032
00000000
00000000
00000000
,
00000103
00000000
00000100
00000000
00000010
00000000
00001000
00000000
00000010
00000000
00010000
00001000
00000000
00010000
00001000
00000000
,
00000000
00000000
01000000
00000000
00010000
00000000
01000000
00000000
00200000
00000000
00000000
00000000
10300000
01000000
10000000
00000000
,
01000000
00000000
01000000
00000000
00100000
00000000
00010000
00000000
00100000
00000000
00001000
00010000
00000000
00001000
00010000
00000000
,
00020020
00000000
00000000
00000000
,
00000000
00000000
00000000
00000000
,
00030030
00000000
00000000
00000000
;

//---------------dance-double - ----------------
#NOTEDATA:;
#CHARTNAME:;
#STEPSTYPE:dance-double;
#DESCRIPTION:;
#CHARTSTYLE:;
#DIFFICULTY:Medium;
#METER:11;
#RADARVALUES:0.456019,0.497937,0.097809,0.373453,0.044459,359.000000,348.000000,11.000000,42.000000,0.000000,0.000000,0.000000,0.000000,0.000000,0.456019,0.497937,0.097809,0.373453,0.044459,359.000000,348.000000,11.000000,42.000000,0.000000,0.000000,0.000000,0.000000,0.000000;
#CREDIT:Karl with a K;
#NOTES:
00000000
00000000
00000000
00000000
,
00000000
00000000
00000000
00000000
,
00000000
00000000
00000000
00000000
,
00000000
00000000
00000000
00000000
,
00000000
00000000
00000000
00000000
,
10000000
00000000
10000000
00000000
01000000
00000000
00100000
00000000
00010000
00000000
00000000
01000000
00000000
00000000
00001000
00000000
,
00000000
00010000
00000100
00000100
00000020
00000000
00000031
00000100
,
00000001
00000000
00000001
00000000
00000100
00000000
00000010
00000000
00001000
00000000
00000000
00000100
00000000
00000000
00010000
00000000
,
00000000
00001000
01000000
01000000
00200000
00000000
10000000
00000000
,
10300000
10000000
01000000
00100000
00002000
00000000
00023000
00000000
,
00030000
00000100
00000020
00000000
00000032
00000000
00002003
00000000
,
00003001
00000001
00000100
00000010
00020000
00000000
00032000
00000000
,
00003000
01000000
00200000
00000000
20300000
00000000
30010000
00000000
,
10010000
10000000
00100000
01000000
00002000
00000000
00023000
00000000
,
00030000
00000010
00000200
00000000
00000302
00000000
00002003
00000000
,
00003001
00000001
00000010
00000100
00010000
00010000
00001000
00001000
,
00200000
00000000
01300000
10010000
,
10000000
00100000
10000000
00000000
01000000
00100000
00001000
00000000
,
00010000
00000010
00000100
00000000
00000001
00000100
00000010
00000100
,
00000001
00000010
00000001
00000000
00000100
00000010
00010000
00000000
,
00001000
00100000
01000000
00000000
10000000
00100000
00200000
00000000
,
10300000
01000000
10000000
00000000
00100000
01000000
00001000
00000000
,
00010000
00000100
00000010
00000001
00000001
00000010
00000100
00000010
,
00000001
00000100
00000001
00000000
00000010
00000100
00010000
00000000
,
00001000
00000000
00000000
00001000
01000000
00000000
00000000
01000000
00100000
00000000
00000000
00100000
10000000
00000000
00000000
00000000
,
20000000
00000000
31000000
00100000
00000000
00100000
00001000
00010000
,
00000000
00010000
00000100
00000000
00000110
00000000
00000011
00000000
,
00000002
00000000
00000103
00000010
00000000
00000010
00010000
00001000
,
00000000
00001000
00001000
01000000
00100000
00000000
10100000
00000000
,
20000000
00000000
30100000
01000000
00000000
01000000
00001000
00010000
,
00000000
00010000
00000010
00000000
00000110
00000000
00000101
00000000
,
00000002
00000000
00000013
00000100
00000000
00000100
00010000
00001000
,
00010000
00000000
00001000
01000000
00010000
01000000
00010000
00000000
,
10000000
10000000
01000000
01000000
,
00100000
00100000
01000000
01000000
,
10000000
10000000
00100000
00100000
,
00010000
00010000
00001000
00001000
,
00000010
00000010
00000100
00000100
,
00000010
00000010
00000001
00000001
,
00000100
00001000
00010000
01000000
,
10000000
00000000
00000000
00100000
00000000
00000000
10000000
00000000
00000000
00000000
00000000
00000000
00000000
00000000
00000000
00000000
,
10000000
01000000
00100000
00010000
00000000
01000000
00001000
00000000
,
00010000
00000100
00000010
00000001
00000000
00000100
00000001
00000000
,
00000001
00000100
00000010
00001000
00000000
00000100
00010000
00000000
,
00001000
01000000
00100000
10000000
00000000
01000000
00100000
01000000
,
10000000
01000000
00100000
00001000
00000000
00010000
00000100
00000010
,
00000001
00000100
00000010
00010000
00000000
00001000
01000000
00100000
,
10000000
00100000
01000000
00001000
00000000
00010000
00000100
00000010
,
00000002
00000023
00002030
00023000
,
00230000
00000000
10300000
02000000
00000000
03100000
00000000
00001000
,
00010000
00000010
00000000
00000010
00000100
00000000
00000001
00000000
,
00001000
00000000
00000001
00000010
00000001
00000000
00000100
00000010
,
00020000
00000000
00001000
00000000
00031000
00000000
01000000
00100000
,
10000000
00100000
01000000
00010000
00000000
01000000
00001000
00000000
,
00010000
00000010
00000100
00000001
00000000
00000100
00000001
00000000
,
00000001
00000010
00000100
00001000
00000000
00000100
00010000
00000000
,
00002000
00203000
02300000
23000000
,
30100000
00000000
10000000
00000000
00100000
00000000
01000000
00000000
00010000
00000000
00000000
00100000
00000000
00000000
00001000
00000000
,
00000000
00010000
00000010
00000010
00000200
00000000
00000301
00000010
,
00000001
00000001
00000010
00000100
00001000
00000000
00000020
00000000
,
00010030
00001000
00100000
00100000
02000000
00000000
10000000
00000000
,
13000000
00000000
10000000
00000000
01000000
00000000
00100000
00000000
00010000
00000000
00000000
00001000
00000000
00000000
00000100
00000000
,
00000000
00001000
00000010
00000010
00000200
00000000
00000301
00000010
,
00000001
00000000
00000001
00000000
00000100
00000000
00000010
00000000
00001000
00000000
00000000
00010000
00000000
00000000
01000000
00000000
,
00010000
00110000
01100000
11000000
,
10000000
00000000
00000000
00000000
01000000
00000000
00000000
00000000
00100000
00000000
00000000
00100000
00000000
00000000
00100000
00000000
,
00000000
00001000
00010000
00000000
00000010
00000000
00000010
00000000
,
00000200
00000320
00020030
00031000
,
00022000
00000000
00000000
00000000
,
00000000
00000000
00000000
00000000
,
00033000
00000000
00000000
00000000
;

//---------------dance-double - ----------------
#NOTEDATA:;
#CHARTNAME:;
#STEPSTYPE:dance-double;
#DESCRIPTION:;
#CHARTSTYLE:;
#DIFFICULTY:Easy;
#METER:6;
#RADARVALUES:0.265482,0.311211,0.026675,0.177835,0.000000,209.000000,206.000000,3.000000,20.000000,0.000000,0.000000,0.000000,0.000000,0.000000,0.265482,0.311211,0.026675,0.177835,0.000000,209.000000,206.000000,3.000000,20.000000,0.000000,0.000000,0.000000,0.000000,0.000000;
#CREDIT:Karl with a K;
#NOTES:
00000000
00000000
00000000
00000000
,
00000000
00000000
00000000
00000000
,
00000000
00000000
00000000
00000000
,
00000000
00000000
00000000
00000000
,
00000000
00000000
00000000
00000000
,
10000000
01000000
00100000
01000000
,
00100000
00001000
00010000
00000020
,
00001030
00000010
00000100
00000001
,
00000100
00001000
00020000
02030000
,
13000000
00000000
00000000
10000000
00000000
00000000
00000000
00000000
,
00000000
01000000
00000000
00000000
01000000
00000000
00000000
00000000
,
00100000
00000000
00000000
00100000
00000000
00000000
00000000
00000000
,
00000000
00010000
00000000
00000000
00010000
00000000
00000000
00000000
,
01000000
00000000
00000000
01000000
00000000
00000000
00000000
00000000
,
00000000
00001000
00000000
00000000
00001000
00000000
00000000
00000000
,
00010000
00000000
00000000
00010000
00000000
00000000
00000000
00000000
,
00000020
00000000
00000030
00001000
,
00000001
00000001
00000001
00000010
,
00000100
00000100
00010000
00001000
,
00010000
00010000
00010000
00001000
,
00000000
01000000
00000000
00000000
00100000
00000000
10000000
00000000
,
01000000
01000000
01000000
00100000
,
00001000
00001000
00010000
00010000
,
00000010
00000010
00000010
00000010
,
00000100
00000001
00000010
00000100
,
00001000
00000000
00000100
00000000
,
00000000
00010000
00000000
00000000
00001000
00000000
00001000
00000000
,
01000000
00000000
00010000
00000000
,
00000000
10000000
00000000
00000000
02000000
00000000
03200000
00000000
,
00301000
00000000
00010000
00000000
,
00000000
00000100
00000000
00000000
00000010
00000000
00000010
00000000
,
00000001
00000000
00000100
00001000
,
00020000
01000000
01000000
01030000
,
10000000
00000000
10000000
00000000
,
10000000
00000000
10000000
00000000
,
00010000
00000000
00010000
00000000
,
00010000
00000000
00010000
00000000
,
01000000
00000000
00001000
00000000
,
00010000
00000000
00000010
00000000
,
00000100
00000001
00000010
00000001
,
00001001
00000000
00000000
00001001
00000000
00000000
00000000
00000000
,
00000001
00000100
00000010
00010000
,
00001000
00100000
01000000
01000000
,
10000000
00100000
01000000
00001000
,
00010000
00000100
00000010
00000001
,
00000100
00000010
00010000
00001000
,
00100000
01000000
00100000
00001000
,
00010000
00000100
00000010
00000001
,
00000100
00001000
00010000
01000000
,
00200000
00010000
01300000
10000000
,
00100000
01000000
00010000
01000000
,
00010000
00100000
00001000
00010000
,
00000020
00001000
00001030
00000001
,
00000001
00000010
00000100
00010000
,
00001000
01000000
00100000
00100000
,
10000000
01000000
00100000
00001000
,
00020000
00030020
00000130
00000110
,
00000001
00000010
00000100
00000010
,
00000100
00010000
00001000
02000000
,
03010000
01000000
00100000
10000000
,
00100000
00010000
00002000
00003020
,
00000031
00000100
00000010
00000100
,
00000010
00010000
00001000
00200000
,
00310000
00100000
01000000
10000000
,
01000000
00010000
00002000
00003200
,
00000301
00000000
00001000
00000000
,
00000100
00000000
00010000
00000000
,
00002000
00000000
02003000
00000000
,
03200000
00000000
00000000
00000000
,
00000000
00000000
00000000
00000000
,
00300000
00000000
00000000
00000000
;

//---------------dance-double - ----------------
#NOTEDATA:;
#CHARTNAME:;
#STEPSTYPE:dance-double;
#DESCRIPTION:;
#CHARTSTYLE:;
#DIFFICULTY:Challenge;
#METER:17;
#RADARVALUES:0.778662,0.995874,0.053350,0.426803,0.880282,613.000000,607.000000,6.000000,48.000000,0.000000,0.000000,0.000000,0.000000,0.000000,0.778662,0.995874,0.053350,0.426803,0.880282,613.000000,607.000000,6.000000,48.000000,0.000000,0.000000,0.000000,0.000000,0.000000;
#CREDIT:Karl with a K;
#NOTES:
// measure 0
00000000
00000000
00000000
00000000
,  // measure 1
00000000
00000000
00000000
00000000
,  // measure 2
00000000
00000000
00000000
00000000
,  // measure 3
00000000
00000000
00000000
00000000
,  // measure 4
00000000
00000000
00000000
00000000
,  // measure 5
10000000
00000000
00100000
01000000
00100000
00000000
01000000
00000000
20000000
00000000
31000000
00010000
00000000
00100000
00001000
00000000
,  // measure 6
00010000
00000000
00000100
00000010
00000100
00000000
00000010
00000000
00002000
00000000
00000000
00000000
00003010
00000100
00001000
00000000
,  // measure 7
00000001
00000000
00000010
00000100
00000010
00000000
00000100
00000000
00000002
00000000
00000103
00001000
00000000
00000010
00010000
00000000
,  // measure 8
00001000
01000000
00001000
01000000
00010000
01000000
00010000
01000000
20000000
00000000
00000000
00000000
32000000
00000000
03100000
00000000
,  // measure 9
10000000
01000000
00010000
10000000
00100000
00010000
00200000
00001000
,  // measure 10
00301000
00000100
00002000
00000000
00003001
00000010
00002000
00000000
,  // measure 11
00003001
00000010
00001000
00000001
00000100
00001000
00000200
00010000
,  // measure 12
00010300
00100000
00020000
00000000
10030000
01000000
00020000
10000000
,  // measure 13
10030000
00100000
01000000
00000000
10000000
00000000
00010000
00000000
00100000
00000000
00010000
00000000
00002000
00000000
00010000
00000000
,  // measure 14
00013000
00000000
00000100
00002000
00000001
00000000
00000000
00000000
00003001
00000000
00000010
00000000
00002000
00000000
00000000
00000000
,  // measure 15
00003010
00000001
00000000
00000001
00001000
00000000
00000001
00000000
00000100
00000010
00001000
00000100
00010000
00001000
00010000
00001000
,  // measure 16
00020000
00000000
00000000
00000000
00001000
00100000
00000000
00000000
00100000
00001000
00000000
00000000
02030000
00000000
00000000
00000000
,  // measure 17
13000000
00000000
00100000
01000000
00100000
01000000
00100000
01000000
00010000
00100000
01000000
10000000
00001000
00100000
00010000
01000000
,  // measure 18
00001000
00010000
00001000
00010000
00000100
00001000
00000100
00000010
00000001
00000100
00000010
00001000
00000001
00000010
00000001
00000010
,  // measure 19
00000001
00000000
00000010
00000100
00000010
00000100
00000010
00000100
00001000
00000010
00000100
00000001
00010000
00000010
00001000
00000100
,  // measure 20
00010000
00001000
00010000
00001000
00000000
00000000
00000000
00000000
00100000
01000000
00100000
00010000
10000000
00000000
10000000
00000000
,  // measure 21
10000000
00000000
01000000
00100000
01000000
00100000
01000000
00100000
00010000
01000000
00100000
10000000
00001000
01000000
00010000
00100000
,  // measure 22
00001000
00010000
00001000
00010000
00000010
00001000
00000010
00000100
00000001
00000010
00000100
00001000
00000001
00000100
00000001
00000100
,  // measure 23
00000001
00000000
00000100
00000010
00000100
00000010
00000100
00000010
00001000
00000100
00000010
00000001
00010000
00000100
00001000
00000010
,  // measure 24
00010000
00000000
00001000
00010000
00001000
00100000
01000000
00100000
00010000
01000000
00100000
01000000
00010000
00100000
00010000
10000000
,  // measure 25
01000000
00010000
01000000
00010000
00001000
00000000
00000020
00000000
00000000
00000000
00000031
00000000
00000100
00000000
00001000
00000000
,  // measure 26
00000000
00001000
00010000
00100000
01000000
00000000
01100000
00000000
,  // measure 27
00100000
00010000
00100000
00010000
00001000
00000000
00000200
00000000
00000000
00000000
00000301
00000000
00000010
00000000
00001000
00000000
,  // measure 28
00000000
00000000
00001000
00010000
00001000
00000000
01000000
00000000
00100000
00000000
01000000
00000000
10000000
01000000
00010000
10000000
,  // measure 29
01000000
00010000
01000000
00010000
00001000
00000000
00000020
00000000
00000000
00000000
00000031
00000000
00000100
00000000
00001000
00000000
,  // measure 30
00000000
00000001
00000010
00001000
00000010
00010000
00021000
00000000
,  // measure 31
00130000
00010000
00100000
00010000
00001000
00000000
00000100
00000001
00000010
00000001
00000010
00000001
00000010
00000100
00001000
00000000
,  // measure 32
00001010
00000000
00001000
00010000
01000000
10000000
00010000
00000000
,  // measure 33
00100000
01000000
00100000
00000000
10000000
01000000
00100000
00000000
,  // measure 34
00001000
00010000
00001000
00010000
00000100
00000010
00000001
00000010
,  // measure 35
00000100
00000010
00000100
00000010
00000100
00010000
00001000
00000000
,  // measure 36
00010000
00001000
00010000
00001000
01000000
00100000
10000000
01000000
,  // measure 37
10000000
00000000
00000000
01000000
00000000
00100000
00000000
01000000
00000000
00100000
00000000
00000000
00000000
00000000
00000000
00000000
00001000
00000000
00000000
00010000
00000000
00000000
00000010
00000000
00001000
00000000
00000000
00000000
00000000
00000000
00000000
00000000
,  // measure 38
00000001
00000000
00000000
00000100
00000000
00000010
00000000
00000100
00000000
00000010
00000000
00000000
00000000
00000000
00000000
00000000
00010000
00000000
00000000
00000000
00001000
00000000
00100000
00000000
00010000
00000000
00100000
00000000
00000000
00000000
01000000
00000000
,  // measure 39
10000000
00100000
01000000
00010000
10000000
01000000
00100000
00001000
00010000
00000010
00000100
00000001
00001000
00000100
00000010
00000001
,  // measure 40
00001000
00000000
00000000
00011000
00000000
00000000
00001001
00000000
00000000
00000000
00000000
00000000
00000001
00000000
00000100
00000000
,  // measure 41
00000020
00000000
00001000
00000001
00000000
00000000
00000001
00001000
00000000
00000000
00001000
00000001
00000000
00000000
00000130
00010000
,  // measure 42
00002000
00000000
00010000
00000100
00000000
00000000
00000100
00010000
00000000
00000000
00013000
00000100
00010000
00000000
00001000
01000000
,  // measure 43
00200000
00000000
10000000
00010000
00000000
00000000
00010000
10000000
00000000
00000000
10000000
00010000
00000000
00000000
01300000
10000000
,  // measure 44
00020000
00000000
01000000
00001000
00000000
00000000
00001000
01000000
00000000
00000000
01000000
00001000
00000000
00000000
00030100
00001000
,  // measure 45
00000020
00000000
00001000
00000001
00000000
00000000
00000001
00001000
00000000
00000000
00001030
00000100
00010000
00000000
00001000
01000000
,  // measure 46
00200000
00000000
10000000
00010000
00000000
00000000
00010000
10000000
00000000
00000000
01300000
00001000
00010000
00000000
00000100
00001000
,  // measure 47
00000020
00000000
00001000
00000100
00000000
00000000
00000001
00001000
00000000
00000000
00001000
00000001
00000000
00000000
00000001
00000100
,  // measure 48
00000000
00000000
00010000
00001000
00000000
00000000
00001000
00010000
00000000
00000000
00010030
00001000
00100000
00000000
00010000
01000000
,  // measure 49
20000000
00000000
01000000
00100000
00000000
00000000
00100000
01000000
00000000
00000000
01000000
00100000
00000000
00000000
30100000
00000000
,  // measure 50
00010000
00000000
00001000
00000000
00000010
00000000
00000200
00000000
00001000
00000001
00000000
00000000
00000001
00001000
00000000
00000000
,  // measure 51
00000302
00000000
00000100
00000010
00000000
00000000
00000010
00000100
00000000
00000000
00000100
00000010
00000000
00000000
00000013
00000100
,  // measure 52
00002000
00000000
00000010
00010000
00000000
00000000
00010000
00000100
00000000
00000000
00000100
00010000
00000000
00000000
01003000
00010000
,  // measure 53
00200000
00000000
00010000
10000000
00000000
00000000
10000000
00010000
00000000
00000000
00010000
10000000
00000000
00000000
01300000
00001000
,  // measure 54
00020000
00000000
00001000
00100000
00000000
00000000
01000000
00001000
00000000
00000000
00031000
00010000
00000100
00000000
00001000
00000000
,  // measure 55
00000020
00000000
00001000
00000001
00000000
00000000
00000001
00001000
00000000
00000000
00001000
00000001
00000000
00000000
00000001
00001000
,  // measure 56
00000000
00000000
00001000
00000100
00000000
00000000
00001000
00010000
00000000
00000000
00010030
00001000
00200000
00000000
00310000
00000000
,  // measure 57
10000000
00000000
01000000
00100000
01000000
00000000
00100000
00000000
20000000
00000000
30100000
00010000
00000000
01000000
00001000
00000000
,  // measure 58
00010000
00000000
00000010
00000100
00000010
00000000
00000100
00000000
00002000
00000000
00000000
00000000
00003100
00000010
00001000
00000000
,  // measure 59
00000001
00000000
00000100
00000010
00000100
00000000
00000010
00000000
00000002
00000000
00000013
00001000
00000000
00000100
00010000
00000000
,  // measure 60
00001000
00100000
00010000
00000000
00100000
00000000
01000000
00000000
20000000
00000000
00000000
00000000
30020000
00000000
00000000
00000000
,  // measure 61
10030000
00000000
00100000
01000000
10000000
00000000
01000000
00000000
20000000
00000000
31000000
00010000
00000000
00100000
00001000
00000000
,  // measure 62
00010000
00000000
00000100
00000010
00001000
00000000
00000010
00000000
00002000
00000000
00000000
00000000
00003010
00000100
00001000
00000000
,  // measure 63
00000001
00000000
00000100
00000010
00000100
00000000
00001000
00000000
00000002
00000000
00000013
00001000
00000000
00000100
00010000
00000000
,  // measure 64
00001000
00100000
00001000
00100000
00010000
10000000
00010000
10000000
02000000
00000000
03100000
00010000
02000000
00000000
03010000
00000000
,  // measure 65
10000000
00000000
10000000
00000000
01000000
00000000
01000000
00000000
00100000
00000000
00001000
00010000
00000000
00010000
00001000
00000000
,  // measure 66
00000100
00000000
00000001
00000000
00000100
00000000
00000001
00000000
00000020
00000000
00000000
00000000
00000130
00001000
00000001
00000000
,  // measure 67
00000001
00000100
00001000
00010000
00100000
10000000
01000000
00010000
,  // measure 68
00022000
00000000
00000000
00000000
,  // measure 69
00000000
00000000
00000000
00000000
,  // measure 70
00033000
00000000
00000000
00000000
;
