#TITLE:Don't Stop Movin';
#SUBTITLE:;
#ARTIST:S Club 7;
#TITLETRANSLIT:;
#SUBTITLETRANSLIT:;
#ARTISTTRANSLIT:;
#GENRE:;
#CREDIT:;
#BANNER:banner.png;
#BACKGROUND:Don't_Stop_Movin-bg.png;
#LYRICSPATH:;
#CDTITLE:;
#MUSIC:Don't Stop Movin'.ogg;
#OFFSET:1.265000;
#SAMPLESTART:66.146996;
#SAMPLELENGTH:12.000000;
#LASTBEATHINT:0.309810;
#SELECTABLE:YES;
#BPMS:0.000000=117.000000
;
#STOPS:
;
#BGCHANGES:3.000=Don't Stop Movin'.avi=1.000=0=0=1=====,
99999=-nosongbg-=1.000=0=0=0 // don't automatically add -songbackground-
;
#KEYSOUNDS:;
#ATTACKS:;

//---------------dance-single - ----------------
#NOTES:
     dance-single:
     [FLASHING LIGHTS]:
     Beginner:
     3:
     0.135582,0.169028,0.041995,0.000000,0.000000,113.000000,108.000000,5.000000,0.000000,0.000000,0.000000,0.135582,0.169028,0.041995,0.000000,0.000000,113.000000,108.000000,5.000000,0.000000,0.000000,0.000000:
// measure 0
0000
0000
0000
0000
,  // measure 1
0000
0000
0000
0000
,  // measure 2
0000
0000
0000
0000
,  // measure 3
0000
0000
0000
0000
,  // measure 4
0000
0000
0000
0000
,  // measure 5
1000
0000
1000
0000
,  // measure 6
0001
0001
0001
0000
,  // measure 7
0100
0000
0100
0000
,  // measure 8
0010
0010
0010
0000
,  // measure 9
1000
0000
1000
0000
,  // measure 10
0100
0000
0010
0000
,  // measure 11
0001
0000
0001
0000
,  // measure 12
0100
0000
0010
0000
,  // measure 13
1000
0000
1000
0000
,  // measure 14
0100
0000
0100
0000
,  // measure 15
0001
0000
0001
0000
,  // measure 16
0100
0000
0100
0000
,  // measure 17
1000
0000
1000
0000
,  // measure 18
0001
0001
0001
0000
,  // measure 19
0010
0000
0010
0000
,  // measure 20
0100
0100
0100
0000
,  // measure 21
1000
0000
1000
0000
,  // measure 22
0010
0000
0010
0000
,  // measure 23
0001
0000
0001
0000
,  // measure 24
0010
0000
0010
0000
,  // measure 25
1000
0000
0000
0000
,  // measure 26
0100
0000
0000
0000
,  // measure 27
0010
0000
0010
0000
,  // measure 28
0001
0000
0001
0000
,  // measure 29
0100
0000
0000
0000
,  // measure 30
0010
0000
0000
0000
,  // measure 31
1000
0000
1000
0000
,  // measure 32
0001
0000
0001
0000
,  // measure 33
0010
0000
1001
0000
,  // measure 34
0001
0000
0001
0000
,  // measure 35
1000
0000
0100
0000
,  // measure 36
0001
0000
0010
0000
,  // measure 37
1000
0000
1001
0000
,  // measure 38
1000
0000
1000
0000
,  // measure 39
0010
0000
0010
0000
,  // measure 40
0100
0000
0100
0000
,  // measure 41
0010
0000
1001
0000
,  // measure 42
0001
0000
0001
0000
,  // measure 43
1000
0000
0010
0000
,  // measure 44
0001
0000
0100
0000
,  // measure 45
1000
0000
1001
0000
,  // measure 46
0001
0000
0001
0000
,  // measure 47
0100
0000
0100
0000
,  // measure 48
0010
0000
0010
0000
,  // measure 49
1000
1000
1000
1000
,  // measure 50
1000
0000
0100
0000
,  // measure 51
0010
0000
0010
0000
,  // measure 52
0001
0000
0100
0000
,  // measure 53
0010
0000
0010
0000
,  // measure 54
1000
0000
0001
0000
,  // measure 55
0100
0000
0100
0000
,  // measure 56
0001
0000
1000
0000
,  // measure 57
0100
0000
1001
0000
;

//---------------dance-single - [FLASHING LIGHTS]----------------
#NOTES:
     dance-single:
     :
     Easy:
     5:
     0.217172,0.217322,0.050393,0.033596,0.000000,181.000000,175.000000,6.000000,4.000000,0.000000,0.000000,0.217172,0.217322,0.050393,0.033596,0.000000,181.000000,175.000000,6.000000,4.000000,0.000000,0.000000:
0000
0000
0000
0000
,
0000
0000
0000
0000
,
0000
0000
0000
0000
,
0000
0000
0000
0000
,
0000
0000
0000
0000
,
1000
0100
0010
0001
,
1000
1000
1000
0000
,
0001
0100
0010
1000
,
0001
0001
0001
0000
,
1000
0100
0001
0100
,
0001
0100
1000
0000
,
0001
0100
1000
0100
,
1000
0100
0001
0010
,
0100
0000
0100
0000
,
0010
0000
0010
0000
,
0001
0000
0001
0000
,
1000
1000
0001
0000
,
1001
1000
0010
0001
,
0010
1000
0001
0000
,
0001
0001
0010
1000
,
0010
0001
0100
0100
,
0010
0000
0010
0000
,
0100
0000
0100
0000
,
0001
0000
0001
0000
,
1000
0100
1000
0010
,
2000
0100
3001
1000
,
0002
0100
1003
0001
,
1000
0010
0001
0010
,
1000
0000
1000
0000
,
0002
0010
1003
0001
,
2000
0010
3001
1000
,
0001
0010
0100
0100
,
1000
0000
0010
0000
0100
0000
0000
0010
,
0000
1100
0001
0000
,
1000
0001
0100
0000
,
0001
1000
0001
0100
,
1000
0000
0010
0000
0001
0000
0000
0100
,
0000
0011
1000
0000
,
0001
1000
0100
0000
,
1000
0010
0100
0000
,
0010
0000
0010
0000
0010
0000
0000
0100
,
0000
1010
0001
0000
,
1000
0100
1000
0000
,
1000
0001
1000
0100
,
0001
0000
0010
0000
1000
0000
0000
0100
,
0000
0011
1000
0000
,
0001
1000
0100
0000
,
1000
0001
0100
0000
,
0001
0010
0100
1000
,
0010
1000
0100
0010
,
0001
0001
0100
0100
,
1000
0100
0001
0000
,
1000
1000
0100
0100
,
0001
0100
1000
0000
,
0001
0001
0010
0010
,
1000
0010
0001
0000
,
1000
1000
0010
0010
,
0001
0010
1001
0000
;

//---------------dance-single - [FLASHING LIGHTS]----------------
#NOTES:
     dance-single:
     :
     Medium:
     8:
     0.327558,0.338056,0.142782,0.033596,0.000000,273.000000,256.000000,17.000000,4.000000,0.000000,0.000000,0.327558,0.338056,0.142782,0.033596,0.000000,273.000000,256.000000,17.000000,4.000000,0.000000,0.000000:
0000
0000
0000
0000
,
0000
0000
0000
0000
,
0000
0000
0000
0000
,
0000
0000
0000
0000
,
0000
0000
0000
0000
,
1000
0000
1000
0000
0100
0010
0100
0010
,
0001
0001
0001
0000
,
0001
0000
0001
0000
0100
0010
0100
0010
,
1000
1000
1000
0000
,
0001
0010
1000
0000
0010
0000
0001
0000
,
1000
0010
0001
0000
1010
0000
1000
0000
,
0001
0100
1000
0000
0100
0000
0001
0000
,
1000
0100
0001
0000
1100
0000
0001
0000
,
2000
0010
0100
3001
,
0002
0010
0100
1003
,
1010
0000
0101
0000
0001
0010
0100
0000
,
0010
0010
0001
1000
,
0101
1000
0010
0001
,
0010
1000
0010
1000
0001
0000
0001
0000
,
1100
0001
0010
1000
,
0010
0001
0010
0001
1000
0000
1000
0000
,
0002
0100
0010
1003
,
2000
0100
0010
3001
,
1100
0011
0001
1000
,
0001
0100
0001
0000
0100
0000
0010
0000
,
1000
0100
1000
0100
,
0010
0001
0010
0001
,
1000
0001
1000
0001
0100
0010
0100
0010
,
0100
0100
0001
0001
,
1000
0010
1000
0010
,
0100
0001
0100
0001
,
1000
0100
0010
0000
0011
0000
1100
0000
,
0001
0100
0010
0000
1010
0000
0001
0100
,
0000
0000
1001
0000
0001
0010
0100
0000
,
1000
0100
0001
0000
0001
0100
1000
0000
,
0001
0100
1000
0000
1000
0100
0001
0000
,
1000
0000
0010
0000
0001
0000
0100
0010
,
0000
0000
1001
0000
0001
0010
0100
0000
,
1000
0010
0001
0000
0001
0010
1000
0000
,
0001
0010
1000
0000
1000
0010
0001
0000
,
1000
0000
1000
0000
0001
0000
0001
0100
,
0000
0000
1010
0000
0001
0010
0100
0000
,
0100
0010
0001
0000
0001
0100
0010
0000
,
0010
1000
0100
0000
0010
0001
0100
0000
,
0001
0000
0010
0000
1000
0000
0100
0010
,
0000
0000
1100
0000
1000
0010
0100
0000
,
0010
0100
0010
0000
1000
0100
1000
0000
,
0001
0100
0001
0000
1000
0100
1000
0000
,
0010
0000
0010
0000
1000
0100
0010
0000
,
0001
0000
0001
0000
1000
0001
0100
0000
,
0010
0000
0010
0000
1000
0001
1000
0001
,
0100
0100
0100
0000
,
0001
0000
0001
0000
1000
0100
1000
0100
,
0010
0010
0010
0000
,
0001
0000
0001
0000
1000
0010
0100
0001
,
1000
1000
1000
0000
,
0001
0000
0001
0000
1000
0100
0010
0001
,
0100
0110
1001
0000
;

//---------------dance-single - [FLASHING LIGHTS]----------------
#NOTES:
     dance-single:
     :
     Hard:
     10:
     0.418746,0.434644,0.260366,0.109186,0.000000,349.000000,318.000000,31.000000,13.000000,0.000000,0.000000,0.418746,0.434644,0.260366,0.109186,0.000000,349.000000,318.000000,31.000000,13.000000,0.000000,0.000000:
0000
0000
0000
0000
,
0000
0000
0000
0000
,
0000
0000
0000
0000
,
0000
0000
0000
0000
,
0000
0000
0000
0000
,
1000
0000
1000
0000
0100
0001
0100
0010
,
0001
0001
1000
1000
1010
0000
0101
0000
,
1000
0000
1000
0000
0100
0001
0100
0010
,
0011
1100
1001
0000
,
1000
0010
0001
1000
0100
0001
0010
0100
,
1000
0100
0001
0100
1000
0000
1100
0000
,
0001
0010
1000
0001
0100
1000
0010
0100
,
0001
0100
1000
0100
0001
0010
1000
0010
,
0002
0000
0100
0000
1003
0100
0001
0100
,
2000
0010
3002
1003
,
0011
0000
1100
0000
0001
0010
0100
0000
,
1000
0010
0100
0001
,
0101
0100
1000
0001
0010
1000
0100
0001
,
1000
0010
0001
0100
0010
0000
1001
0000
,
1000
0100
0001
1000
0010
0001
0100
1000
,
0001
0010
1000
0100
0010
0001
0100
0010
,
2000
0000
0100
0000
3001
0100
1000
0100
,
0002
0010
2003
3001
,
1010
0000
0101
0000
0001
0010
0100
1000
,
0001
0000
0001
0000
1000
0010
0100
0100
,
1002
0010
1000
0100
,
1000
0010
0100
1003
,
1000
0100
0010
0001
0100
1000
0100
0001
,
0010
1000
0010
0100
0001
0100
0010
0001
,
2001
0010
0100
0001
,
0100
0010
0100
3001
,
1000
0100
0001
0100
0110
0000
1001
0000
,
0001
0100
1000
0100
0110
0000
0010
2000
,
0000
3000
0101
0000
0001
0010
0100
0000
,
1000
0100
0001
0100
0010
0001
1000
0000
,
1000
0010
0100
0001
0010
0100
0001
0100
,
1000
0000
0010
0000
0001
0000
0100
0020
,
0000
0030
1100
0000
1000
0010
0100
0000
,
0001
0100
1000
0100
0010
1000
0001
0000
,
1000
0100
0010
0001
0100
0010
1000
0000
,
1010
0000
0101
0000
0001
0010
0001
0200
,
0000
0300
1010
0000
1000
0100
0010
0000
,
0001
0010
1000
0010
0100
1000
0001
0000
,
1000
0100
0010
0001
1000
0010
0100
0001
,
1000
0000
0100
0000
0001
0000
0010
0200
,
0000
0300
0011
0000
0001
0100
0010
0000
,
1000
0010
0001
0010
0100
0001
1000
0000
,
0001
0010
0100
1000
0010
0100
0001
2000
,
0000
3100
0001
0100
1000
1000
0001
0001
,
0100
0100
1000
1000
0100
0100
0001
0001
,
0010
0000
1100
0000
0001
0100
1000
0100
,
0010
0010
1000
1000
0001
0000
0001
0000
,
0010
0000
0101
0000
1000
0100
0001
0100
,
0010
0010
0001
0001
1000
0000
1000
0000
,
0100
0000
1001
0000
0001
0001
0100
0100
,
1000
1000
0100
0100
0010
0000
0010
0000
,
1010
0000
0101
0000
0001
0010
1000
0001
,
1100
0011
1001
0000
;
