#TITLE:Broken;
#SUBTITLE:;
#ARTIST:dj TAKA feat. AiMEE;
#TITLETRANSLIT:;
#SUBTITLETRANSLIT:;
#ARTISTTRANSLIT:;
#GENRE:;
#CREDIT:;
#MUSIC:Broken.ogg;
#BANNER:Broken.png;
#BACKGROUND:Broken-bg.png;
#CDTITLE:;
#SAMPLESTART:59.014;
#SAMPLELENGTH:15.000;
#SELECTABLE:YES;
#OFFSET:2.582;
#BPMS:0.000=148.000;
#STOPS:;
#BGCHANGES:;
#FGCHANGES:;

//--------------- dance-single - forcednature ----------------
#NOTES:
     dance-single:
     forcednature:
     Beginner:
     3:
     0,0,0,0,0:
0000
0000
0000
0000
,
0000
0000
0000
0000
,
0000
0000
0000
0000
,
0000
0000
0000
0000
,
0000
0000
0000
0000
,
0000
0000
0000
0000
,
1001
0000
0000
0000
,
0001
0000
0000
0000
,
1000
0000
0000
0000
,
0100
0000
0010
0000
,
0110
0000
0000
0000
,
1000
0000
0000
0000
,
0001
0000
0000
0000
,
0100
0000
0000
0000
,
1001
0000
0000
0000
,
0110
0000
0000
0000
,
0001
0000
1000
0000
,
0010
0000
0100
0000
,
2002
0000
0000
0000
,
0000
0000
0000
0000
,
0000
0000
0000
0000
,
3003
0000
0000
0000
,
0110
0000
0000
0000
,
0001
0000
0000
0000
,
1000
0000
0000
0000
,
0100
0000
0000
0000
,
0010
0000
0000
0000
,
0000
0000
0000
0000
,
0001
0000
0000
0000
,
1000
0000
0010
0000
,
0110
0000
0000
0000
,
0001
0000
0000
0000
,
1000
0000
0000
0000
,
0100
0000
0010
0000
,
0001
0000
0000
0000
,
0100
0000
0000
0000
,
0010
0000
0000
0000
,
1000
0000
0001
0000
,
1001
0000
0000
0000
,
1000
0000
0000
0000
,
0010
0000
0000
0000
,
0100
0000
0001
0000
,
0100
0000
0000
0000
,
0010
0000
0000
0000
,
1000
0000
0001
0000
,
1001
0000
0000
0000
,
0110
0000
0000
0000
,
1001
0000
0000
0000
,
0010
0000
0100
0000
,
0010
0000
0000
0000
,
2002
0000
0000
0000
,
0000
0000
3003
0000
,
0200
0000
0000
0000
,
0310
0000
0010
0000
,
1001
0000
1000
0000
,
0001
0000
0100
0000
,
0010
0000
1000
0000
,
0001
0000
0010
0000
,
0100
0000
1000
0000
,
0100
0000
0010
0000
,
0001
0000
1000
0000
,
0010
0010
0010
0000
,
0110
0000
0100
0000
,
0001
0000
1000
0000
,
0001
0000
0010
0000
,
0100
0000
1000
0000
,
1001
0000
0001
0000
,
0100
0000
0001
0000
,
0010
0000
0100
0000
,
1000
0000
0001
0000
,
1001
0000
0000
0000
,
0001
0000
0000
0000
,
0100
0000
0000
0000
,
0010
0000
0000
0000
,
1000
0000
0000
0000
,
0100
0000
0000
0000
,
0010
0000
0000
0000
,
0002
0000
0000
0000
,
0000
0000
0000
0000
,
0003
0000
0000
0000
;

//--------------- dance-single - forcednature ----------------
#NOTES:
     dance-single:
     forcednature:
     Easy:
     6:
     0,0,0,0,0:
0000
0000
0000
0000
,
0000
0000
0000
0000
,
0000
0000
0000
0000
,
0000
0000
0000
0000
,
0000
0000
0000
0000
,
0000
0000
0000
0000
,
1001
0000
1000
0001
,
0100
0010
1000
0100
,
0010
0000
0001
0100
,
0010
0000
0000
0010
0000
0000
0010
0000
0000
0000
0000
0000
0000
0000
0000
0000
,
1001
0000
1000
0001
,
0100
0001
1000
0001
,
0010
0000
0100
1000
,
0001
1000
0010
0100
,
0110
0000
0001
1000
,
1001
0000
0100
0010
,
0110
0000
1001
0000
,
1000
0100
0010
0001
,
0200
0000
0302
0000
,
2003
0000
3020
0000
,
2030
0000
3200
0000
,
0320
0000
0031
0000
,
2002
0000
0000
0000
0000
3003
0000
0000
,
0200
0000
0000
0000
0000
0300
0000
0000
,
0020
0000
0030
0000
,
1000
0001
0010
0001
,
0200
0300
0020
0000
,
0030
1000
0100
1000
,
0002
0000
0003
0000
,
0100
0010
1000
0001
,
1002
0000
0100
0100
,
2003
0000
0100
0100
,
3002
0000
0013
0100
,
1000
0001
0100
0000
,
0220
0000
0000
0000
,
0330
0000
0002
0000
,
1003
0100
1000
0001
,
0100
0100
0010
0000
,
1001
0000
0001
0100
,
0010
1000
0001
0010
,
0100
1000
0100
0010
,
0001
0001
1000
0001
,
1001
0000
0100
0010
,
0110
0000
1000
0001
,
0010
0000
0000
0100
0000
0000
0110
0000
,
0000
0000
1000
0001
,
1000
0000
0000
1001
0000
0000
0000
0000
,
0001
0000
0000
1001
0000
0000
0000
0000
,
1000
0001
0010
0100
,
0220
0330
0001
1000
,
2002
0000
0000
0000
,
3003
0000
0220
0330
,
1000
1000
0001
0001
,
0100
0010
1000
0000
,
1001
0001
0010
0001
,
0100
0010
1000
0001
,
0010
0100
1000
0010
,
0100
0001
0010
0100
,
0110
0010
0001
1000
,
0010
0100
0001
1000
,
0100
1000
0001
0100
,
1001
0110
1001
0000
,
0110
0000
1000
0001
,
0010
0001
1000
0010
,
0200
0000
0301
1000
,
0100
1000
0010
0100
,
0002
0000
1003
0100
,
0010
0001
0100
0010
,
2000
0000
3001
0010
,
0100
1000
0010
0010
,
1001
0000
0002
0000
,
0203
0000
0320
0000
,
2030
0000
3002
0000
,
0023
0000
0230
0000
,
2300
0000
3020
0000
,
0230
0000
0302
0000
,
2003
0000
3100
0000
,
2002
0000
0000
0000
,
0000
0000
0000
0000
,
3003
0000
0000
0000
;

//--------------- dance-single - forcednature ----------------
#NOTES:
     dance-single:
     forcednature:
     Medium:
     9:
     0,0,0,0,0:
0000
0000
0000
0000
,
0000
0000
0000
0000
,
0000
0000
0000
0000
,
0000
0000
0000
0000
,
0000
0000
0000
0000
,
0000
0000
0000
0000
,
1001
0000
0001
0100
0001
0000
1000
0100
,
1000
0000
0010
0100
0010
0000
1000
0000
,
0001
0000
0010
0100
1000
1000
0001
0001
,
0100
0000
0000
0110
0000
0000
1001
0000
0000
0000
0010
0000
0010
0000
0000
0000
,
0110
0000
1000
0001
0100
0000
0010
1000
,
0001
0000
0010
0100
1000
0001
0100
0000
,
0010
0000
1000
0100
0010
0000
0100
1000
,
0001
0000
0010
0001
0100
0001
1000
0000
,
1001
0000
0001
0010
0100
1000
0001
0000
,
1001
0000
1000
0010
0100
0001
1000
0000
,
1100
0010
0101
0010
,
1001
0000
1000
0000
0001
0001
0010
0010
,
0200
0000
2300
0000
,
3002
0000
0203
0000
,
0320
0000
2030
0000
,
3001
0000
0000
0000
1000
0100
0010
0001
,
0200
0000
0000
0000
0000
0300
0010
2000
,
0000
0000
0000
0000
0000
3000
0001
0020
,
0000
0000
0000
0000
0030
0000
0100
2000
,
0000
3000
0002
0000
0203
0000
0320
0000
,
2030
0000
0000
3001
0020
0000
0000
0000
,
0030
0200
0320
0032
,
2003
0000
0000
0000
3000
0010
0100
0002
,
0000
0003
2000
0000
3200
0000
0310
0001
,
2000
0000
0100
0000
3010
1000
0001
0010
,
0200
0000
1000
0000
0310
0100
1000
0001
,
0200
0000
0310
2000
0000
3002
0000
0023
,
0000
0230
2300
3001
,
0102
1000
0010
1000
,
0103
0001
0220
0330
,
2002
0000
0000
3003
,
1100
0000
0101
0000
0010
0100
0010
0000
,
1001
0000
0001
0100
0010
1000
0001
0010
,
0200
0000
0310
0001
1000
0001
0100
0010
,
2000
0000
3100
1000
0020
0000
0130
0001
,
0020
0000
0230
0000
1300
0001
1000
0010
,
0200
0000
0301
0010
0200
0000
0310
0000
,
1001
0000
1000
0001
0100
0100
0010
0000
,
1000
1100
0000
0001
0101
0000
0010
0110
,
0000
0001
0000
2000
0010
0000
3001
1000
,
0100
0000
0010
0011
0000
0001
1000
0001
,
0100
0000
0010
1010
0000
1000
0001
1000
,
0200
0000
0310
0002
0000
2003
0000
3020
,
0000
0000
0030
0000
0100
0001
1000
0100
,
0010
0000
0000
0220
0000
0000
0000
0330
,
0000
0000
2002
3003
,
1000
0100
0010
0001
1000
0010
0100
0001
,
0010
0000
0010
0000
0100
1000
0001
0100
,
0010
0000
0000
1000
0000
0000
0001
0000
0010
0000
0000
0100
0000
0000
1000
0000
,
0002
0000
0103
0010
0100
0001
1000
0000
,
0100
0000
0000
0010
0000
0000
0001
0000
1000
0000
0000
0010
0000
0000
1000
0000
,
0200
0000
0310
0001
0010
0100
1000
0000
,
0001
0000
0000
0100
0000
0000
0010
0000
2000
0000
0000
0000
3002
0000
0000
0000
,
0023
0000
0130
1000
0100
0010
0002
0000
,
0103
0000
0000
0010
0000
0000
0100
0000
0001
0000
1000
0000
0001
0000
0000
0000
,
1100
0000
0101
0000
0010
0010
0010
0000
,
1001
0000
0001
0100
0010
1000
0001
0010
,
0200
0000
0310
0001
0200
0000
0310
1000
,
0002
0000
1003
0100
0010
0001
0100
0010
,
2000
0000
3001
0010
0200
0000
1300
0001
,
0200
0000
0310
1000
0100
1000
0010
0100
,
0002
0000
0013
0100
2000
0000
3001
0100
,
0020
0000
0130
0001
0010
0100
1000
0001
,
0200
0000
0310
1000
0001
0010
0001
0010
,
0200
0000
2300
0000
,
3002
0000
0203
0000
,
0320
0000
2030
0000
,
3002
0000
0023
0000
,
0032
0000
0203
0000
,
0320
0000
2030
0000
,
3200
0000
0310
0000
,
2002
0000
0000
0000
,
0000
0000
0000
0000
,
3003
0000
0000
0000
;

//--------------- dance-single - forcednature ----------------
#NOTES:
     dance-single:
     forcednature:
     Hard:
     13:
     0,0,0,0,0:
0000
0000
0000
0000
,
0000
0000
0000
0000
,
0000
0000
0000
0000
,
0000
0000
0000
0000
,
0000
0000
0000
0000
,
0000
0000
0000
0000
,
1001
0000
1000
0010
0100
0000
1000
0100
,
0001
0000
0010
0100
1000
0010
1000
0100
,
0010
0000
1000
0010
0001
0001
1000
1000
,
1001
0000
0000
0100
0010
0000
1001
0000
0000
0000
1000
0001
0010
0001
0010
0000
,
0100
0000
1000
0000
0010
0000
0100
0001
0000
0000
1000
0000
0100
0000
0010
0001
,
0000
0000
1000
0000
0010
0000
0100
0001
0000
0001
0010
0000
0100
0000
1000
0000
,
1000
0000
0001
0000
0010
0000
0100
1000
0000
0000
0001
0000
0100
0000
0010
1000
,
0000
0000
0001
0000
0010
0000
0100
1000
0000
1000
0010
0000
0010
0000
0010
0000
,
0110
0000
0001
0000
1000
0000
0100
0010
0000
0000
0001
0000
1000
0000
0010
0100
,
0010
0000
1000
0000
0001
0000
0010
0100
0000
0000
0010
0000
0001
0000
0100
0000
,
0101
0001
1000
0100
1100
1000
0010
0100
,
0110
0000
0000
0000
1000
0000
0001
0000
0100
0000
0010
1000
0001
0000
0010
0000
,
0210
1000
2300
0001
,
3002
0100
0203
0010
,
0320
1000
2030
0001
,
3010
0000
0000
0000
1000
0100
0010
0001
,
1001
1000
0001
0200
0000
0000
0310
1000
,
0001
0010
0100
2000
0000
0000
3100
0010
,
0100
1000
0001
0200
0000
0000
0310
2000
,
0000
3000
0002
0000
0023
0000
0230
0000
,
1300
0001
0100
0010
2000
0000
0000
0000
,
3100
0010
0002
0000
0203
0000
0320
0000
,
2030
0000
0000
0000
0000
3100
0010
0002
,
0000
0003
0100
0010
1000
0001
0010
0000
,
1001
0001
1000
0010
0000
0010
1000
0001
,
0010
0100
0010
0001
0000
0001
0100
0010
,
2000
0000
3001
0010
0100
1000
0010
0200
,
0000
0301
2000
0000
3200
0000
0310
0000
,
1001
0000
1000
0001
0010
0000
0001
1000
,
0010
0000
1000
0001
0100
0000
0001
1000
,
0100
1000
0010
1000
0001
0100
0001
0010
,
0001
0100
0001
0000
1000
0100
1000
0000
0010
0000
0100
0000
0110
0000
0000
0000
,
0001
1000
0001
0000
0010
0000
0001
0000
0100
0000
0010
0000
1000
0000
0002
0000
,
0010
0000
0103
0001
0010
0100
1000
0001
,
0100
0000
0000
0100
0001
0000
0000
0001
1000
0000
0000
1000
0100
0000
0010
0000
,
0001
0100
1000
0100
0010
1000
0001
0001
,
0011
0000
0000
0010
0100
0000
0000
0100
1000
0000
0000
1000
0001
0000
0100
0000
,
0110
0000
1000
0001
0010
1000
0010
0001
,
0101
1010
0000
1100
0011
0000
0110
1001
,
0000
0000
0001
0000
1000
0000
0001
0000
0100
0000
0010
1000
0010
1000
0001
0000
,
0100
1000
0100
0101
0000
1000
0001
0010
,
0100
0001
0100
1100
0000
0001
1000
0010
,
0100
0000
1000
0000
0100
0001
0100
0000
0010
0000
1000
0000
0001
0000
0020
0000
,
0100
0000
1030
0000
0100
1000
0100
0001
,
0220
0000
0330
0000
1000
0100
1000
0010
,
0100
0001
0010
0001
0100
0010
1000
0001
,
0010
0010
0100
0100
1000
1000
0001
0001
,
1000
0100
1000
0000
0001
0100
0001
0000
0010
0000
0100
0000
1000
0010
0100
0001
,
1000
0000
0100
0010
0000
0010
0001
0000
1000
0000
0010
0100
0000
0100
0001
0000
,
2000
0000
0000
0000
3001
0010
0100
1000
0010
0000
1000
0000
0001
0000
0010
0000
,
0001
0000
1000
0010
0000
0010
0100
0000
0001
0000
1000
0100
0000
0010
0001
0000
,
0200
0000
0000
0000
0301
1000
0001
0010
0100
0000
0001
0000
0100
0000
1000
0000
,
1001
0000
0001
0100
0000
0100
0010
0000
0001
0000
0010
0000
1000
0000
0100
0000
,
2000
0000
0000
0000
3001
0010
0100
0000
1000
0001
0100
0000
0010
1000
0001
0000
,
0010
0000
0100
1000
0000
1000
0010
0000
0100
0000
1000
0000
0100
0000
0001
0000
,
1001
0000
0000
0000
0110
0000
0000
0000
1000
0000
0001
0100
0001
0100
0010
0000
,
1000
0001
1000
0000
0010
0000
0100
0001
0000
1000
0100
0000
0010
0000
0100
1000
,
0000
0010
0100
0000
0001
0000
1000
0100
0000
0010
0001
0000
0100
0000
1000
0000
,
0100
0010
0100
0000
0001
0000
1000
0100
0000
0010
0100
0000
1000
0000
0001
0100
,
0000
0001
0010
0000
0100
0000
1000
0100
0000
0001
0100
0000
0010
0000
0001
0000
,
1000
0010
1000
0000
0001
0000
0010
0100
0000
1000
0001
0000
0100
0000
0010
1000
,
0000
0100
0010
0000
0001
0000
0100
0010
0000
1000
0001
0000
0010
0000
1000
0000
,
0010
0001
0010
0000
0100
0000
1000
0001
0000
0010
0001
0000
0100
0000
0010
1000
,
0000
0100
0010
0000
0001
0000
0100
0010
0100
0000
1000
0000
0100
0000
0001
0000
,
1002
0000
0013
0100
2000
0000
3010
0100
,
0002
0000
1003
0100
0020
0000
0031
1000
,
0020
0000
0130
0001
2000
0000
3100
1000
,
0020
0000
0130
0001
0020
0000
0130
1000
,
0002
0000
0103
0010
2000
0000
3001
0010
,
0200
0000
0310
0001
2000
0000
3010
0100
,
0002
0000
1003
0100
0020
0000
0031
0000
,
2002
0000
0000
0000
,
0000
0000
0000
0000
,
3003
0000
0000
0000
;

//--------------- dance-double - forcednature ----------------
#NOTES:
     dance-double:
     forcednature:
     Easy:
     6:
     0,0,0,0,0:
00000000
00000000
00000000
00000000
,
00000000
00000000
00000000
00000000
,
00000000
00000000
00000000
00000000
,
00000000
00000000
00000000
00000000
,
00000000
00000000
00000000
00000000
,
00000000
00000000
00000000
00000000
,
00011000
00000000
01000000
00001000
,
00010000
00001000
00100000
01000000
,
00100000
00000000
00010000
01000000
,
00001000
00000000
00000000
00001000
00000000
00000000
00001000
00000000
00000000
00000000
00000000
00000000
00000000
00000000
00000000
00000000
,
00011000
00000000
00010000
00000100
,
00001000
00000100
00000010
00000001
,
00001000
00000000
00000010
00010000
,
00001000
00100000
00001000
00010000
,
00011000
00000000
00001000
01000000
,
01001000
00000000
00010000
00000100
,
00010100
00000000
00101000
00000000
,
00001000
00010000
00000010
00010000
,
00002000
00000000
00003020
00000000
,
00000032
00000000
00000203
00000000
,
00000320
00000000
00020030
00000000
,
00032000
00000000
00103000
00000000
,
20020000
00000000
00000000
00000000
00000000
30030000
00000000
00000000
,
00020000
00000000
00030000
00000000
,
02000000
00000000
03000000
00000000
,
00001000
00010000
00000100
00001000
,
00000020
00000030
00000200
00000000
,
00000300
00000001
00001000
00000001
,
00000020
00000000
00000030
00000000
,
00000100
00010000
00001000
00100000
,
10020000
00000000
01000000
00000000
,
00230000
00000000
00001000
00000000
,
00320000
00000000
01030000
00001000
,
00010000
00000100
00001000
00000000
,
00000220
00000000
00000000
00000000
,
00000330
00000000
00002000
00000000
,
00003001
00000100
00000001
00000010
,
00000100
00000100
00010000
00000000
,
00011000
00000000
00010000
00001000
,
01000000
00010000
01000000
00100000
,
10000000
01000000
00100000
01000000
,
00010000
00010000
00001000
00000000
,
00011000
00000000
00000100
00000000
,
00000110
00000000
00000010
00000001
,
00000100
00000000
00000000
00000100
00000000
00000000
00000110
00000000
,
00000000
00000000
00000010
00010000
,
00001000
00000000
00000000
00011000
00000000
00000000
00000000
00000000
,
00010000
00000000
00000000
00011000
00000000
00000000
00000000
00000000
,
01000000
00010000
10000000
00010000
,
00200000
00300000
01000000
10000000
,
20020000
00000000
00000000
00000000
,
30030000
00000000
02200000
03300000
,
00010000
00010000
01000000
01000000
,
00001000
00010000
00001000
00000000
,
00000110
00000000
00000001
00001000
,
00000001
00000100
00000010
00010000
,
00001000
00000000
00100000
00010000
,
00100000
01000000
10000000
00010000
,
10010000
00000000
10000000
00010000
,
01000000
00001000
00010000
00000100
,
00001000
00000000
00000010
00000100
,
00000001
00001000
00001001
00000000
,
00000110
00000000
00000001
00000010
,
00000001
00001000
00000100
00010000
,
00002000
00000000
01003000
00010000
,
10000000
00010000
00100000
01000000
,
20000000
00000000
31000000
00010000
,
00001000
00010000
00000010
00001000
,
00000002
00000000
00000013
00000100
,
00010000
00001000
01000000
01000000
,
01100000
00000000
00200000
00000000
,
20300000
00000000
30020000
00000000
,
00230000
00000000
00302000
00000000
,
00023000
00000000
00030020
00000000
,
00002030
00000000
00003002
00000000
,
00000023
00000000
00000230
00000000
,
00020300
00000000
00031000
00000000
,
00022000
00000000
00000000
00000000
,
00000000
00000000
00000000
00000000
,
00033000
00000000
00000000
00000000
;

//--------------- dance-double - forcednature ----------------
#NOTES:
     dance-double:
     forcednature:
     Medium:
     9:
     0,0,0,0,0:
00000000
00000000
00000000
00000000
,
00000000
00000000
00000000
00000000
,
00000000
00000000
00000000
00000000
,
00000000
00000000
00000000
00000000
,
00000000
00000000
00000000
00000000
,
00000000
00000000
00000000
00000000
,
00011000
00000000
00010000
00000100
00010000
00000000
00001000
01000000
,
00001000
00000000
00010000
00000010
00010000
00000000
00001000
00000000
,
00100000
00000000
01000000
10000000
01000000
01000000
00010000
00010000
,
00001000
00000000
00000000
00011000
00000000
00000000
00010100
00000000
00000000
00000000
00000100
00000000
00000100
00000000
00000000
00000000
,
00000110
00000000
00000010
00000001
00000100
00000000
00000010
00010000
,
00001000
00000000
00100000
00010000
01000000
00100000
10000000
00000000
,
01000000
00000000
00010000
00001000
00010000
00000000
00000010
00001000
,
00000001
00000000
00000010
00000100
00001000
00000100
00010000
00000000
,
00011000
00000000
00001000
01000000
00100000
01000000
00001000
00000000
,
00011000
00000000
00010000
00000100
00000010
00000100
00010000
00000000
,
00101000
00000100
00010010
01000000
,
00011000
00000000
00000010
00000000
00000100
00000100
00000001
00000001
,
00000020
00000000
00000230
00000000
,
00020300
00000000
00032000
00000000
,
02003000
00000000
03020000
00000000
,
00130000
00000000
00000000
00000000
01000000
10000000
01000000
00010000
,
00002000
00000000
00000000
00000000
00000000
00003000
00000010
00000200
,
00000000
00000000
00000000
00000000
00000000
00000300
00001000
00000002
,
00000000
00000000
00000000
00000000
00000003
00000000
00000100
00002000
,
00000000
00003000
00020000
00000000
02030000
00000000
03200000
00000000
,
00320000
00000000
00000000
10030000
00200000
00000000
00000000
00000000
,
00300000
02000000
03002000
00023000
,
00030200
00000000
00000000
00000000
00000300
00000010
00000001
00002000
,
00000000
00003000
00000020
00000000
00020030
00000000
00031000
00100000
,
02000000
00000000
00010000
00000000
13000000
01000000
00010000
00001000
,
00200000
00000000
01000000
00000000
00310000
00100000
00001000
00010000
,
00000020
00000000
00000130
00002000
00000000
00003200
00000000
00000302
,
00000000
00000023
00000230
00010300
,
00012000
01000000
00010000
00103000
,
00001000
00010000
00020020
00030030
,
00202000
00000000
00000000
00303000
,
00010100
00000000
01001000
00000000
00010000
00001000
00010000
00000000
,
00101000
00000000
00100000
01000000
00100000
00001000
00010000
00100000
,
02000000
00000000
03100000
10000000
01000000
00010000
00001000
00010000
,
00000020
00000000
00001030
00000100
00000020
00000000
00000031
00001000
,
00000020
00000000
00000230
00000000
00001300
00010000
00001000
01000000
,
00020000
00000000
00130000
01000000
20000000
00000000
31000000
00000000
,
10100000
00000000
10000000
01000000
00010000
00010000
00001000
00000000
,
00100000
00101000
00000000
00000010
00010010
00000000
00001000
00011000
,
00000000
00000100
00000000
00002000
00000010
00000000
00003001
00001000
,
00000100
00000000
00010000
00011000
00000000
00001000
00100000
00010000
,
01000000
00000000
00001000
00011000
00000000
00010000
00000010
00001000
,
00000200
00000000
00000310
00000002
00000000
00000203
00000000
00002300
,
00000000
00000000
00003000
00000000
01000000
00010000
10000000
00010000
,
00100000
00000000
00000000
02200000
00000000
00000000
00000000
03300000
,
00000000
00000000
20020000
30030000
,
10000000
01000000
00100000
00010000
00001000
00000100
00000010
00000001
,
00000100
00000000
00000100
00000000
00001000
00010000
00001000
01000000
,
00010000
00000000
00000000
00100000
00000000
00000000
01000000
00000000
10000000
00000000
00000000
01000000
00000000
00000000
00010000
00000000
,
00002000
00000000
00103000
00010000
01000000
00001000
00010000
00000000
,
00000100
00000000
00000000
00001000
00000000
00000000
00000010
00000000
00000100
00000000
00000000
00000001
00000000
00000000
00000010
00000000
,
00000200
00000000
00010300
00001000
00010000
00100000
01000000
00000000
,
00010000
00000000
00000000
10000000
00000000
00000000
01000000
00000000
20000000
00000000
00000000
00000000
30200000
00000000
00000000
00000000
,
00320000
00000000
00031000
00100000
00010000
00100000
02000000
00000000
,
03010000
00000000
00000000
00001000
00000000
00000000
00010000
00000000
00000010
00000000
00001000
00000000
00000100
00000000
00000000
00000000
,
00000110
00000000
00001001
00000000
00010000
00010000
00010000
00000000
,
00011000
00000000
01000000
00010000
00100000
01000000
10000000
01000000
,
00020000
00000000
00031000
00100000
00020000
00000000
01030000
00001000
,
00020000
00000000
00030100
00001000
00000010
00000100
00001000
00000100
,
00000002
00000000
00000013
00000100
00000002
00000000
00000103
00000010
,
00000002
00000000
00000013
00001000
00010000
01000000
00010000
00100000
,
02000000
00000000
03010000
00001000
02000000
00000000
03100000
10000000
,
02000000
00000000
03010000
00001000
00100000
00001000
00010000
00000010
,
00002000
00000000
00003100
00000010
00001000
00010000
00001000
00010000
,
00200000
00000000
20300000
00000000
,
32000000
00000000
03020000
00000000
,
00032000
00000000
00003200
00000000
,
00000302
00000000
00000023
00000000
,
00002030
00000000
00023000
00000000
,
00230000
00000000
02300000
00000000
,
03002000
00000000
00013000
00000000
,
00000220
00000000
00000000
00000000
,
00000000
00000000
00000000
00000000
,
00000330
00000000
00000000
00000000
;

//--------------- dance-double - forcednature ----------------
#NOTES:
     dance-double:
     forcednature:
     Hard:
     13:
     0,0,0,0,0:
00000000
00000000
00000000
00000000
,
00000000
00000000
00000000
00000000
,
00000000
00000000
00000000
00000000
,
00000000
00000000
00000000
00000000
,
00000000
00000000
00000000
00000000
,
00000000
00000000
00000000
00000000
,
00001000
00010000
00100000
01000000
00001000
00010000
01000000
00100000
,
00010000
00001000
00000100
00000010
00001000
00010000
00000010
00000100
,
00001000
00010000
01000000
00100000
00010000
00010000
10000000
10000000
,
11000000
00000000
00000000
01010000
00000000
00000000
00011000
00000000
00000000
00000000
00000100
00001000
00000100
00001000
00000100
00000000
,
00000010
00000000
00000001
00000000
00000100
00000000
00000010
00001000
00000000
00000000
00000100
00000000
00010000
00000000
00001000
01000000
,
00000000
00000000
00010000
00000000
00100000
00000000
01000000
10000000
00000000
10000000
00100000
00000000
00010000
00000000
00010000
00000000
,
00100000
00000000
01000000
00000000
00001000
00000000
00010000
00000010
00000000
00000000
00001000
00000000
00000100
00000000
00000010
00000001
,
00000000
00000000
00000100
00000000
00000010
00000000
00000100
00000001
00000000
00000001
00001000
00000000
00001000
00000000
00001000
00000000
,
00001100
00000000
00000100
00000000
00010000
00000000
00001000
01000000
00000000
00000000
00010000
00000000
00100000
00000000
01000000
10000000
,
01000000
00000000
00010000
00000000
00001000
00000000
00100000
00010000
00000000
00000000
01000000
00000000
00001000
00000000
00010000
00000000
,
00011000
00001000
01000000
00001000
00011000
00010000
00000100
00010000
,
00011000
00000000
00000000
00000000
00000010
00000000
00001000
00000000
00000100
00000000
00000010
00000001
00001000
00000000
00000010
00000000
,
00000210
00001000
00002300
00010000
,
00023000
01000000
02030000
00100000
,
03200000
00001000
00302000
00010000
,
00103000
00000000
00000000
00000000
00010000
00001000
00000010
00000001
,
00000101
00000100
00000010
00020000
00000000
00000000
00031000
00100000
,
01000000
00010000
01000000
20000000
00000000
00000000
30100000
01000000
,
00100000
00010000
00001000
00200000
00000000
00000000
01300000
00020000
,
00000000
00030000
00002000
00000000
00003200
00000000
00000320
00000000
,
00001030
00000001
00000010
00000001
00000200
00000000
00000000
00000000
,
00001300
00010000
00200000
00000000
02300000
00000000
03020000
00000000
,
20030000
00000000
00000000
00000000
00000000
31000000
00010000
00002000
,
00000000
00003000
00000010
00000100
00001000
00000010
00000100
00000000
,
00001001
00001000
00000001
00000100
00000000
00000100
00001000
00010000
,
00100000
01000000
00100000
10000000
00000000
10000000
01000000
00010000
,
00002000
00000000
00103000
00010000
01000000
00100000
00010000
00002000
,
00000000
00003010
00000200
00000000
00002300
00000000
00003010
00000000
,
00000101
00000000
00000001
00000100
00001000
00000000
00000100
00001000
,
00010000
00000000
00001000
00010000
01000000
00000000
00010000
01000000
,
10000000
00100000
01000000
00010000
00001000
00000010
00000100
00000001
,
00000010
00000100
00000010
00000000
00000100
00001000
00000100
00000000
00010000
00000000
00001000
00000000
00011000
00000000
00000000
00000000
,
01000000
00010000
01000000
00000000
00100000
00000000
00010000
00000000
00100000
00000000
10000000
00000000
01000000
00000000
00020000
00000000
,
00001000
00000000
00030100
00010000
00001000
00000100
00000010
00001000
,
00000001
00000000
00000000
00000001
00000010
00000000
00000000
00000010
00000100
00000000
00000000
00000100
00010000
00000000
00001000
00000000
,
00000100
00001000
00010000
01000000
00100000
00001000
00010000
00010000
,
00100000
00000000
00000000
00100000
10000000
00000000
00000000
10000000
01000000
00000000
00000000
01000000
00010000
00000000
00001000
00000000
,
00101000
00000000
00100000
01000000
00010000
00000100
00010000
00000010
,
00000100
00001100
00000000
00001000
01001000
00000000
00110000
11000000
,
00000000
00000000
10000000
00000000
00010000
00000000
10000000
00000000
00100000
00000000
01000000
00010000
01000000
00010000
10000000
00000000
,
01000000
00010000
00001000
00001010
00000000
00001000
00000010
00000001
,
00000100
00001000
00010000
00110000
00000000
00010000
00100000
10000000
,
01000000
00010000
00001000
00100000
00010000
01000000
00100000
00020000
,
00001000
00000000
00030100
00000000
00010000
00001000
00000010
00000100
,
00000220
00000000
00000330
00000000
00000001
00000010
00000100
00001000
,
00010000
00100000
01000000
10000000
01000000
00100000
00010000
00001000
,
00000100
00000100
00000010
00000010
00000001
00000001
00001000
00001000
,
00000010
00000100
00000010
00000000
00001000
00000001
00001000
00000000
00000100
00000000
00010000
00000000
00001000
00100000
00010000
00100000
,
01000000
00000000
10000000
00010000
00000000
00010000
01000000
00000000
00001000
00000000
00010000
00000100
00000000
00000100
00001000
00000000
,
00000020
00000000
00000000
00000000
00000130
00000001
00001000
00000001
00000010
00000000
00000100
00000000
00000001
00000000
00000100
00000000
,
00001000
00000000
00000010
00010000
00000000
00010000
00001000
00000000
00100000
00000000
00010000
01000000
00000000
10000000
01000000
00000000
,
00200000
00000000
00000000
00000000
01300000
00010000
01000000
00001000
00010000
00000000
00000100
00000000
00001000
00000000
00000100
00000000
,
00000110
00000000
00000010
00000001
00000000
00000001
00000100
00000000
00001000
00000000
00010000
00000000
01000000
00000000
00100000
00000000
,
20000000
00000000
00000000
00000000
30100000
00010000
10000000
00000000
00100000
01000000
00010000
00000000
00100000
00001000
00010000
00000000
,
00000010
00000000
00001000
00000100
00000000
00000100
00000001
00000000
00000100
00000000
00010000
00000000
00001000
00000000
00000100
00000000
,
00001100
00000000
00000000
00000000
01001000
00000000
00000000
00000000
10000000
00000000
01000000
00100000
01000000
00100000
00010000
00000000
,
01000000
00001000
00010000
00000000
00000100
00000000
00001000
00000010
00000000
00000001
00000010
00000000
00000100
00000000
00000001
00001000
,
00000000
00000100
00001000
00000000
00000010
00000000
00010000
00001000
00000000
00100000
00010000
00000000
01000000
00000000
10000000
00000000
,
01000000
00100000
01000000
00000000
00010000
00000000
10000000
01000000
00000000
00010000
01000000
00000000
00100000
00000000
00001000
00010000
,
00000000
00000010
00010000
00000000
00001000
00000000
00000010
00000100
00000000
00001000
00000100
00000000
00000010
00000000
00000001
00000000
,
00000100
00000010
00000100
00000000
00001000
00000000
00010000
00000010
00000000
00001000
00000010
00000000
00000100
00000000
00001000
00010000
,
00000000
00000100
00010000
00000000
00001000
00000000
01000000
00100000
00000000
00010000
00100000
00000000
10000000
00000000
00010000
00000000
,
00100000
01000000
00100000
00000000
00001000
00000000
00010000
00000010
00000000
00001000
00000010
00000000
00000100
00000000
00001000
00000100
,
00000000
00000001
00000010
00000000
00000100
00000000
00010000
00001000
00010000
00000000
01000000
00000000
10000000
00000000
00100000
00000000
,
10200000
00000000
10300000
01000000
00020000
00000000
00031000
00100000
,
00020000
00000000
01030000
00001000
00020000
00000000
00030100
00001000
,
00000020
00000000
00000130
00000001
00002000
00000000
00003100
00000001
,
00000200
00000000
00000310
00000001
00002000
00000000
00003010
00010000
,
00002000
00000000
00103000
00001000
00020000
00000000
00130000
10000000
,
02000000
00000000
03010000
00001000
00000020
00000000
00000130
00001000
,
00000002
00000000
00000103
00001000
00020000
00000000
00130000
00000000
,
02200000
00000000
00000000
00000000
,
00000000
00000000
00000000
00000000
,
03300000
00000000
00000000
00000000
;
