#TITLE:ANTIFRAGILE;
#ARTIST:LE SSERAFIM;
#BANNER:ANTIFRAGILE.png;
#BACKGROUND:ANTIFRAGILE-bg.png;
#JACKET:ANTIFRAGILE-jacket.png;
#CDTITLE:./CDTITLES/NONE.PNG;
#MUSIC:ANTIFRAGILE.ogg;
#SAMPLESTART:48;
#SAMPLELENGTH:15;
#BPMS:0=105;

//---------------dance-single - t7r----------------
#NOTES:
     dance-single:
     t7r:
     Beginner:
     1:
     :
0000
0000
0000
0000
,
0000
0000
0000
0000
,
0000
0000
0000
0000
,
0000
0000
0000
0000
,
0000
0000
0000
0000
,
0001
0000
0001
0000
,
1000
0000
1000
0000
,
0010
0000
0010
0000
,
0100
0000
0100
0000
,
0001
0001
0001
0000
,
1000
1000
1000
0000
,
0100
0100
0100
0000
,
0010
0010
0010
0000
,
0001
0000
1000
0000
,
0010
0000
0100
0000
,
0010
0000
1000
0000
,
0100
0000
0010
0000
,
0001
0000
0000
0000
,
1000
0000
0000
0000
,
0010
0000
0000
0000
,
0100
0000
0100
0000
,
0010
0000
0010
0000
,
1000
0000
1000
0000
,
0001
0000
0001
0000
,
0100
0000
0100
0000
,
0100
0000
0001
0000
,
0001
0000
1000
0000
,
1000
0000
0100
0000
,
0010
0000
0010
0000
,
0010
0000
0001
0000
,
1000
0000
0010
0010
,
0010
0000
0100
0000
,
0001
0000
0001
0000
,
1001
0000
0000
0000
,
1000
0000
0000
0000
,
0100
0000
0000
0000
,
0010
0000
0000
0000
,
0001
0000
0000
0000
,
0100
0000
0000
0000
,
0010
0000
0000
0000
,
1000
0000
0001
0000
,
1000
0000
1000
1000
,
1000
0000
0001
0001
,
0001
0000
0100
0000
,
0100
0100
0100
0100
,
0100
0000
0010
0000
,
1000
0000
0001
0000
,
1000
0000
0100
0000
,
0010
0010
0010
0010
,
0010
0000
0001
0000
,
1000
0000
0010
0010
,
0010
0000
0100
0000
,
0001
0001
0001
0001
;

//---------------dance-single - t7r----------------
#NOTES:
     dance-single:
     t7r:
     Easy:
     6:
     :
0000
0000
0000
0000
,
0000
0000
0000
0000
,
0000
0000
0000
0000
,
0000
0000
0000
0000
,
0000
0000
0000
0000
,
1000
0000
1000
0002
,
0103
0000
0200
0320
,
1030
0000
0100
0200
,
0310
0000
0001
2000
,
3001
0100
0002
0003
,
1000
0100
2000
3000
,
0001
0010
0002
0003
,
1000
0010
2000
3000
,
0001
0000
0001
0000
0001
0001
0000
0001
,
0001
0000
0001
0002
0000
0000
0003
0000
,
1000
0000
1000
0000
1000
1000
0000
0000
,
1000
0000
1000
1000
0000
1000
2000
0000
,
3010
0000
0000
0000
,
0100
0000
0000
0000
,
0001
0000
0000
0000
,
1000
0000
1000
0000
0001
0000
1000
1000
,
0000
0001
0100
0100
,
0010
0010
1000
1000
,
1001
0000
1000
1000
,
0100
0110
0001
1001
,
0110
0000
0010
0010
,
0100
0100
0001
0001
,
1001
0000
1000
0010
,
0010
0110
0001
1001
,
1000
0000
1000
1000
1000
0000
1000
0000
,
1000
0000
1000
1000
1000
0000
0000
0000
,
0001
0000
0001
0001
0001
0000
0001
0000
,
0001
0010
0100
1000
,
0020
0000
0130
0000
,
0002
0000
1003
0000
,
0200
0000
0310
0000
,
0001
0000
0001
0001
,
2000
0000
3010
0000
,
0200
0000
0301
0000
,
0020
0000
0130
0000
,
1000
0000
1000
0000
1000
1000
1000
0000
,
1001
0000
1000
0100
,
0001
0001
0100
0010
,
0011
0000
0001
0100
,
0010
0110
1000
1001
,
1010
0000
0001
0010
,
1000
1000
0010
0100
,
1100
0000
1000
0001
,
0100
0101
0010
1010
,
1000
0000
1000
1000
1000
0000
1000
0000
,
1000
0000
1000
1000
1000
0000
1001
0000
,
0001
0000
0001
0001
0001
0000
0001
0000
,
0100
1010
0100
0011
;

//---------------dance-single - t7r----------------
#NOTES:
     dance-single:
     t7r:
     Medium:
     8:
     :
0000
0000
0000
0000
,
0000
0000
0000
0000
,
0000
0000
0000
0000
,
0000
0000
0000
0000
,
0000
0000
0000
0000
,
0001
0100
0001
1000
,
0100
0000
0010
0000
0100
1000
0002
0000
,
1003
0010
0100
0001
,
1000
0000
0100
0000
0010
0010
0002
0000
,
1003
0010
0100
0110
,
0001
0000
0010
0000
0100
0100
1000
0000
,
0010
0100
0001
1001
,
1000
0000
0100
0000
0010
0010
0001
1000
,
0000
0001
0001
0001
0001
0002
0003
0001
,
0001
0001
0001
0002
0000
1003
0010
0110
,
0000
1000
1000
1000
1000
1000
1000
1000
,
1000
1000
1000
1000
0100
0010
0100
1000
,
1100
0000
0000
0002
0000
0000
0103
0000
,
0010
0000
0000
2000
0000
0000
3100
0000
,
0010
0000
0000
0002
0000
0000
1003
0000
,
0010
0000
0100
0000
0010
0000
1000
1000
,
0001
0000
1000
0000
0100
0010
0100
0000
,
1000
1000
0010
0000
1000
0001
0100
0001
,
1000
0000
0000
0000
0001
0001
0010
0000
,
0001
0011
1000
1010
,
1001
0000
0000
0000
1000
0010
1000
0000
,
0001
0001
0100
0000
0010
1000
0001
0000
,
1001
0000
0000
0000
1000
1000
0100
0000
,
1000
1010
0001
0011
,
1000
1000
0100
0100
1000
0001
1000
1001
,
1000
1000
0100
0100
1000
0010
0110
0000
,
0001
0001
0100
0100
0001
1000
0001
0101
,
0001
0011
1000
1010
,
2000
0000
0000
3200
0000
0000
0310
0000
,
0002
0000
0000
0203
0000
0000
0310
0000
,
2000
0000
0000
3020
0000
0000
0130
0000
,
0001
1000
0100
0100
1000
0001
0100
0100
,
0020
0000
1030
0002
0000
0000
0013
0000
,
0002
0000
1003
0020
0000
0000
0130
0000
,
0020
0000
1030
0200
0000
0000
0310
0000
,
0001
0001
1000
0001
1000
1000
0001
1000
,
1001
0000
1000
0100
0001
0100
1000
0000
,
0001
0100
1000
0100
0001
1000
0100
0010
,
0110
0000
0000
1000
0010
0001
0010
0000
,
1010
1100
1010
1100
,
1001
0000
0000
0001
0010
1000
0010
0000
,
0001
0100
1000
0100
0001
1000
0100
0010
,
0110
0000
0000
1000
0100
0001
0100
0000
,
0110
0011
1001
0101
,
0001
0001
0100
0100
0010
1010
0010
1010
,
1000
1000
0100
0100
0010
0011
1002
0000
,
1003
1000
0100
0100
0010
0011
0010
0011
,
1001
0110
0101
1010
;

//---------------dance-single - t7r----------------
#NOTES:
     dance-single:
     t7r:
     Hard:
     10:
     :
0000
0000
0000
0000
,
0000
0000
0000
0000
,
0000
0000
0000
0000
,
0000
0000
0000
0000
,
0000
0000
0000
0000
,
0010
0000
0000
0000
1000
0000
0100
0000
2000
0000
0000
3001
0000
0000
0000
0000
,
0100
0001
0010
0002
0100
1000
2003
3002
,
0013
0000
0001
0100
0001
0001
1000
0000
,
0100
1000
0010
2000
3100
1000
1001
1000
,
0001
0100
0010
0020
0001
0000
0130
0001
,
1000
0100
0010
0010
0001
1000
1100
0000
,
1000
0010
0100
0200
1000
0000
0310
1000
,
0001
0010
0100
0100
0010
0001
1001
0001
,
0100
1000
0100
0001
2000
3200
0000
0301
,
0100
1000
0002
0203
0000
0310
0010
0010
,
1000
0001
0010
1000
0020
0031
1000
1000
,
0010
0001
0010
2000
0000
3100
0100
0100
,
0010
0000
0000
0001
0000
0000
0002
0000
0100
0000
0000
0000
1003
0000
0000
0000
,
0100
0000
0000
0010
0000
0000
0020
0000
1000
0000
0000
0000
0130
0000
0000
0000
,
1000
0000
0000
0010
0000
0000
0020
0000
0001
0000
0000
0000
0130
0000
0000
0000
,
0001
0000
1001
0000
1000
0100
1000
1000
,
0001
0000
0100
1000
0100
0010
0110
0000
,
1000
0100
0001
0100
0010
0100
1100
1000
,
1001
0000
1000
0010
0001
0010
0110
0000
,
1000
0100
0000
0000
0010
0001
0000
0000
1000
0100
0000
0000
0010
0001
0000
0000
,
1001
0000
0001
0100
1000
0100
0110
0000
,
0001
0010
0100
1000
0100
0001
0100
0010
,
0011
0000
1000
0010
0001
0010
0110
0000
,
0001
0100
0000
0000
0010
1000
0000
0000
0001
0100
0000
0000
0010
1000
0000
0000
,
0001
0001
0010
0010
0011
0011
1001
1001
,
1000
1000
0010
0010
1010
1010
2002
3003
,
1000
1000
0100
0100
1100
1100
1001
1001
,
0001
1000
0000
0000
0100
0010
0000
0000
0001
1000
0000
0000
0010
0100
0000
0000
,
0002
0000
0000
0013
0001
0000
1001
0000
,
2000
0000
0000
3100
1000
0000
0110
0000
,
0002
0000
0000
1003
0010
0000
0110
0000
,
1000
1000
0100
0001
0100
0100
0010
0010
,
0001
0000
0000
0100
0010
0000
2000
0000
0100
0000
0000
0000
3001
0000
0000
0000
,
1000
0000
0000
0100
0010
0000
0002
0000
0100
0000
0000
0000
1003
0001
0000
0000
,
0010
0100
0000
0000
1000
0000
0002
0000
0010
0000
0000
0000
1003
0000
0000
0000
,
0001
0001
0100
1000
1000
1000
0100
0110
,
1000
0000
0100
0001
0100
0010
0011
0000
,
0001
0100
1000
0100
0010
1000
1010
1000
,
1001
0000
0001
0010
1000
0010
0110
0010
,
0001
0100
0000
0000
1000
0100
0000
0000
0001
0010
0000
0000
0100
0010
0000
0000
,
1001
0000
0001
0100
1000
0001
0011
0000
,
1000
0100
0001
1000
0010
0001
1001
0010
,
1001
0000
1000
0010
0001
1000
1100
0100
,
0001
0010
0000
0000
1000
0010
0000
0000
0100
0010
0000
0000
0001
1000
0000
0000
,
0002
0000
0000
0103
0010
0000
0010
0000
1010
0000
1010
0000
1001
0000
1001
0000
,
2000
0000
0000
3100
0010
0000
0010
0000
0011
0000
0011
0000
2002
0000
3003
0000
,
0002
0000
0000
0103
1000
0000
0100
0000
0110
0000
0110
0000
1010
0000
1010
0000
,
1000
0100
0000
0000
0001
0100
0000
0000
0010
0001
0000
0000
0100
1000
0000
0000
;

//---------------dance-single - t7r----------------
#NOTES:
     dance-single:
     t7r:
     Challenge:
     14:
     :
0000
0000
0000
0000
,
0000
0000
0000
0000
,
0000
0000
0000
0000
,
0000
0000
0000
0000
,
0000
0000
0000
0000
0000
0000
0000
0000
0000
0000
0000
0000
0000
0000
0000
1000
,
0100
1000
0000
1000
0001
0000
0100
0001
0020
0000
0000
0230
0000
0000
0000
0000
,
0310
0001
0000
0100
0001
0000
0020
0000
0230
0000
0001
0000
0010
0000
1300
0000
,
0001
0100
0000
0001
1000
0000
0001
0010
0001
0000
0011
0000
1001
0000
0000
0000
,
1000
0010
0000
0010
0100
0000
0001
0000
1000
0000
0100
0000
1100
0000
0010
0000
,
2001
0000
3001
0100
0010
0000
0200
0000
1000
0000
0010
0000
0301
1000
0000
1000
,
0010
0000
1000
0100
0010
0000
0200
0000
0001
0000
0010
0000
1300
0001
0000
0001
,
0100
0000
0010
1000
0001
0000
0020
0000
1000
0000
0130
1000
0000
0010
0000
0100
,
0010
0000
1000
0010
0100
0000
0020
0000
0001
0000
0100
0000
1030
0001
0010
0000
,
0001
1000
0001
0100
0001
1000
0001
0010
0002
0000
2003
0000
3100
1000
0001
1000
,
0010
0100
0010
1000
0002
0000
0023
0000
0031
0000
0100
0100
0000
0100
0010
0000
,
1000
0001
1000
0010
1000
0001
1000
0100
0020
0000
0230
0000
1300
0010
0100
0001
,
1000
0001
0010
0100
2000
0000
3002
0000
0103
0000
0010
0010
0000
0010
0010
0000
,
2001
0000
0000
0100
0000
3001
1000
0010
1000
0100
1000
0001
1000
0000
0001
0000
,
1002
0000
0000
0100
0000
0000
1003
0001
0010
0001
1000
0001
0100
0000
0110
0000
,
2010
0000
0000
0100
0000
3001
1000
0001
0010
0001
0100
0001
1000
0000
0100
0000
,
0110
0000
0000
0100
1000
0000
0100
0010
0100
0000
0001
0100
2000
3000
2000
3000
,
1001
0000
0000
0001
0100
0000
0001
0010
0001
0000
0011
0000
1001
0000
0002
0000
,
1003
0100
0010
0001
1000
0000
0001
0100
0010
0000
1020
0000
0031
0010
1000
0000
,
0110
0000
0000
1000
0100
0000
1000
0001
0010
0000
0011
0000
1001
0000
2000
0000
,
3010
0200
0000
1300
0100
0020
0000
0130
0001
0000
0011
0000
0001
1000
0200
0000
,
1300
0000
0000
0100
0010
0100
1000
0001
0100
0000
0110
0000
1010
0000
2000
0000
,
3001
0010
0100
1000
0001
0000
1000
0000
1010
0000
1200
0000
0301
0100
1000
0000
,
1001
0000
0000
0001
0100
0000
0001
1000
0010
0000
1010
0000
1001
0000
2000
0000
,
3010
0200
0000
1300
0100
0020
0000
0130
0001
0000
0011
0000
0010
0100
2000
0000
,
3001
0100
0100
0000
0100
0000
0100
0000
1001
0000
1010
0000
0011
0000
0110
0000
,
1000
0100
0100
0000
0100
0000
0100
0000
1000
0010
0100
0001
0020
0000
1000
0000
,
0031
0010
0010
0000
0010
0000
0010
0000
1001
0000
1100
0000
0101
0000
0011
0000
,
0010
2000
0000
3001
0100
0020
0000
0130
1000
0001
1000
0100
0010
0000
0001
0000
,
2100
0000
0000
0000
0000
0000
0000
0000
0000
0001
0000
0000
0000
0000
0000
0000
0000
0000
3020
0000
0000
0000
0000
0000
0001
0000
0000
0000
0000
0000
0000
0000
0000
0000
0000
0000
0130
0000
0000
0000
0001
0000
0000
0000
0000
0000
0000
0000
,
0102
0000
0000
0000
0000
0000
0000
0000
0000
1000
0000
0000
0000
0000
0000
0000
0000
0000
0023
0000
0000
0000
0000
0000
1000
0000
0000
0000
0000
0000
0000
0000
0000
0000
0000
0000
0130
0000
0000
0000
1000
0000
0000
0000
0000
0000
0000
0000
,
2010
0000
0000
0000
0000
0000
0000
0000
0000
0001
0000
0000
0000
0000
0000
0000
0000
0000
3200
0000
0000
0000
0000
0000
0001
0000
0000
0000
0000
0000
0000
0000
0000
0000
0000
0000
0310
0000
0000
0000
0001
0000
0000
0000
0000
0000
0000
0000
,
1000
0010
0100
0000
0100
0000
0001
0010
0001
0100
0010
0000
0010
0000
0010
0000
,
1010
0000
0000
0000
0000
0000
0000
0000
0000
1000
0000
0000
0001
0000
0000
0000
0000
0000
0020
0000
0000
0000
0000
0000
1000
0000
0000
0000
0000
0000
0100
0000
0000
0000
0000
0000
0031
0000
0000
0000
1000
0000
0000
0000
0000
0000
0000
0000
,
0011
0000
0000
0000
0000
0000
0000
0000
0000
0001
0000
0000
1000
0000
0000
0000
0000
0000
0020
0000
0000
0000
0000
0000
0001
0000
0000
0000
0000
0000
0200
0000
0000
0300
0000
0000
1030
0000
0000
0000
0001
0000
0000
0000
0000
0000
0000
0000
,
1100
0000
0000
0000
0000
0000
0000
0000
0000
1000
0000
0000
0001
0000
0000
0000
0000
0000
0200
0000
0000
0000
0000
0000
1000
0000
0000
0000
0000
0000
0010
0000
0000
0000
0000
0000
0301
0000
0000
0000
1000
0000
0000
0000
0000
0000
0000
0000
,
0100
0001
0100
0000
0100
0000
0010
1000
0010
0001
1000
0000
0001
0000
0001
0000
,
1001
0000
0000
0001
0100
0000
0010
0001
0010
0000
1000
0000
1001
0000
2000
0000
,
3100
0001
0100
1000
0100
0000
1000
0001
0100
0000
0100
0000
1000
0100
0010
0000
,
1001
0000
0000
1000
0100
0000
0010
1000
0010
0000
0001
0000
0200
0000
1000
0000
,
0310
0200
0000
1300
0100
0020
0000
1030
0100
0010
0100
1000
0001
0200
0320
1030
,
0001
0000
0000
1000
0100
0010
1000
0010
0100
0000
1100
0000
1002
0000
0100
0000
,
1003
0001
0100
1000
0100
0000
0001
0000
1000
0000
0100
0000
0001
0100
1000
0010
,
0100
0000
0000
0010
1000
0000
0001
0100
0010
0000
0001
0000
0020
0000
1000
0000
,
0130
0020
0000
0031
0010
0200
0000
0301
0010
0100
1000
0100
0001
0100
0010
0001
,
1000
0100
0100
0000
0100
0000
0100
0000
1001
0000
0110
0000
1010
0000
0101
0000
,
0001
0100
0100
0000
0100
0000
0100
0000
0001
0010
0100
1000
0020
0000
0001
0000
,
1030
0010
0010
0000
0010
0000
0010
0000
1001
0000
0011
0000
1100
0000
0101
0000
,
0100
2000
0000
3100
0010
2000
0000
3100
0001
0100
1000
0001
0100
1000
0100
0000
;

//---------------dance-double - t7r----------------
#NOTES:
     dance-double:
     t7r:
     Easy:
     6:
     :
00000000
00000000
00000000
00000000
,
00000000
00000000
00000000
00000000
,
00000000
00000000
00000000
00000000
,
00000000
00000000
00000000
00000000
,
00000000
00000000
00000000
00000000
,
00000010
00000000
00000010
00000000
,
00001000
00000000
00001000
00000000
,
00000100
00000000
00000100
00000000
,
00010000
00000000
00010000
00000000
,
00001000
00100000
00020000
00030000
,
10000000
00100000
20000000
30000000
,
01000000
00100000
00002000
00003000
,
00010000
00000010
00002000
00003000
,
00000001
00000100
00001000
00000000
,
00010000
01000000
20000000
30010000
,
10000000
00100000
00010000
00000000
,
00001000
00000010
00000002
00001003
,
00000001
00000000
00000100
00000000
,
00000010
00000000
00001000
00000000
,
00000100
00000000
00010000
00000000
,
00001000
00000000
01000000
00000000
00010000
00000000
10000000
10000000
,
00000000
00010000
00100000
01000000
,
10000000
00100000
01000000
00010000
,
00001000
00000000
00000001
00000010
,
00000100
00010100
00010000
00011000
,
00001000
00000000
01000000
00010000
,
10000000
00100000
01000000
00010000
,
00001000
00000000
00000001
00000100
,
00001000
00011000
00010000
00010100
,
00010000
00000000
00010000
00010000
00010000
00000000
00010000
00000000
,
00010000
00000000
00010000
00010000
00010000
00000000
00000000
00000000
,
00001000
00000000
00001000
00001000
00001000
00000000
00001000
00000000
,
00010000
00011000
00001000
01001000
,
02000000
00000000
03100000
00000000
,
20000000
00000000
30010000
00000000
,
00200000
00000000
00301000
00000000
,
00010000
00000000
00010000
00010000
,
00002000
00000000
00003100
00000000
,
00000002
00000000
00000013
00000000
,
00002000
00000000
00013000
00000000
,
00100000
00000000
00100000
00000000
00100000
00100000
00100000
00000000
,
10010000
00000000
10000000
01000000
,
00010000
00001000
00000010
00000100
,
00000110
00000000
00001000
00000010
,
00010000
00011000
00001000
00101000
,
00110000
00000000
10000000
00100000
,
00010000
00001000
00000100
00000010
,
00000110
00000000
00001000
00000001
,
00000010
00000110
00000100
00010100
,
00010000
00000000
00010000
00010000
00010000
00000000
00010000
00000000
,
00010000
00000000
00010000
00010000
00010000
00000000
00011000
00000000
,
00001000
00000000
00001000
00001000
00001000
00000000
00001000
00000000
,
00010000
00011000
00001000
01001000
;

//---------------dance-double - t7r----------------
#NOTES:
     dance-double:
     t7r:
     Medium:
     8:
     :
00000000
00000000
00000000
00000000
,
00000000
00000000
00000000
00000000
,
00000000
00000000
00000000
00000000
,
00000000
00000000
00000000
00000000
,
00000000
00000000
00000000
00000000
,
00000001
00001000
00000100
00000010
,
00000001
00000100
00001000
00020000
,
00031000
00000000
01000000
00000000
00010000
00010000
00100000
00000000
,
00010000
00000000
10000000
10000000
01000000
00000000
00020000
00000000
,
00031000
00000000
00000100
00000200
00000000
00000000
00000301
00000000
,
00000010
00000000
00000100
00000200
00000000
00000000
00010300
00000000
,
00001000
00000000
00010000
00020000
00000000
00000000
01030000
00000000
,
10000000
00000000
00100000
00200000
00000000
01300000
00000000
00001000
,
00000000
00010000
00010000
00010000
00010000
00020000
00030000
00010000
,
00010000
00010000
00010000
00020000
00030000
00001000
00010000
00011000
,
00000000
00001000
00001000
00001000
00001000
00001000
00001000
00001000
,
00001000
00001000
00001000
00001000
00000100
00000000
00000001
00001000
,
00001001
00000000
00000000
00000002
00000000
00000000
00000103
00000000
,
00000001
00000000
00000000
00000020
00000000
00000000
00001030
00000000
,
00010000
00000000
00000000
00002000
00000000
00000000
00013000
00000000
,
00100000
00000000
10000000
00000000
00010000
00000000
10000000
10000000
,
00010000
00000000
10000000
00000000
01000000
00100000
01000000
00000000
,
10000000
00000000
00100000
00000000
01000000
01000000
00001000
00000000
,
00011000
00000000
00000000
00010000
00010000
00000000
00000010
00000000
,
00001000
00001100
00000100
00010100
,
00011000
00000000
00000000
00000000
00010000
01000000
10000000
00000000
,
00100000
00100000
01000000
00000000
00100000
10000000
00010000
00000000
,
10010000
00000000
00000000
00000000
10000000
10000000
01000000
00000000
,
00010000
00011000
00001000
00101000
,
00001000
00001000
00010000
00010000
00000100
00001100
00001000
00001001
,
00000001
00000001
00000100
00000100
00001000
00010000
00011000
00000000
,
00001000
00001000
00100000
00100000
00010000
10010000
10000000
10100000
,
10000000
11000000
00010000
00110000
,
20000000
00000000
00000000
30200000
00000000
00000000
01300000
00000000
,
00020000
00000000
00000000
00230000
00000000
00000000
00301000
00000000
,
00020000
00000000
00000000
00030020
00000000
00000000
00001030
00000000
,
00000001
00001000
00000100
00000100
00010000
00001000
01000000
01000000
,
00020000
00000000
10030000
00200000
00000000
00000000
01300000
00000000
,
00020000
00000000
10030000
02000000
00000000
00000000
03010000
00000000
,
00002000
00000000
00013000
00000020
00000000
00000000
00000130
00000000
,
00000001
00000010
00000100
00000000
00001000
00010000
00100000
00000000
,
10010000
00000000
10000000
00000000
01000000
00010000
00001000
00000000
,
00000100
00000000
00000010
00000000
00000100
00000001
00001000
00000100
,
00001100
00000000
00000000
00000100
00010000
00001000
00010000
00000000
,
01000000
11000000
00010000
00110000
,
00101000
00000000
00000000
00001000
00010000
00001000
00000010
00000000
,
00000001
00000100
00001000
00001000
00010000
01000000
10000000
00100000
,
01100000
00000000
00000000
10000000
01000000
00100000
00001000
00000000
,
00010000
00010100
00001100
00001001
,
00000001
00000001
00000010
00000010
00000100
00001100
00000100
00010100
,
00010000
00010000
00001000
00001000
00010000
01000000
11000000
00000000
,
10000000
10000000
00100000
00100000
01000000
01010000
01000000
01001000
,
00010000
00011000
00000110
00001001
;

//---------------dance-double - t7r----------------
#NOTES:
     dance-double:
     t7r:
     Hard:
     10:
     :
00000000
00000000
00000000
00000000
,
00000000
00000000
00000000
00000000
,
00000000
00000000
00000000
00000000
,
00000000
00000000
00000000
00000000
,
00000000
00000000
00000000
00000000
,
00100000
00000000
00000000
00000000
00010000
00000000
10000000
00000000
02000000
00000000
00000000
03100000
00000000
00000000
00000000
00000000
,
01000000
10000000
00010000
02000000
00010000
00100000
03200000
20300000
,
30010000
00000000
10000000
00000000
01000000
00010000
00010000
00000000
,
00001000
00010000
00000100
00002000
00003001
00000100
00000101
00000001
,
00000010
00000001
00000100
00000200
00001000
00000000
00000310
00001000
,
00000001
00000010
00001000
00001000
00010000
00001000
00011000
00000000
,
00001000
00010000
01000000
02000000
00010000
00000000
03100000
00010000
,
10000000
00100000
01000000
01000000
00100000
10000000
00010000
10010000
,
00000000
10000000
01000000
00010000
00001000
00000200
00000000
00000301
,
00001000
00000001
00000100
00002000
00010000
00013000
00001000
00010000
,
01000000
10000000
00100000
00010000
00001000
00000010
00000001
00001000
,
00000001
00000010
00001000
00010000
00100000
00100000
01000000
00010000
,
10000000
00000000
00000000
01000000
00000000
00000000
02000000
00000000
10000000
00000000
00000000
00000000
03100000
00000000
00000000
00000000
,
00001000
00000000
00000000
00010000
00000000
00000000
00010000
00000000
00000100
00000000
00001000
00000000
00000001
00000000
00000100
00000000
,
00000001
00000000
00000000
00000010
00000000
00000000
00000020
00000000
00000100
00000000
00000000
00000000
00000031
00000000
00000000
00000000
,
00000100
00000000
00001000
00000000
00010000
01000000
10000000
10000000
,
00100000
00000000
10010000
00000000
10000000
01000000
11000000
00000000
,
10000000
00100000
01000000
00010000
00001000
00000010
00000100
00000001
,
00001001
00000000
00000110
00000000
00000001
00000010
00000011
00000000
,
00000001
00000100
00000000
00000000
00000010
00001000
00000000
00000000
00000100
00010000
00000000
00000000
00001000
00010000
00000000
00000000
,
00011000
00000000
00101000
00000000
00100000
00010000
10010000
00000000
,
10000000
01000000
00100000
00010000
00001000
00000100
00000010
00000001
,
00001001
00000000
00000101
00000000
00000100
00000010
00001010
00000000
,
00001000
00000100
00000000
00000000
00010000
00001000
00000000
00000000
00100000
00010000
00000000
00000000
10000000
00010000
00000000
00000000
,
10000000
10000000
01000000
01000000
00100000
00110000
00100000
00101000
,
00001000
00001000
00010000
00010000
00001000
00000010
00000021
00000000
,
00000031
00000001
00000100
00000100
00000010
00001010
00000010
00010010
,
00010000
00000100
00000000
00000000
00010000
00001000
00000000
00000000
01000000
00010000
00000000
00000000
10000000
00100000
00000000
00000000
,
20000000
00000000
00000000
30100000
10000000
00000000
10010000
00000000
,
20000000
00000000
00000000
31000000
00010000
00000000
00011000
00000000
,
00020000
00000000
00000000
00030100
00001000
00000000
00001001
00000000
,
00000001
00000001
00000100
00000010
00001000
00001000
00000100
00000100
,
00010000
00000000
00000000
00001000
01000000
00000000
00200000
00000000
00010000
00000000
00000000
00000000
01300000
00000000
00000000
00000000
,
00010000
00000000
00000000
00100000
01000000
00000000
20000000
00000000
00100000
00000000
00000000
00000000
30010000
00000000
00000000
00000000
,
10000000
00000000
00000000
01000000
00010000
00000000
00002000
00000000
00000100
00000000
00000000
00000000
00013000
00000000
00000000
00000000
,
00001000
00001000
00000100
00000001
00000001
00000001
00000010
00001000
,
00011000
00000000
00001000
00010000
00100000
01000000
01010000
00000000
,
10000000
01000000
00010000
00001000
00000100
00000001
00000010
00000100
,
00000110
00000000
00000011
00000000
00000001
00000100
00000101
00000001
,
00000010
00000001
00000000
00000000
00000100
00001000
00000000
00000000
00010000
01000000
00000000
00000000
00100000
01000000
00000000
00000000
,
10010000
00000000
10000000
00100000
00010000
00001000
00011000
00000000
,
00010000
00001000
00000010
00000001
00000100
00001000
00010000
00001000
,
00011000
00000000
00010000
01000000
00100000
01000000
11000000
10000000
,
00100000
00010000
00000000
00000000
00001000
00000100
00000000
00000000
00000001
00000010
00000000
00000000
00001000
00010000
00000000
00000000
,
02000000
00000000
00000000
13000000
00100000
00000000
00100000
00000000
10100000
00000000
10100000
00000000
10010000
00000000
10010000
00000000
,
20000000
00000000
00000000
31000000
00100000
00000000
00001000
00000000
00011000
00000000
00011000
00000000
00010200
00000000
00000000
00000000
,
00002300
00000000
00000000
00003001
00000100
00000000
00000100
00000000
00000110
00000000
00000110
00000000
00001010
00000000
00001010
00000000
,
00001000
00000001
00000000
00000000
00000100
00001000
00000000
00000000
00010000
00100000
00000000
00000000
10000000
01000000
00000000
00000000
;

//---------------dance-double - t7r----------------
#NOTES:
     dance-double:
     t7r:
     Challenge:
     14:
     :
00000000
00000000
00000000
00000000
,
00000000
00000000
00000000
00000000
,
00000000
00000000
00000000
00000000
,
00000000
00000000
00000000
00000000
,
00000000
00000000
00000000
00000000
00000000
00000000
00000000
00000000
00000000
00000000
00000000
00000000
00000000
00000000
00000000
10000000
,
01000000
10000000
00000000
00010000
01000000
00000000
00010000
00100000
00020000
00000000
00000000
20030000
00000000
00000000
00000000
00000000
,
30100000
01000000
00000000
00100000
10000000
00000000
02000000
00000000
03020000
00000000
00032000
00000000
00003200
00000000
00000320
00000000
,
00000130
00000001
00000000
00000100
00000010
00000000
00000100
00000001
00001000
00000000
00000100
00000000
00010100
00000000
00000000
00000000
,
00010000
00001000
00000000
00001000
00010000
00000000
02000000
00000000
13000000
00000000
00100000
00000000
01100000
00000000
00100000
00000000
,
20010000
00000000
31000000
00100000
00020000
00000000
20030000
00000000
00100000
00000000
00010000
00000000
31000000
00010000
00000000
00010000
,
00001000
00000000
00000100
00000010
00000100
00000000
00000002
00000000
00000010
00000000
00001000
00000000
00000103
00000001
00000000
00000001
,
00001000
00000000
00000100
00001000
00000001
00000000
00000200
00000000
00001000
00000000
00000010
00000000
00000301
00000010
00000000
00000010
,
00001000
00000000
00010000
00100000
01000000
00000000
00020000
00000000
01000000
00000000
10000000
00000000
00130000
00010000
10000000
00000000
,
00010000
10000000
00010000
00100000
00001000
00010000
00001000
00010000
00002000
00000000
00003020
00000000
00000031
00000100
00000001
00000010
,
00000001
00000100
00000010
00001000
00000002
00000000
00002003
00000000
00003100
00010000
00000100
00010000
00001000
00010000
00001000
00000000
,
00010000
01000000
00100000
00010000
00001000
00000100
00000010
00000001
00002000
00000000
00003020
00000000
00000130
00000001
00000010
00000100
,
00001000
00000001
00000100
00001000
00020000
00000000
00032000
00000000
00013000
01000000
00100000
00010000
10000000
00100000
01000000
00000000
,
20010000
00000000
00000000
01000000
00000000
30010000
10000000
00100000
10000000
01000000
00100000
00010000
00001000
00000000
00000010
00000000
,
00000200
00000000
00000000
00001000
00000000
00000310
00000100
00000001
00000010
00000100
00001000
00010000
00100000
00000000
00010000
00000000
,
20010000
00000000
00000000
00100000
00000000
31000000
10000000
00100000
01000000
00010000
00001000
00000010
00000100
00000000
00000001
00000000
,
00000010
00000000
00000000
00000100
00010000
00000000
00001000
01000000
00010000
00000000
00100000
00010000
20000000
30000000
20000000
30000000
,
10010000
00000000
00000000
10000000
01000000
00000000
10000000
00100000
10000000
00000000
00010000
00000000
00200000
00000000
00010000
00000000
,
00301000
00010000
00000010
00001000
00000010
00000000
00000100
00000001
00001000
00000000
00000001
00000000
00000010
00000100
00010000
00000000
,
00011000
00000000
00000000
00001000
01000000
00000000
00010000
00100000
01000000
00000000
00100000
00000000
00020000
00000000
01000000
00000000
,
10030000
00200000
00000000
00310000
00001000
00020000
00000000
00031000
00000010
00000200
00000000
00000310
00000001
00001000
00000001
00000000
,
00001001
00000000
00000000
00001000
00000010
00001000
00000001
00000100
00000001
00000000
00001000
00000000
00000200
00000000
00001000
00000000
,
00010300
00001000
01000000
00010000
01000000
00000000
00100000
10000000
00010000
00000000
10000000
00000000
01000000
00100000
00001000
00000000
,
00011000
00000000
00000000
00010000
00000010
00000000
00001000
00000100
00000010
00000000
00000100
00000000
00002000
00000000
00000010
00000000
,
00003001
00000200
00000000
00001300
00010000
00002000
00000000
00013000
01000000
00200000
00000000
01300000
10000000
00010000
10000000
00000000
,
00010000
01000000
01000000
00000000
01000000
00000000
01000000
00000000
10010000
00000000
11000000
00000000
01100000
00000000
00101000
00000000
,
00001000
00010000
00010000
00000000
00010000
00000000
00010000
00000000
00001000
00000100
00000001
00000010
00000200
00000000
00000000
00000000
,
00001300
00000010
00000010
00000000
00000010
00000000
00000010
00000000
00001001
00000000
00001010
00000000
00001100
00000000
00010100
00000000
,
00010000
00002000
00000000
00003100
00000001
00002000
00000000
00003100
00010000
00002000
00000000
00013000
01000000
00000000
10000000
00000000
,
00200000
00000000
00000000
00000000
00000000
00000000
00000000
00000000
00000000
00010000
00000000
00000000
00000000
00000000
00000000
00000000
00000000
00000000
20300000
00000000
00000000
00000000
00000000
00000000
01000000
00000000
00000000
00000000
00000000
00000000
00000000
00000000
00000000
00000000
00000000
00000000
30010000
00000000
00000000
00000000
00100000
00000000
00000000
00000000
00000000
00000000
00000000
00000000
,
00002000
00000000
00000000
00000000
00000000
00000000
00000000
00000000
00000000
00000100
00000000
00000000
00000000
00000000
00000000
00000000
00000000
00000000
00023000
00000000
00000000
00000000
00000000
00000000
00001000
00000000
00000000
00000000
00000000
00000000
00000000
00000000
00000000
00000000
00000000
00000000
00030010
00000000
00000000
00000000
00000100
00000000
00000000
00000000
00000000
00000000
00000000
00000000
,
00000002
00000000
00000000
00000000
00000000
00000000
00000000
00000000
00000000
00000010
00000000
00000000
00000000
00000000
00000000
00000000
00000000
00000000
00002003
00000000
00000000
00000000
00000000
00000000
00000100
00000000
00000000
00000000
00000000
00000000
00000000
00000000
00000000
00000000
00000000
00000000
00003001
00000000
00000000
00000000
00000100
00000000
00000000
00000000
00000000
00000000
00000000
00000000
,
00001000
00010000
00001000
00000000
00001000
00000000
00001000
00010000
00001000
00010000
00100000
00000000
00100000
00000000
00100000
00000000
,
10100000
00000000
00000000
00000000
00000000
00000000
00000000
00000000
00000000
10000000
00000000
00000000
01000000
00000000
00000000
00000000
00000000
00000000
00200000
00000000
00000000
00000000
00000000
00000000
10000000
00000000
00000000
00000000
00000000
00000000
01000000
00000000
00000000
00000000
00000000
00000000
00310000
00000000
00000000
00000000
10000000
00000000
00000000
00000000
00000000
00000000
00000000
00000000
,
10100000
00000000
00000000
00000000
00000000
00000000
00000000
00000000
00000000
00100000
00000000
00000000
00010000
00000000
00000000
00000000
00000000
00000000
00002000
00000000
00000000
00000000
00000000
00000000
00000010
00000000
00000000
00000000
00000000
00000000
00020000
00000000
00000000
00030000
00000000
00000000
00003100
00000000
00000000
00000000
00000010
00000000
00000000
00000000
00000000
00000000
00000000
00000000
,
00001000
00000000
00000000
00000000
00000000
00000000
00000000
00000000
00000000
00000001
00000000
00000000
00000010
00000000
00000000
00000000
00000000
00000000
00000200
00000000
00000000
00000000
00000000
00000000
00000001
00000000
00000000
00000000
00000000
00000000
00000010
00000000
00000000
00000000
00000000
00000000
00001300
00000000
00000000
00000000
00000001
00000000
00000000
00000000
00000000
00000000
00000000
00000000
,
00000100
00001000
00010000
00000000
00010000
00000000
01000000
00010000
01000000
00010000
00001000
00000000
00010000
00000000
00010000
00000000
,
00011000
00000000
00000000
00001000
00000100
00000000
00000010
00001000
00000010
00000000
00001000
00000000
00001100
00000000
00000000
00000000
,
00010000
00001000
00000100
00000010
00001000
00000000
00000010
00000100
00000001
00000000
00000001
00000000
00000010
00001000
00010000
00000000
,
00011000
00000000
00000000
00010000
01000000
00000000
00100000
00010000
00100000
00000000
00010000
00000000
10010000
00000000
10000000
00000000
,
00100000
00020000
00000000
00031000
00000010
00000200
00000000
00000310
00000001
00002000
00000000
00003001
00000100
00001000
00010000
00000000
,
00011000
00000000
00000000
00010000
00100000
10000000
01000000
00010000
01000000
00000000
00100000
00000000
00110000
00000000
00000000
00000000
,
00001000
00010000
00100000
01000000
00010000
00000000
01000000
00100000
10000000
00000000
10000000
00000000
01000000
00010000
00001000
00000000
,
00011000
00000000
00000000
00001000
00000010
00000000
00000100
00001000
00000100
00000000
00001000
00000000
00000001
00000000
00000100
00000000
,
00001000
00020000
00000000
00130000
10000000
02000000
00000000
03010000
00001000
00000020
00000000
00000031
00000100
00002000
00023000
00000000
,
00031000
01000000
01000000
00000000
01000000
00000000
01000000
00000000
10010000
00000000
10100000
00000000
01010000
00000000
01001000
00000000
,
01000000
00010000
00010000
00000000
00010000
00000000
00010000
00000000
10000000
01000000
00100000
00010000
00002000
00000000
00000010
00000000
,
00003001
00000100
00000100
00000000
00000100
00000000
00000100
00000000
00001001
00000000
00000011
00000000
00000110
00000000
00010100
00000000
,
00000001
00000200
00000000
00001300
00010000
02000000
00000000
03100000
00010000
10000000
00100000
00010000
00001000
00000010
00000001
00000000
;
