#TITLE:<(surrounded by love)3;
#SUBTITLE:;
#ARTIST:Z-I-v Sound Team "Karl with a K";
#TITLETRANSLIT:;
#SUBTITLETRANSLIT:;
#ARTISTTRANSLIT:;
#GENRE:;
#CREDIT:;
#BANNER:<(surrounded by love)3 banner.png;
#BACKGROUND:<(surrounded by love)3 bg.png;
#LYRICSPATH:;
#CDTITLE:;
#MUSIC:<(surrounded by love)3.ogg;
#OFFSET:-0.025000;
#SAMPLESTART:24.536451;
#SAMPLELENGTH:13.636366;
#SELECTABLE:YES;
#BPMS:0.000000=88.000000
;
#STOPS:
;
#BGCHANGES:;
#KEYSOUNDS:;
#ATTACKS:;

//---------------dance-double - ----------------
#NOTES:
     dance-double:
     :
     Challenge:
     14:
     0.533696,0.583451,0.104188,0.037210,0.773965,502.000000,488.000000,14.000000,5.000000,0.000000,0.000000,0.533696,0.583451,0.104188,0.037210,0.773965,502.000000,488.000000,14.000000,5.000000,0.000000,0.000000:
// measure 0
00000000
00000000
00000000
00000000
,  // measure 1
00000000
00000000
00000000
00000000
,  // measure 2
00000000
00000000
00000000
00000000
,  // measure 3
00000000
00000000
00000000
00000000
,  // measure 4
11000000
00000000
00000000
00000000
00000000
00000000
00010000
00000000
00000000
00000000
00000000
00000000
00100000
00001000
00010000
00001000
,  // measure 5
00001000
00000000
00000000
00000100
00000000
00000001
00001000
00000000
00000000
00000000
00000000
00000000
00000100
00000000
00000000
00000000
,  // measure 6
00000010
00000000
00000001
00000100
00000000
00000010
00010000
00000000
00000000
00000000
00000000
00000000
00001000
00000000
00010000
00000000
,  // measure 7
00100000
00000000
00000000
00100000
00000000
01000000
00010000
10000000
00000000
00000000
00000000
00000000
01000000
00100000
00010000
00000000
,  // measure 8
20000000
00000000
00000000
00000000
00000000
00000000
00000000
00000000
00000000
00000000
00000000
00000000
00000000
00000000
00000000
00000000
00000000
00000000
00000000
00000000
00000000
00000000
00000000
00000000
00000000
00000000
00000000
00000000
00000000
00000000
00000000
00000000
00000000
00000000
00000000
00000000
00000000
00000000
00000000
00000000
00000000
00000000
00000000
00000000
00000000
00000000
00000000
00000000
00100000
00000000
00000000
00000000
00000000
00000000
00000000
00000000
00000000
00000000
00000000
00000000
00000000
00000000
00000000
00000000
00000000
00000000
00000000
00000000
00000000
00000000
00000000
00000000
00000000
00000000
00000000
00000000
00000000
00000000
00000000
00000000
00000000
00000000
00000000
00000000
30100000
00000000
00000000
00000000
00000000
00000000
01000000
00000000
00000000
00000000
00000000
00000000
00100000
00000000
00000000
00000000
00000000
00000000
00000000
00000000
00000000
00000000
00000000
00000000
00000000
00000000
00000000
00000000
10000000
00000000
00000000
00000000
00000000
00000000
00000000
00000000
00000000
00000000
00000000
00000000
00000000
00000000
00000000
00000000
01000000
00000000
00000000
00000000
00000000
00000000
00000000
00000000
00000000
00000000
00000000
00000000
00000000
00000000
00000000
00000000
00010000
00000000
00000000
00000000
00000000
00000000
00000000
00000000
00000000
00000000
00000000
00000000
00000000
00000000
00000000
00000000
00001000
00000000
00000000
00000000
00000000
00000000
00000000
00000000
00010000
00000000
00000000
00000000
00000000
00000000
00000000
00000000
00001000
00000000
00000000
00000000
00000000
00000000
00000000
00000000
00010000
00000000
00000000
00000000
00000000
00000000
00000000
00000000
,  // measure 9
00001000
00000000
00010000
00000100
00000010
00000000
00000011
00000000
00000001
00000100
00000010
00001000
00010000
01000000
00010000
00100000
,  // measure 10
00100000
00000000
00010000
00100000
10000000
00100000
00010000
00000000
10000000
00100000
01000000
00010000
00001000
00000000
00000100
00001000
,  // measure 11
00000010
00000000
00000100
00000010
00000001
00000010
00001000
00000000
00000100
00001000
00000010
00001000
00010000
00000000
00100000
00000000
,  // measure 12
00110000
00000000
00000000
00000000
00000000
00000000
00010000
00000000
00000000
01000000
00000000
00000000
10000000
00000000
00000000
01000000
00000000
00000000
00010000
00000000
00000000
00100000
00000000
00000000
00000000
00000000
00000000
00010000
00000000
00000000
00100000
00000000
00000000
00010000
00000000
00000000
01000000
00000000
00000000
00000000
01000000
00000000
00000000
00000000
01000000
00000000
00000000
00000000
,  // measure 13
00001000
00000000
00010000
00000010
00000100
00000000
00000101
00000000
00000001
00000010
00000100
00001000
00010000
00100000
00010000
01000000
,  // measure 14
01000000
00000000
00010000
00100000
10000000
00100000
00010000
00000000
10000000
01000000
00100000
00010000
00001000
00000000
00000010
00001000
,  // measure 15
00000100
00000000
00000010
00000100
00000001
00000100
00001000
00000000
00000010
00001000
00000100
00001000
00010000
00000000
01000000
00000000
,  // measure 16
01010000
00000000
00000000
00000000
00000000
00000000
00010000
00000000
00000000
01000000
00000000
00000000
10000000
00000000
00000000
01000000
00000000
00000000
00010000
00000000
00000000
00100000
00000000
00000000
00000000
00000000
00000000
00010000
00000000
00000000
01000000
00000000
00000000
00010000
00000000
00000000
00100000
00000000
00000000
00000000
10000000
00000000
00000000
00000000
00010000
00000000
00000000
00000000
,  // measure 17
02000000
10000000
00100000
00010000
,  // measure 18
00001000
00010000
00100000
13000000
,  // measure 19
01000000
00000000
00000000
00100000
00000000
00000000
00001000
00000000
00000000
00010000
00000000
00000000
00000010
00000000
00001000
00000000
,  // measure 20
00000010
00000100
00000001
00000100
00000010
00000100
00001000
00000000
,  // measure 21
00011000
00000000
00000000
00000000
00000000
00000000
00000000
00000000
00000000
00000000
00000000
00000000
00000000
00000000
00000000
00000000
00000000
00000000
00000000
00000000
00000000
00000000
00000000
00000000
00010000
00000000
00000000
00000000
00000000
00000000
00001000
00000000
00000000
00000000
00000000
00000000
00010000
00000000
00000000
00000000
00000000
00000000
00001000
00000000
00000000
00000000
00000000
00000000
00010000
00000000
00000000
00000000
00000000
00000000
00000000
00000000
00000000
00000000
00000000
00000000
00100000
00000000
00000000
00000000
00000000
00000000
00000000
00000000
00000000
00000000
00000000
00000000
00000000
00000000
00000000
00000000
00000000
00000000
00000000
00000000
00000000
00000000
00000000
00000000
10000000
00000000
00000000
00000000
00000000
00000000
00000000
00000000
00000000
00000000
00000000
00000000
00000000
00000000
00000000
00000000
01000000
00000000
00000000
00000000
00000000
00000000
00000000
00000000
00000000
00000000
00000000
00000000
00000000
00000000
00000000
00000000
01000000
00000000
00000000
00000000
00000000
00000000
00000000
00000000
00000000
00000000
00000000
00000000
00000000
00000000
00000000
00000000
00100000
00000000
00000000
00000000
00000000
00000000
00000000
00000000
00000000
00000000
00000000
00000000
00000000
00000000
00000000
00000000
00001000
00000000
00000000
00000000
00000000
00000000
00000000
00000000
00000000
00000000
00000000
00000000
00000000
00000000
00000000
00000000
00010000
00000000
00000000
00000000
00000000
00000000
00000000
00000000
00000000
00000000
00000000
00000000
00000000
00000000
00000000
00000000
00000010
00000000
00000000
00000000
00000000
00000000
00000000
00000000
00000000
00000000
00000000
00000000
,  // measure 22
00000100
00000000
00000001
00000000
00000010
00000000
00000000
00000000
00000100
00000010
00000100
00000000
00002000
00000000
00000000
00000000
00003100
00010000
00000100
00000000
00020000
00000000
00001000
00000000
00000000
00000000
00031000
00000000
00000000
00000000
00010000
00001000
,  // measure 23
00010000
00001000
00010000
00000000
00001000
00000000
00000000
00000000
00100000
00000000
00000000
00000000
01000000
00000000
00000000
00000000
10000000
00000000
00000000
00000000
00100000
00000000
00010000
00000000
00100000
00000000
01000000
00000000
00100000
00000000
10000000
00000000
,  // measure 24
00010000
00100000
01000000
00000000
00100000
00000000
00010000
00000000
01000000
00010000
00000000
00000000
01000000
00000000
00001000
00000000
00010000
00000000
00000100
00000000
00001000
00000000
00000001
00000000
00000100
00000000
00000010
00000000
00001000
00000000
00000100
00000000
,  // measure 25
00000010
00000001
00000100
00001000
00010000
00000000
00000000
00010000
00000010
00000000
00000100
00000000
00001000
00000000
00000000
00000000
,  // measure 26
00010000
00001000
01000000
00100000
01000000
00000000
00010000
00000000
10000000
01000000
00100000
00010000
01000000
00001000
00000000
00010000
,  // measure 27
00001000
00000100
00000000
00000010
00001000
00000000
00000000
00001000
00000001
00000000
00000000
00000010
00000100
00000000
00000000
00000100
,  // measure 28
00001000
00000010
00010000
00001000
01000000
00000000
00000000
01000000
00001000
00010000
00100000
10000000
01000000
00100000
00000000
01000000
,  // measure 29
00100000
00000000
00101000
00000000
00011000
00000000
00000000
00010000
00001000
00000000
00000100
00000000
00000001
00000000
00000000
00000001
,  // measure 30
00001000
00000010
00001000
00000100
00010000
00000000
00000000
00010000
00001000
01000000
00010000
10000000
00000000
01000000
10000000
00010000
,  // measure 31
00100000
00000000
00000000
00000000
00001000
00000000
00000000
00000000
00010000
00000000
00000000
00000000
00001000
00000000
00000000
00000000
00000000
00000000
00000000
00000000
00000000
00001000
00000000
00000000
00010000
00000000
00000000
00000000
00000100
00000000
00000000
00000000
00010000
00000000
00000000
00000000
00001000
00000000
00000000
00000000
00000000
00000000
00000010
00000000
00000000
00000001
00000000
00000000
,  // measure 32
00000100
00000000
00000000
00000000
00000100
00000001
00001000
00000010
00010000
00000000
00001000
00100000
00000000
00000000
01000000
00100000
,  // measure 33
01000000
00100000
01000000
01000000
00000000
10000000
01000000
00100000
00010000
00000000
01000000
00001000
00000000
00010000
00000000
00000000
,  // measure 34
00000100
00000000
00000000
00000000
00001000
00000010
00000100
00000001
00001000
00000001
00000010
00000100
00010000
00000000
00000000
00000000
,  // measure 35
00001000
01000000
00100000
00000000
10000000
01000000
00100000
00001000
00000000
00010000
00000010
00000100
00000001
00000000
00000010
00000000
,  // measure 36
00001000
00010000
00000000
00001000
01000000
00100000
00100000
00100000
10000000
00010000
00010000
00010000
00010000
01000000
00001000
00000000
,  // measure 37
00011000
00001000
01000000
00100000
10000000
00000000
00010000
00100000
01000000
00000000
11000000
00000000
10000000
00100000
01000000
00010000
,  // measure 38
00001000
00000010
00001000
00000100
00000100
00000000
00001000
00000100
00000001
00000100
00001000
00000000
00000001
00000100
00000010
00001000
,  // measure 39
00010000
00000000
00100000
00010000
01000000
00000000
00100000
01000000
10000000
01000000
00010000
00000000
00100000
00010000
01000000
00010000
,  // measure 40
00001000
00000000
00000100
00000000
00001100
00000000
00001000
00000010
00000001
00000010
00001000
00000100
00000000
00001000
00000100
00001000
,  // measure 41
00000010
00000000
00000000
00000000
00000010
00000000
00000000
00000000
00000010
00000000
00000000
00000000
00010000
00000000
00000000
00000000
00000000
00000000
00001000
00000000
00000000
01000000
00000000
00000000
00100000
00000000
00000000
00000000
00000000
00000000
10100000
00000000
00000000
00000000
00000000
00000000
10000000
00000000
00000000
01000000
00000000
00000000
00100000
00000000
00000000
00010000
00000000
00000000
,  // measure 42
00001000
00000100
00001000
00000010
00000010
00000000
00001000
00000100
00000001
00000100
00001000
00000000
00000001
00000010
00000100
00001000
,  // measure 43
00010000
00000000
01000000
00010000
00100000
00000000
01000000
00100000
10000000
00100000
00010000
00000000
01000000
00010000
00100000
00010000
,  // measure 44
00001000
00000000
00000010
00000000
00001010
00000000
00001000
00000010
00000001
00000010
00001000
00000100
00000000
00001000
00000010
00001000
,  // measure 45
00000100
00000001
00001000
00000020
00000000
00000000
00000001
00000000
00000000
00000100
00000000
00000000
,  // measure 46
00000031
00000100
00000010
00000001
00000000
00000000
00000000
00000010
00000100
00000000
00001000
00000000
00010000
00000000
00000000
00000000
,  // measure 47
00010000
00001000
01000000
00010000
10000000
00000000
00000000
01000000
00000000
00000000
10000000
00000000
00100000
01000000
00000000
00000000
,  // measure 48
01000000
01000000
00100000
00100000
00010000
00010000
00001000
00001000
,  // measure 49
00011000
00000000
00000000
00000000
;

//---------------dance-double - ----------------
#NOTES:
     dance-double:
     :
     Hard:
     12:
     0.375288,0.546985,0.096746,0.022326,0.539543,353.000000,340.000000,13.000000,3.000000,0.000000,0.000000,0.375288,0.546985,0.096746,0.022326,0.539543,353.000000,340.000000,13.000000,3.000000,0.000000,0.000000:
// measure 0
00000000
00000000
00000000
00000000
,  // measure 1
00000000
00000000
00000000
00000000
,  // measure 2
00000000
00000000
00000000
00000000
,  // measure 3
00000000
00000000
00000000
00000000
,  // measure 4
10000000
00000000
00000000
00000000
00000000
00000000
00100000
00000000
00000000
00000000
00000000
00000000
00000000
00010000
00001000
00000000
,  // measure 5
00000010
00000000
00000000
00000001
00000000
00000001
00000100
00000000
00000000
00000000
00000000
00000000
00000010
00000000
00000000
00000000
,  // measure 6
00000001
00000000
00000010
00000100
00000000
00000001
00001000
00000000
00000000
00000000
00000000
00000000
00000100
00000000
00010000
00000000
,  // measure 7
00001000
00000000
00000000
00001000
00000000
01000000
00010000
00100000
00000000
00000000
00000000
00000000
01000000
00000000
00000000
00000000
,  // measure 8
00200000
00000000
00000000
00000000
00000000
00000000
00000000
00000000
00000000
00000000
00000000
00000000
00310000
00000000
10000000
00000000
01000000
00000000
00100000
00000000
00010000
01000000
00010000
01000000
,  // measure 9
00010000
00000000
00000000
01000000
00010000
00000000
00100000
00000000
00000000
00000000
00000000
00000000
00001000
00010000
00001000
00000010
,  // measure 10
00000010
00000000
00000000
00000001
00000000
00000001
00000100
00000000
00000000
00000000
00000000
00000000
00000110
00000000
00000000
00000000
,  // measure 11
00011000
00000000
00000100
00010000
00000000
00001000
00100000
00000000
00000000
00000000
00000000
00000000
01000000
00000000
00100000
00000000
,  // measure 12
00010000
00000000
00000000
00000000
00000000
00000000
00000000
00000000
00000000
00010000
00000000
00000000
00000000
00000000
00000000
01000000
00000000
00000000
00100000
00000000
00000000
00010000
00000000
00000000
00000000
00000000
00000000
00000000
00000000
00000000
00000000
00000000
00000000
00000000
00000000
00000000
10000000
00000000
00000000
00000000
01000000
00000000
00000000
00000000
00010000
00000000
00000000
00000000
,  // measure 13
10000000
00000000
00000000
10000000
00010000
00000000
01000000
00000000
00000000
00000000
00000000
00000000
00001000
00010000
00001000
00000100
,  // measure 14
00000100
00000000
00000000
00000001
00000000
00000001
00000010
00000000
00000000
00000000
00000000
00000000
00000110
00000000
00000000
00000000
,  // measure 15
00011000
00000000
00000010
00010000
00000000
00001000
01000000
00000000
00000000
00000000
00000000
00000000
00100000
00000000
01000000
00000000
,  // measure 16
00010000
00000000
00000000
00000000
00000000
00000000
00000000
00000000
00000000
00010000
00000000
00000000
00000000
00000000
00000000
00100000
00000000
00000000
01000000
00000000
00000000
00010000
00000000
00000000
00000000
00000000
00000000
00000000
00000000
00000000
00000000
00000000
00000000
00000000
00000000
00000000
10000000
00000000
00000000
00000000
00100000
00000000
00000000
00000000
00010000
00000000
00000000
00000000
,  // measure 17
20000000
00000000
00000000
00000000
,  // measure 18
00000000
00000000
00000000
30000000
,  // measure 19
10000000
00000000
00000000
01000000
00000000
00000000
00010000
00000000
00000000
00001000
00000000
00000000
00000100
00000000
00000001
00000000
,  // measure 20
00000010
00000010
00000100
00000100
00001000
00001000
00000010
00000000
,  // measure 21
00001000
00000000
00000000
00000000
00000000
00000000
00000001
00000000
00000000
00000001
00000000
00000000
00000001
00000000
00000000
00001000
00000000
00000000
00000000
00000000
00000000
00000100
00000000
00000000
00000000
00000100
00000000
00000000
00000000
00000000
00000000
00000000
00000000
00000010
00000000
00000000
00000000
00001000
00000000
00000000
00000000
00010000
00000000
00000000
00000000
00001000
00000000
00000000
,  // measure 22
00010000
00010000
00001000
00000000
00100000
01000000
00100000
00000000
00010000
01000000
00100000
00000000
00000000
10000000
00000000
00010000
,  // measure 23
00010000
00010000
10000000
00000000
00100000
00000000
00010000
00000000
00001000
00000000
00010000
00000010
00010000
00001000
00000010
00000100
,  // measure 24
00001000
00000000
00001000
00000000
00000001
00000000
00000100
00000000
00000010
00000100
00000000
00000000
00000010
00000000
00000001
00000000
00000010
00000000
00001000
00000000
00000100
00000000
00010000
00000000
00001000
00000000
01000000
00000000
00001000
00000000
00010000
00000000
,  // measure 25
00000010
00000100
00001000
00010000
00100000
00000000
00000000
00000000
01000000
00000000
01000000
00000000
00010000
00000000
00000000
00000000
,  // measure 26
01000000
00100000
10000000
00010000
01000000
00000000
00000000
00000000
00010000
10000000
01000000
00100000
00000000
00001000
00000000
00010000
,  // measure 27
00000000
00000100
00000000
00000010
00000001
00000000
00000000
00000000
00001000
00000000
00000000
00000010
00010000
00000000
00000000
00000000
,  // measure 28
00010000
00000010
00010000
00001000
01000000
00000000
00000000
00000000
01000000
00010000
00100000
01000000
00000000
00010000
00000000
00001000
,  // measure 29
00000100
00000000
00000100
00000000
00000110
00000000
00000000
00010000
00000000
00000000
00001000
00000000
01000000
00000000
00000000
00000000
,  // measure 30
00001000
00100000
00010000
01000000
00010000
00000000
00000000
00000000
10000000
01000000
00100000
00010000
00000000
01000000
00100000
00010000
,  // measure 31
00001000
00000000
00000000
00000000
00000010
00000000
00000000
00000000
00000001
00000000
00000000
00000000
00001000
00000000
00000000
00000000
00000000
00000000
00000000
00000000
00000000
00000000
00000000
00000000
00001000
00000000
00000000
00000000
00000100
00000000
00000000
00000000
00001000
00000000
00000000
00000000
00000001
00000000
00000000
00000000
00000000
00000000
00000010
00000000
00000000
00000100
00000000
00000000
,  // measure 32
00001000
00000000
00000000
00000000
00000100
00010000
00001000
00010000
00001000
00000000
00010000
00100000
00000000
00000000
00000000
00000000
,  // measure 33
00100000
00000000
01000000
00000000
00000000
00010000
10000000
00100000
10000000
00000000
00100000
01000000
00000000
00010000
00000000
00000000
,  // measure 34
10000000
00000000
00000000
00000000
01000000
00100000
00001000
00010000
00000000
00001000
00010000
00000100
00000010
00000000
00000000
00000000
,  // measure 35
00000100
00000010
00000001
00000000
00000001
00000100
00000010
00001000
00000000
00000100
00010000
00001000
01000000
00000000
00010000
00000000
,  // measure 36
00100000
00001000
00000000
00001000
00010000
00000010
00010000
00000010
00001000
00000010
00001000
00000010
00000100
00000010
00000100
00000000
,  // measure 37
00000110
00000000
00000101
00000000
00001100
00000000
00000000
00000100
00001000
00000000
00000010
00000000
00000000
00000000
00000000
00000000
,  // measure 38
00010000
00001000
00010000
00100000
00100000
00000000
00000000
10000000
00000000
10000000
01000000
00000000
00000000
00000000
00000000
00000000
,  // measure 39
01100000
00000000
00000000
00000000
00011000
00000000
01000000
00001000
00000000
00010000
00000010
00000000
00000000
00000000
00000000
00000000
,  // measure 40
00000100
00000000
00000010
00000000
00001000
00000000
00000000
00001000
00000000
00000100
00000010
00001000
00000000
00000000
00000000
00000000
,  // measure 41
00000001
00000000
00000000
00000000
00000100
00000000
00000000
00000000
00001000
00000000
00000000
00000000
00000001
00000000
00000000
00000000
00000000
00000000
00000000
00000000
00000000
00000001
00000000
00000000
00001000
00000000
00000000
00000000
00000000
00000000
00000100
00000000
00000000
00000000
00000000
00000000
00000000
00000000
00000000
00000000
00000000
00000000
00000000
00000000
00000000
00000000
00000000
00000000
,  // measure 42
00010000
00001000
00010000
01000000
01000000
00000000
00000000
10000000
00000000
10000000
00100000
00000000
00000000
00000000
00000000
00000000
,  // measure 43
01100000
00000000
00000000
00000000
00011000
00000000
00100000
00001000
00000000
00010000
00000100
00000000
00000000
00000000
00000000
00000000
,  // measure 44
00000010
00000000
00000100
00000000
00001000
00000000
00000000
00001000
00000000
00000010
00000100
00001000
00000000
00000000
00000000
00000000
,  // measure 45
00000001
00000010
00001000
00000002
00000000
00000000
00000000
00000000
00000000
00000003
00000000
00000000
,  // measure 46
00000001
00000100
00000010
00010000
00000000
00000000
00000000
00001000
00000000
00000000
00100000
00000000
00000000
00000000
00000000
00000000
,  // measure 47
00000000
01000000
00100000
00010000
00000000
00000000
00000000
00000000
00000000
00000000
00000000
00000000
00001000
00000000
00000000
00000000
,  // measure 48
00000000
00000001
00000100
00000010
,  // measure 49
00000110
00000000
00000000
00000000
;

//---------------dance-double - ----------------
#NOTES:
     dance-double:
     :
     Medium:
     9:
     0.210501,0.255260,0.074420,0.022326,0.219538,198.000000,188.000000,10.000000,3.000000,0.000000,0.000000,0.210501,0.255260,0.074420,0.022326,0.219538,198.000000,188.000000,10.000000,3.000000,0.000000,0.000000:
// measure 0
00000000
00000000
00000000
00000000
,  // measure 1
00000000
00000000
00000000
00000000
,  // measure 2
00000000
00000000
00000000
00000000
,  // measure 3
00000000
00000000
00000000
00000000
,  // measure 4
10000000
00000000
00000000
00000000
00000000
00000000
00100000
00000000
00000000
00000000
00000000
00000000
00000000
01000000
00000000
00000000
,  // measure 5
00001000
00000000
00000000
00010000
00000000
00000000
00000100
00000000
,  // measure 6
00000010
00000000
00000000
00000100
00000000
00000000
00001000
00000000
00000000
00000000
00000000
00000000
00000001
00000000
00000100
00000000
,  // measure 7
00000010
00000000
00000000
00000010
00000000
00000000
00000010
00001000
00000000
00000000
00000000
00000000
00000100
00000000
00000000
00000000
,  // measure 8
00010000
00000000
00011000
00010100
,  // measure 9
00001010
00000000
00000000
00000000
00000000
00000000
00000010
00000000
00000000
00000000
00000000
00000000
00000000
00000100
00000000
00000000
,  // measure 10
00000010
00000000
00000000
00001000
00000000
00000000
00000100
00000000
00000000
00000000
00000000
00000000
00010000
00000000
00000000
00000000
,  // measure 11
00001000
00000000
00000000
01000000
00000000
00000000
00100000
00000000
00000000
00000000
00000000
00000000
10000000
00000000
00000000
00000000
,  // measure 12
01000000
00000000
00000000
01000000
00000000
00000000
00100000
00010000
00000000
00000000
00000000
00000000
10000000
00000000
00000000
00000000
,  // measure 13
00110000
00000000
00000000
00000000
00000000
00000000
00100000
00000000
00000000
00000000
00000000
00000000
00000000
01000000
00000000
00000000
,  // measure 14
00100000
00000000
00000000
00010000
00000000
00000000
01000000
00000000
00000000
00000000
00000000
00000000
00001000
00000000
00000000
00000000
,  // measure 15
00010000
00000000
00000000
00000100
00000000
00000000
00000010
00000000
00000000
00000000
00000000
00000000
00000001
00000000
00000000
00000000
,  // measure 16
00000100
00000000
00000000
00000100
00000000
00000000
00000010
00001000
00000000
00000000
00000000
00000000
00000001
00000000
00000000
00000000
,  // measure 17
00000002
00000000
00000000
00000000
,  // measure 18
00000000
00000000
00000000
00000003
,  // measure 19
00002000
00000000
00000000
00000000
,  // measure 20
00003100
00010000
00001000
00011000
,  // measure 21
00011000
00000000
00000000
00000000
00000000
00001000
00000000
01000000
00000000
00000000
00000000
00100000
00000000
00000000
00000000
10000000
,  // measure 22
00000000
00000000
00010000
00000000
00000000
00100000
00001000
00000000
00010000
00010000
00001000
00000000
00000000
00011000
00000000
00000000
,  // measure 23
00000000
00000000
00001000
00000000
00010000
00000000
00000100
00000000
00000000
00000000
00000010
00000000
00000000
00000001
00000000
00000000
,  // measure 24
00000000
00000000
00000100
00000000
00000000
00000000
00000010
00000000
00000000
00000000
00010000
00000000
00000000
00001000
00000000
00001000
,  // measure 25
00000000
01000000
00100000
00000000
10000000
01000000
00000000
00000000
,  // measure 26
10000000
00000000
00000000
00100000
00000000
00000000
00000000
00000000
01000000
00000000
00000000
00001000
00000000
00010000
00000000
00001000
,  // measure 27
00000000
00000100
00000000
00000000
00000010
00000000
00000000
00000000
00001000
00000000
00000000
00000010
00000000
00000000
00000000
00000000
,  // measure 28
00001000
00000000
00000000
00000100
00000000
00000000
00000000
00000000
00000010
00000000
00000000
00000001
00000000
00001000
00000000
00000000
,  // measure 29
00001000
00000010
00010010
00000000
00010000
00000000
00001000
00000000
,  // measure 30
00100000
01000000
10000000
00010000
,  // measure 31
01000000
00001000
01000000
00001000
00000000
00000000
00010000
00000000
00000000
00000010
00000000
00000000
,  // measure 32
00000100
00000001
00000010
00001000
,  // measure 33
00000010
00000000
00000001
00000000
00000000
00000100
00000000
00000010
00001000
00000000
00000000
00000100
00000000
00010000
00000000
00000000
,  // measure 34
00001000
00000000
00000000
00000000
01000000
00000000
00000000
00100000
00000000
10000000
00000000
00000000
00010000
00000000
00000000
00000000
,  // measure 35
10000000
10000000
01000000
00000000
00100000
00000000
00010000
00000000
,  // measure 36
00001000
00000000
00000000
00000000
00000100
00000000
00000000
00000010
00000000
00000000
00000100
00000000
00000000
00000010
00000000
00000000
,  // measure 37
00000001
00000100
00000011
00000000
00000000
00000010
00000000
00000000
,  // measure 38
00000000
00000100
00000000
00000000
00000010
00000000
00000000
00000001
00000000
00000000
00000100
00000000
00000000
00000000
00000000
00000000
,  // measure 39
00001000
00000000
00000000
00000000
00010000
00000000
00000000
01000000
00000000
00000000
00100000
00000000
00000000
00000000
00000000
00000000
,  // measure 40
00010000
00000000
00000000
00000000
01000000
00000000
00000000
01000000
00000000
00000000
00100000
10000000
00000000
00000000
00000000
00000000
,  // measure 41
10000000
00000000
10100000
00000000
00000000
00100000
00000000
00000000
,  // measure 42
00000000
01000000
00000000
00000000
00100000
00000000
00000000
10000000
00000000
00000000
01000000
00000000
00000000
00000000
00000000
00000000
,  // measure 43
00010000
00000000
00000000
00000000
00001000
00000000
00000000
00000100
00000000
00000000
00000010
00000000
00000000
00000000
00000000
00000000
,  // measure 44
00001000
00000000
00000000
00000000
00000100
00000000
00000000
00000100
00000000
00000000
00000010
00000001
00000000
00000000
00000000
00000000
,  // measure 45
00000001
00000100
00000010
00002000
00000000
00000000
00000000
00000000
00000000
00000000
00000000
00000000
,  // measure 46
00003100
00000000
00000000
00010000
00000000
00000000
00000000
00001000
00000000
00000000
00100000
00000000
00000000
00000000
00000000
00000000
,  // measure 47
00000000
01000000
10000000
00100000
00000000
00000000
00000000
00000000
00000000
00000000
00000000
00000000
00010000
00000000
00000000
00000000
,  // measure 48
00000000
00001000
00001000
00001000
,  // measure 49
00010000
00000000
00000000
00000000
;

//---------------dance-double - ----------------
#NOTES:
     dance-double:
     :
     Easy:
     5:
     0.141397,0.200561,0.014884,0.014884,0.059536,133.000000,131.000000,2.000000,2.000000,0.000000,0.000000,0.141397,0.200561,0.014884,0.014884,0.059536,133.000000,131.000000,2.000000,2.000000,0.000000,0.000000:
// measure 0
00000000
00000000
00000000
00000000
,  // measure 1
00000000
00000000
00000000
00000000
,  // measure 2
00000000
00000000
00000000
00000000
,  // measure 3
00000000
00000000
00000000
00000000
,  // measure 4
10000000
00000000
00000000
00100000
00000000
00000000
00000000
00000000
,  // measure 5
00010000
00000000
00000000
00001000
00000000
00000000
00000010
00000000
,  // measure 6
00000001
00000000
00000000
00000100
00000000
00000000
00000000
00000000
,  // measure 7
00001000
00000000
00000000
00010000
00000000
00000000
00000000
00000000
,  // measure 8
00010000
00000000
01000000
00000000
,  // measure 9
10000000
00000000
00000000
00010000
00000000
00000000
01000000
00000000
,  // measure 10
00001000
00000000
00000000
00010000
00000000
00000000
00000100
00000000
,  // measure 11
00000010
00000000
00000000
00000001
00000000
00000000
00000100
00000000
,  // measure 12
00000010
00000000
00000000
00001000
00000000
00000000
00000001
00000000
,  // measure 13
00000001
00000000
00000000
00001000
00000000
00000000
00000100
00000000
,  // measure 14
00010000
00000000
00000000
00001000
00000000
00000000
01000000
00000000
,  // measure 15
00100000
00000000
00000000
10000000
00000000
00000000
01000000
00000000
,  // measure 16
00100000
00000000
00000000
00010000
00000000
00000000
10000000
00000000
,  // measure 17
20000000
00000000
00000000
00000000
,  // measure 18
00000000
00000000
00000000
00000000
,  // measure 19
00000000
00000000
00000000
00000000
,  // measure 20
00000000
00000000
00000000
30000000
,  // measure 21
10000000
00000000
00000000
00000000
00000000
01000000
00000000
01000000
00000000
00000000
00000000
00100000
00000000
00000000
00000000
00001000
,  // measure 22
00000000
00000000
00000000
00000000
00000000
00010000
00000000
00000000
00000100
00000000
00000000
00000010
00000000
00000010
00000000
00000000
,  // measure 23
00000000
00000000
00000001
00000000
00000010
00000000
00000000
00000000
00000000
00000000
00000001
00000000
00000000
00000100
00000000
00000000
,  // measure 24
00000000
00000000
00000010
00000000
00000000
00000000
00010000
00000000
00000000
00000000
00001000
00000000
00000000
00010000
00000000
00010000
,  // measure 25
00000000
01000000
00100000
00000000
00000000
00000000
00010000
00000000
,  // measure 26
00000000
01000000
00000000
00001000
,  // measure 27
00010000
00000010
00000000
00001000
,  // measure 28
00000000
00000100
00000000
00010000
,  // measure 29
00001000
00001000
00001000
00000000
00100000
00000000
01000000
00000000
,  // measure 30
00000000
10000000
00100000
01000000
,  // measure 31
00001000
00010000
00000100
00000010
,  // measure 32
00000000
00000001
00000100
00000010
,  // measure 33
00000010
00000000
00000000
00000000
00000000
00010000
00000000
00000000
00010000
00000000
00000000
00001000
00000000
00000000
00000000
00000000
,  // measure 34
00010000
00000000
00000000
00000000
00000100
00000000
00000000
00000010
00000000
00000000
00000000
00000000
00000001
00000000
00000000
00000000
,  // measure 35
00000100
00000001
00000100
00000010
,  // measure 36
00001000
00000010
00000010
00000010
,  // measure 37
00010010
00000000
00001001
00000000
00000000
00001000
00000000
00000000
,  // measure 38
00000010
00000000
00010000
00000000
00000000
00001000
00000000
00000000
,  // measure 39
01000000
00000000
00100000
00000000
00000000
10000000
00000000
00000000
,  // measure 40
01000000
00000000
00100000
00000000
00000000
00010000
00000000
00000000
,  // measure 41
10000000
00000000
10000000
00000000
00000000
00010000
00000000
00000000
,  // measure 42
01000000
00000000
00001000
00000000
00000000
00010000
00000000
00000000
,  // measure 43
00000100
00000000
00000010
00000000
00000000
00000001
00000000
00000000
,  // measure 44
00000100
00000000
00000010
00000000
00000000
00001000
00000000
00000000
,  // measure 45
00000001
00000002
00000000
00000003
,  // measure 46
00000001
00000000
00000000
00000010
00000000
00000000
00000000
00000100
00000000
00000000
00001000
00000000
00000000
00000000
00000000
00000000
,  // measure 47
00000000
00000100
00000000
00000000
00010000
00000000
00000000
00000000
00000000
00000000
00000000
00000000
00001000
00000000
00000000
00000000
,  // measure 48
00000000
01000000
00000000
01000000
,  // measure 49
00100000
00000000
00000000
00000000
;
