#VERSION:0.83;
#TITLE:phaseclapper;
#SUBTITLE:;
#ARTIST:Z-I-v Sound Team "Karl with a K";
#TITLETRANSLIT:;
#SUBTITLETRANSLIT:;
#ARTISTTRANSLIT:;
#GENRE:;
#ORIGIN:;
#CREDIT:;
#BANNER:phaseclapper banner.png;
#BACKGROUND:phaseclapper bg.png;
#PREVIEWVID:;
#JACKET:;
#CDIMAGE:;
#DISCIMAGE:;
#LYRICSPATH:;
#CDTITLE:;
#MUSIC:phaseclapper.ogg;
#OFFSET:0.000000;
#SAMPLESTART:79.456276;
#SAMPLELENGTH:19.862068;
#SELECTABLE:YES;
#BPMS:0.000=145.000;
#STOPS:;
#DELAYS:;
#WARPS:;
#TIMESIGNATURES:0.000=4=4;
#TICKCOUNTS:0.000=4;
#COMBOS:0.000=1;
#SPEEDS:0.000=1.000=0.000=0;
#SCROLLS:0.000=1.000;
#FAKES:;
#LABELS:0.000=Song Start;
#BGCHANGES:;
#KEYSOUNDS:;
#ATTACKS:
;

//---------------dance-double - ----------------
#NOTEDATA:;
#CHARTNAME:;
#STEPSTYPE:dance-double;
#DESCRIPTION:;
#CHARTSTYLE:;
#DIFFICULTY:Hard;
#METER:14;
#RADARVALUES:0.684215,0.728838,0.485892,0.006941,0.732308,690.000000,620.000000,70.000000,1.000000,0.000000,0.000000,0.000000,0.000000,0.000000,0.684215,0.728838,0.485892,0.006941,0.732308,690.000000,620.000000,70.000000,1.000000,0.000000,0.000000,0.000000,0.000000,0.000000;
#CREDIT:;
#NOTES:
// measure 0
00000000
00000000
00000000
00000000
,  // measure 1
00000000
00000000
00000000
00000000
,  // measure 2
00000000
00000000
00000000
00000000
,  // measure 3
10000000
00000000
00100000
00000000
00100000
00000000
00000000
01000000
00000000
00000000
01000000
00000000
00010000
00000000
00100000
00000000
,  // measure 4
00100000
00000000
00000000
01000000
00000000
00000000
01000000
00000000
10000000
00000000
00100000
00000000
00100000
00000000
00000000
01000000
,  // measure 5
00000000
00000000
00010000
00000000
01000000
00000000
00000000
00000000
00001000
00010000
00000000
00010000
00000000
00001000
00010000
00000000
,  // measure 6
00010100
00000000
00000100
00000000
00001000
00000000
00001000
00000100
00000000
00000000
00000010
00000000
00000001
00000000
00000100
00000000
,  // measure 7
00000010
00000000
00000010
00000100
00000000
00000000
00000010
00000000
00000110
00000000
00000100
00000000
00000001
00000000
00000000
00001000
,  // measure 8
00000000
00000000
00000100
00000000
00010100
00000000
00010000
00000000
00001000
00000000
00000000
01000000
00000000
00000000
00010000
00000000
,  // measure 9
10010000
00000000
10000000
00000000
01000000
00000000
00100000
01000000
00000000
00000000
10000000
00000000
00010000
00000000
01000000
00000000
,  // measure 10
00100000
00000000
01100000
00000000
00100000
00000000
10000000
00000000
10100000
00000000
00010000
00000000
10000000
00000000
01000000
00100000
,  // measure 11
00000000
00000000
00000000
00000000
00001000
00000000
00000000
00000000
00010000
00001000
00000000
00001000
00000000
00010000
00001000
00000000
,  // measure 12
00010100
00000000
00000100
00000110
00000000
00000011
00000000
00001000
,  // measure 13
00000101
00000000
00001010
00001000
00001100
00000000
00000010
00000011
,  // measure 14
00000000
00000101
00000000
00000010
00001010
00000000
00010010
00010000
,  // measure 15
00011000
00000000
01000000
01001000
00000000
01100000
00000000
00010000
,  // measure 16
11000000
00000000
00110000
00010000
01010000
00000000
00100000
10100000
,  // measure 17
00000000
11000000
00000000
00100000
00110000
00000000
00101000
00001000
,  // measure 18
00011000
00000000
00001010
00000000
00000011
00000000
00000001
00000100
,  // measure 19
00001010
00000000
00000010
00010000
00011000
00000000
00110000
00010000
,  // measure 20
10000000
00000000
10100000
00000000
01100000
00000000
01010000
01000000
,  // measure 21
00001000
00000000
00011000
00000000
00001010
00000000
00001000
00000100
,  // measure 22
00000011
00000000
00000001
00000100
00001010
00000000
00011000
00010000
,  // measure 23
00001000
00000000
00110000
00000000
10100000
10000000
11000000
00000000
,  // measure 24
10000000
00100000
00010000
00001000
,  // measure 25
00000100
00000001
00000001
00000010
,  // measure 26
00001000
00010000
01000000
10000000
,  // measure 27
10000000
01000000
00001000
00010000
,  // measure 28
00000010
00000001
00000001
00000100
,  // measure 29
00002000
00000000
00000000
00000000
,  // measure 30
00013000
00000000
00010000
00000000
00001000
00010000
00000000
00001000
00000000
00100000
00001000
00000000
00100000
00000000
00100000
00000000
,  // measure 31
00010000
10000000
00000000
00100000
00000000
10000000
01000000
00000000
10000000
00000000
10000000
00000000
01000000
10000000
00000000
00100000
,  // measure 32
00000000
10000000
00100000
00000000
10000000
00000000
10000000
00000000
00010000
00100000
00000000
00001000
00000000
00100000
00001000
00000000
,  // measure 33
00100000
00000000
00100000
00000000
00001000
00100000
00000000
00001000
00000000
00010000
00001000
00000000
00010000
00000000
00010000
00000000
,  // measure 34
00001000
01000000
00000000
00010000
00000000
01000000
00001000
00000000
00010000
00000000
00010000
00000000
00001000
00010000
00000000
00001000
,  // measure 35
00000000
00010000
00000010
00000000
00001000
00000000
00001000
00000000
00000010
00001000
00000000
00000001
00000000
00001000
00000001
00000000
,  // measure 36
00000010
00000000
00000010
00000000
00000001
00000010
00000000
00000001
00000000
00000100
00000001
00000000
00000010
00000000
00000010
00000000
,  // measure 37
00000001
00001000
00000000
00000010
00000000
00000100
00000010
00000000
00001000
00000000
00001000
00000000
00000010
00001000
00000000
00000100
,  // measure 38
00000000
00000010
00000001
00000000
00000010
00000000
00000010
00000000
00000100
00010000
00000000
00001000
00000000
00010000
00000010
00000000
,  // measure 39
00010000
00000000
00010000
00000000
00001000
00010000
00000000
00000010
00000000
00001000
00000100
00000000
00001000
00000000
00001000
00000000
,  // measure 40
00000100
00010000
00000000
00001000
00000000
00010000
00000100
00000000
00010000
00000000
00010000
00000000
00001000
00010000
00000000
00001000
,  // measure 41
00000000
00100000
00001000
00000000
00100000
00000000
00100000
00000000
00001000
00100000
00000000
00010000
00000000
00100000
00010000
00000000
,  // measure 42
00010000
00000000
00010000
00000000
00100000
00010000
00000000
01000000
00000000
00010000
00100000
00000000
00010000
00000000
00010000
00000000
,  // measure 43
10000000
01000000
00000000
10000000
00000000
00100000
10000000
00000000
01000000
00000000
01000000
00000000
10000000
00100000
00000000
10000000
,  // measure 44
00000000
00010000
00100000
00000000
00010000
00000000
00010000
00000000
01000000
00001000
00000000
01000000
00000000
00001000
00010000
00000000
,  // measure 45
00001000
00000000
00001000
00000000
00100000
00001000
00000000
00100000
00000000
00010000
00100000
00000000
00000000
00001000
00000000
00000000
,  // measure 46
00000000
00010000
00000000
00000000
00000000
00001000
00000000
00000000
00000000
00010000
00000000
00000000
00000000
00001000
00000000
00000000
,  // measure 47
00000000
00011000
00000000
00011000
00001000
00000000
00011000
00010000
00001000
00000000
00011000
00010000
,  // measure 48
00000010
00001000
00000010
00000000
00001000
00000100
00000000
00000010
00000000
00000100
00001000
00000000
00000010
00001000
00000010
00000000
,  // measure 49
00000100
00000001
00000000
00000010
00000000
00000100
00000010
00000000
00000001
00000010
00000001
00000000
00000100
00000010
00000000
00000100
,  // measure 50
00000000
00000010
00001000
00000000
00000010
00001000
00000010
00000000
00001000
00000001
00000000
00000010
00000000
00000100
00000010
00000000
,  // measure 51
00000001
00000010
00000001
00000000
00000010
00000100
00000000
00001000
00000000
00000010
00000100
00000000
00000010
00000100
00000010
00000000
,  // measure 52
00001000
00000100
00000000
00001000
00000000
00000100
00010000
00000000
00001000
00010000
00001000
00000000
00010000
00001000
00000000
00010000
,  // measure 53
00000000
00001000
00100000
00000000
00001000
00010000
00001000
00000000
00100000
00010000
00000000
00100000
00000000
00010000
00100000
00000000
,  // measure 54
00100000
00010000
00100000
00000000
00010000
01000000
00000000
00100000
00000000
01000000
00010000
00000000
00100000
00010000
00100000
00000000
,  // measure 55
01000000
10000000
00000000
00100000
00000000
01000000
00100000
00000000
10000000
00100000
10000000
00000000
01000000
00100000
00000000
01000000
,  // measure 56
00000000
00100000
00010000
00000000
00100000
00010000
00100000
00000000
00010000
10000000
00000000
00100000
00000000
01000000
00100000
00000000
,  // measure 57
10000000
00100000
10000000
00000000
00100000
01000000
00000000
00010000
00000000
00100000
01000000
00000000
00100000
01000000
00100000
00000000
,  // measure 58
00010000
01000000
00000000
00010000
00000000
01000000
00001000
00000000
00010000
00001000
00010000
00000000
00001000
00010000
00000000
00001000
,  // measure 59
00000000
00010000
00000010
00000000
00010000
00001000
00010000
00000000
00000010
00001000
00000000
00000010
00000000
00001000
00000010
00000000
,  // measure 60
00001000
00000000
00001000
00000000
00000001
00000100
00000000
00000000
00000110
00000000
00000000
00000000
00000010
00000000
00000010
00000000
,  // measure 61
00001001
00000000
00000000
00000010
00000000
00000100
00000010
00000000
00001000
00000000
00001000
00000000
00000100
00000010
00000000
00000000
,  // measure 62
00000110
00000000
00000001
00000000
00000010
00000000
00000010
00000000
00001001
00000000
00000000
00000010
00000000
00000100
00000010
00000000
,  // measure 63
00000011
00000000
00000001
00000000
00000010
00000100
00000000
00001000
00000000
00000010
00000100
00000000
00000010
00000000
00000010
00000000
,  // measure 64
00010000
00001000
00000000
00000000
00011000
00000000
00010000
00000000
00001000
00000000
00001000
00000000
00101000
00000000
00000000
00100000
,  // measure 65
00000000
00001000
00010000
00000000
00001000
00000000
00100000
00000000
00110000
00000000
00000000
00000000
11000000
00000000
00000000
00000000
,  // measure 66
10000000
00100000
00000000
10000000
00100000
10000000
00000000
00100000
10000000
00000000
01000000
00000000
10000000
00010000
00000000
00100000
,  // measure 67
00010000
00100000
00000000
00010000
00100000
00000000
01000000
00000000
10000000
01000000
00000000
10000000
01000000
10000000
00000000
01000000
,  // measure 68
10000000
00000000
00100000
00000000
10000000
00010000
00000000
01000000
00010000
01000000
00000000
00010000
00100000
00000000
00001000
00000000
,  // measure 69
00001000
00000000
00010000
00001000
00010000
00000000
00001000
00010000
00000000
00000010
00000000
00001000
00000100
00000000
00010000
00001000
,  // measure 70
00010000
00000000
00001000
00010000
00000000
00000100
00000000
00001000
00000100
00000000
00000010
00000001
00000010
00000000
00000100
00000010
,  // measure 71
00000000
00000001
00000000
00000010
00000001
00000000
00000100
00000010
00000100
00000000
00000001
00000100
00000000
00001000
00000000
00000100
,  // measure 72
00000010
00000000
00000000
00000000
00001000
00000000
00000000
00000100
00000000
00000000
00000001
00000000
00000100
00000000
00000000
00000000
,  // measure 73
00001000
00000000
00000000
00000010
00000000
00000000
00010000
00000000
00001000
00000000
00000000
00000000
00100000
00000000
00000000
00010000
,  // measure 74
00000000
00000000
01000000
00000000
10000000
00000000
00000000
00000000
01000000
00000000
00000000
00100000
00000000
00000000
10000000
00000000
,  // measure 75
01000000
00000000
00000000
00000000
00010000
00000000
00000000
00001000
00000000
00000000
00010000
00000000
00000100
00000000
00000000
00000000
,  // measure 76
00000010
00000000
00000000
00000001
00000000
00000000
00000100
00000000
00001000
00000000
00000000
00000000
00010000
00000000
00000000
00100000
,  // measure 77
00000000
00000000
10000000
00000000
01000000
00000000
00000000
00000000
00100000
00000000
00000000
00001000
00000000
00000000
00010000
00000000
,  // measure 78
00010100
00000000
00000000
00000000
00001000
00000000
00000010
00001000
00000000
00000000
00000001
00000000
00000100
00000000
00000000
00000000
,  // measure 79
00000110
00000000
00000000
00000010
00010000
00000000
00001000
00000000
00011000
00000000
00000000
00000000
00110000
00000000
00000000
01000000
,  // measure 80
00000000
10000000
10100000
00000000
01010000
00000000
01001000
00001000
,  // measure 81
00010000
00000000
00000100
00000000
00010100
00000000
00000000
00000100
00000010
00000000
00000001
00000000
00000100
00000000
00000000
00000000
,  // measure 82
00000110
00000000
00000000
00000100
00001000
00000000
00010000
00000000
00011000
00000000
00001000
00000000
00101000
00000000
00000000
00100000
,  // measure 83
00010000
10000000
01000000
00000000
00101000
00000000
00010010
00000000
,  // measure 84
00001001
00000000
00000000
00000000
;

//---------------dance-double - ----------------
#NOTEDATA:;
#CHARTNAME:;
#STEPSTYPE:dance-double;
#DESCRIPTION:;
#CHARTSTYLE:;
#DIFFICULTY:Easy;
#METER:7;
#RADARVALUES:0.332191,0.466456,0.340124,0.062472,0.006941,335.000000,286.000000,49.000000,9.000000,0.000000,0.000000,0.000000,0.000000,0.000000,0.332191,0.466456,0.340124,0.062472,0.006941,335.000000,286.000000,49.000000,9.000000,0.000000,0.000000,0.000000,0.000000,0.000000;
#CREDIT:;
#NOTES:
// measure 0
00000000
00000000
00000000
00000000
,  // measure 1
00000000
00000000
00000000
00000000
,  // measure 2
00000000
00000000
00000000
00000000
,  // measure 3
10000000
01000000
00010000
00010000
,  // measure 4
01000000
10000000
10000000
00100000
,  // measure 5
00010000
00001000
00000100
00000001
,  // measure 6
00000010
00000001
00000100
00000010
,  // measure 7
00001000
00000100
00000010
00000001
,  // measure 8
00000100
00001000
00010000
00100000
,  // measure 9
10000000
01000000
00100000
00010000
,  // measure 10
01000000
00100000
10000000
01000000
,  // measure 11
00100000
00000000
00000000
00000000
,  // measure 12
00000010
00001000
00000001
00000100
,  // measure 13
00000001
00000010
00000001
00001000
,  // measure 14
00000100
00010000
00000010
00010000
,  // measure 15
00001000
01000000
00010000
10000000
,  // measure 16
00100000
10000000
00010000
00100000
,  // measure 17
00001000
00010000
00000100
00010000
,  // measure 18
00000010
00001000
00001000
00000001
,  // measure 19
00000010
00000100
00010000
00010000
,  // measure 20
00001000
00100000
00100000
00100000
,  // measure 21
01000000
10000000
10000000
00010000
,  // measure 22
00100000
01000000
10000000
10000000
,  // measure 23
00100000
01000000
01000000
01000000
,  // measure 24
00002000
00000000
00000000
00000000
,  // measure 25
00000000
00000000
00000000
00000000
,  // measure 26
00000000
00000000
00000000
00000000
,  // measure 27
00000000
00000000
00003000
00020000
,  // measure 28
00000000
00030000
00000200
00000000
,  // measure 29
00000000
00000000
00000000
00000300
,  // measure 30
00001000
00001000
00001000
00001000
,  // measure 31
00000100
00000100
00000100
00000100
,  // measure 32
00000001
00000001
00000010
00000010
,  // measure 33
00000010
00000010
00001000
00001000
,  // measure 34
00000100
00000100
00010000
00010000
,  // measure 35
00001000
00001000
00011000
00011000
,  // measure 36
00010000
00010000
00010000
00010000
,  // measure 37
01000000
01000000
01000000
01000000
,  // measure 38
10000000
10000000
00100000
00100000
,  // measure 39
00100000
00100000
00010000
00010000
,  // measure 40
00001000
00001000
00010000
00010000
,  // measure 41
00001000
00001000
00011000
00011000
,  // measure 42
00010000
00000100
00001000
00000100
,  // measure 43
00000001
00000100
00000001
00000100
,  // measure 44
00001000
00000100
00001000
00000010
,  // measure 45
00001000
00000010
00000100
00000001
,  // measure 46
00000000
00000000
00000000
00000000
,  // measure 47
00000000
00000100
00000000
00001000
00000000
00000000
00010000
00000000
00001000
00000000
00000000
00000000
,  // measure 48
00100000
00010000
00010000
10000000
,  // measure 49
10000000
01000000
10000000
10000000
,  // measure 50
10000000
00100000
00100000
01000000
,  // measure 51
00010000
00010000
00010000
00100000
,  // measure 52
00100000
00001000
00001000
00001000
,  // measure 53
00001000
00010000
00010000
00000100
,  // measure 54
00001000
00000100
00001100
00000010
,  // measure 55
00000100
00001000
00001010
00001010
,  // measure 56
00000100
00000001
00000010
00001000
,  // measure 57
00010000
00001000
00011000
00010000
,  // measure 58
00001000
00000100
00001000
00010000
,  // measure 59
00001000
00010000
01000000
01100000
,  // measure 60
00100000
00010000
10010000
10000000
,  // measure 61
10010000
10000000
00100000
01000000
,  // measure 62
01100000
00100000
01100000
01000000
,  // measure 63
00011000
00100000
00110000
00010000
,  // measure 64
01010000
10010000
11000000
01100000
,  // measure 65
00001000
00010000
00011000
00001100
,  // measure 66
00001200
00001000
00000310
00000201
,  // measure 67
00000001
00000310
00000210
00000301
,  // measure 68
00000011
00000002
00000103
00001100
,  // measure 69
00000100
00000101
00000010
00000100
,  // measure 70
00000101
00001010
00000100
00001001
,  // measure 71
00000020
00000130
00001100
00011000
,  // measure 72
00200000
00000000
00000000
00000000
,  // measure 73
00000000
00000000
00000000
00000000
,  // measure 74
00000000
00000000
00000000
00300000
,  // measure 75
00010000
10000000
01000000
10000000
,  // measure 76
00010000
01000000
00010000
10000000
,  // measure 77
00100000
10000000
00100000
00010000
,  // measure 78
00001000
00011000
00001100
00000100
,  // measure 79
00000110
00000010
00000011
00000101
,  // measure 80
00000100
00000110
00001010
00011000
,  // measure 81
00001000
00101000
00110000
00010000
,  // measure 82
01010000
01000000
01100000
10100000
,  // measure 83
10000000
11000000
01100000
00110000
,  // measure 84
00011000
00000000
00000000
00000000
;

//---------------dance-double - ----------------
#NOTEDATA:;
#CHARTNAME:;
#STEPSTYPE:dance-double;
#DESCRIPTION:;
#CHARTSTYLE:;
#DIFFICULTY:Medium;
#METER:12;
#RADARVALUES:0.491841,0.524763,0.492833,0.069413,0.027765,496.000000,425.000000,71.000000,10.000000,0.000000,0.000000,0.000000,0.000000,0.000000,0.491841,0.524763,0.492833,0.069413,0.027765,496.000000,425.000000,71.000000,10.000000,0.000000,0.000000,0.000000,0.000000,0.000000;
#CREDIT:;
#NOTES:
// measure 0
00000000
00000000
00000000
00000000
,  // measure 1
00000000
00000000
00000000
00000000
,  // measure 2
00000000
00000000
00000000
00000000
,  // measure 3
10000000
01000000
00100000
00000000
00010000
00000000
01000000
00100000
,  // measure 4
10000000
00000000
01000000
00000000
00100000
00001000
00010000
00000000
,  // measure 5
00100000
00000000
00000000
00000000
10000000
00000000
01000000
00000000
00010000
00000000
00000000
00001000
00000000
00000000
00000000
00000000
,  // measure 6
00011000
00000000
00000100
00001000
00000000
00000000
00000100
00000000
,  // measure 7
00001000
00000011
00000000
00000000
00000101
00000000
00000010
00000000
,  // measure 8
00001000
00001100
00000100
00010000
,  // measure 9
00011000
00000000
00001000
01000000
00000000
00000000
00010000
00000000
,  // measure 10
01000000
10100000
00000000
00000000
00110000
00000000
00000000
11000000
,  // measure 11
00000000
00000000
00000000
00000000
00000000
00000000
00000000
00000000
00010000
00000000
00000000
00001000
00000000
00000000
00010000
00000000
,  // measure 12
00000010
00000000
00000010
00001000
00000000
00000100
00000000
00000010
,  // measure 13
00000001
00000000
00001000
00000100
00001000
00000000
00000010
00000001
,  // measure 14
00000000
00001000
00000000
00000100
00000010
00000000
00010000
00001000
,  // measure 15
00010000
00000000
00100000
10000000
00000000
01000000
00000000
00100000
,  // measure 16
00010000
00000000
10000000
00100000
10000000
00000000
00100000
00010000
,  // measure 17
00000000
10000000
00000000
01000000
00010000
00000000
01000000
00001000
,  // measure 18
00010000
00000000
00010010
00000000
00001010
00000000
00000001
00000010
,  // measure 19
00000011
00000000
00000100
00001000
00001100
00000000
00001010
00000000
,  // measure 20
00010000
00001000
00011000
00000000
00010100
00000000
00011000
00000000
,  // measure 21
01000000
00000000
01010000
00000000
01100000
00000000
10000000
01000000
,  // measure 22
01100000
00000000
00010000
00000000
10010000
00000000
10100000
10000000
,  // measure 23
00000000
01000000
01100000
00000000
00110000
00000000
00011000
00000000
,  // measure 24
00002000
00000000
00000000
00023000
,  // measure 25
00000000
00000000
00032000
00000000
,  // measure 26
00000000
00023000
00000000
00000000
,  // measure 27
00032000
00000000
00000000
00203000
,  // measure 28
00000000
00000000
00302000
00000000
,  // measure 29
00000000
00023000
00000000
00000000
,  // measure 30
00030010
00001000
00000010
00000000
00001000
00000000
00000001
00000010
,  // measure 31
00000100
00000000
00001000
00000000
00000010
00001000
00000010
00000000
,  // measure 32
00001000
00000001
00000010
00000000
00000011
00000000
00000011
00000000
,  // measure 33
00000010
00000100
00000010
00000000
00001001
00000000
00001000
00000010
,  // measure 34
00000100
00000000
00000100
00000001
00001000
00000000
00001100
00000000
,  // measure 35
00000100
00010000
00001000
00000000
00011000
00000000
00110000
00000000
,  // measure 36
00100000
00010000
00100000
00000000
00010000
00000000
10000000
00100000
,  // measure 37
01000000
00000000
00010000
00000000
00100000
00010000
00100000
00000000
,  // measure 38
00010000
10000000
00100000
00000000
10100000
00000000
10100000
00000000
,  // measure 39
00100000
01000000
00100000
00000000
10010000
00000000
00010000
00100000
,  // measure 40
01000000
00000000
01000000
10000000
00010000
00000000
01010000
00000000
,  // measure 41
01000000
00001000
00010000
00000000
00011000
00000000
00010010
00000000
,  // measure 42
00000010
00001000
00001010
00000000
00001010
00000000
00000001
00000010
,  // measure 43
00000011
00000100
00000110
00000110
,  // measure 44
00000100
00001000
00001100
00000000
00000011
00000000
00001010
00000000
,  // measure 45
00010000
00001000
00010000
00001000
,  // measure 46
00020000
00002000
00000000
00030000
,  // measure 47
00003000
00010000
00000000
00010000
00001000
00000000
00010000
00001000
00010000
00000000
00010000
00001000
,  // measure 48
00100000
00010000
00100000
00010000
01000000
00010000
00100000
00010000
,  // measure 49
10000000
00100000
10000000
00100000
10000000
01000000
10000000
00100000
,  // measure 50
10000000
00010000
00100000
00010000
00100000
00001000
00100000
00010000
,  // measure 51
01000000
00001000
00100000
00010000
10000000
00100000
10000000
00100000
,  // measure 52
10000000
01000000
10000000
01000000
00010000
01000000
00010000
01000000
,  // measure 53
00010000
00001000
00010000
00000100
00010000
00001000
00010000
00000010
,  // measure 54
00001000
00000010
00001000
00000010
00001000
00000100
00001000
00000010
,  // measure 55
00001000
00000001
00000010
00000001
00000010
00000001
00000100
00000001
,  // measure 56
00000010
00000001
00001000
00000010
00001000
00000010
00010000
00000010
,  // measure 57
00001000
00000100
00010000
00001000
00010000
00000010
00001000
00000010
,  // measure 58
00001000
00000001
00000100
00000001
00000100
00001000
00000100
00001000
,  // measure 59
00010000
00001000
00010000
00000000
00011000
00000000
00011000
00000000
,  // measure 60
00010000
00100000
01000000
10000000
10010000
00000000
10000000
00100000
,  // measure 61
01100000
00000000
01000000
00010000
00100000
00000000
00001000
00000000
,  // measure 62
00011000
00010000
00001100
00000100
,  // measure 63
00000110
00000000
00000001
00000100
00000001
00000000
00001000
00000100
,  // measure 64
00001000
00000011
00000001
00001010
,  // measure 65
00000100
00000010
00010010
00010000
,  // measure 66
00001000
00001000
01000000
00100000
10000000
01000000
10000000
10000000
,  // measure 67
00100000
01000000
00010000
01000000
00010000
00010000
00100000
00001000
,  // measure 68
00010000
00001000
00010000
00010000
00000010
00000100
00000001
00000010
,  // measure 69
00000001
00000001
00000010
00000100
00000010
00000100
00001000
00001000
,  // measure 70
00000010
00000100
00000010
00000100
00000001
00000001
00000010
00000100
,  // measure 71
00010000
00001000
00100000
00001000
00010000
00001000
00100000
00010000
,  // measure 72
10000000
01000000
00100000
00010000
,  // measure 73
01000000
00010000
10000000
00100000
,  // measure 74
01000000
00001000
00010000
00001000
,  // measure 75
00010000
00000010
00000100
00000001
,  // measure 76
00000010
00000001
00001000
00000010
,  // measure 77
00000100
00001000
00010000
00100000
,  // measure 78
10000000
01000000
01100000
00000000
11000000
00000000
00010000
01000000
,  // measure 79
01100000
00010000
00110000
00011000
,  // measure 80
00010000
00011000
00001100
00001001
,  // measure 81
00000001
00000100
00000110
00000000
00000101
00000000
00000001
00000010
,  // measure 82
00000110
00000001
00001010
00000011
,  // measure 83
00000001
00001001
00010100
00101000
,  // measure 84
10010000
00000000
00000000
00000000
;
