#TITLE:eRAseRmOToRpHAntOM;
#SUBTITLE:;
#ARTIST:L.E.D.-G VS GUHROOVY;
#TITLETRANSLIT:;
#SUBTITLETRANSLIT:;
#ARTISTTRANSLIT:;
#GENRE:HARDCORE;
#CREDIT:;
#MUSIC:eRAseRmOToRpHAntOM.ogg;
#BANNER:eRAseRmOToRpHAntOM.png;
#BACKGROUND:eRAseRmOToRpHAntOM-bg.png;
#CDTITLE:;
#SAMPLESTART:43.892;
#SAMPLELENGTH:15.000;
#SELECTABLE:YES;
#OFFSET:2.320;
#BPMS:0.000=135.000
,104.000=270.000
;
#STOPS:;
#BGCHANGES:5.000=eRAseRmOToRpHAntOM.avi=1.000=0=0=1,
99999.000=-nosongbg-=1.000=0=0=0=StretchNoLoop====
;
#FGCHANGES:;

//--------------- dance-single - forcednature ----------------
#NOTES:
     dance-single:
     forcednature:
     Beginner:
     8:
     0,0,0,0,0:
0000
0000
0000
0000
,
0000
0000
0000
0000
,
0000
0000
0000
0000
,
0000
0000
0000
0000
,
1001
0000
0000
0000
,
0010
0100
0010
0000
,
1001
0000
0010
0000
,
1000
0001
1000
0001
,
1001
0000
0010
0000
,
0110
0100
0000
0010
,
1001
0000
0001
0000
,
1000
1000
1000
0000
,
0001
0100
0001
0000
,
1000
0100
1000
0000
,
1001
0001
0001
0000
,
0010
0100
0010
0000
,
0001
0100
0001
0000
,
1000
0100
1000
0000
,
0110
0000
0001
1000
,
0001
0000
1000
0100
,
0110
0000
1000
0001
,
1000
0000
0001
0100
,
0110
0010
0010
0010
,
0110
0010
0010
0010
,
1001
1000
1001
0001
,
2002
0000
3003
0000
,
1000
0000
1000
0000
,
0001
0000
0000
0000
,
0001
0000
0001
0000
,
1000
0000
0000
0000
,
0010
0000
0100
0000
,
0010
0000
1000
0000
,
0001
0000
0010
0000
,
0100
0000
0000
0000
,
0010
0000
0001
0000
,
0010
0000
0000
0000
,
0100
0000
1000
0000
,
0100
0000
0000
0000
,
0010
0000
0001
0000
,
1000
0000
0010
0000
,
1000
0000
0001
0000
,
0100
0000
0000
0000
,
0001
0000
0001
0000
,
1000
0000
0000
0000
,
1000
0000
1000
0000
,
0001
0000
0000
0000
,
1000
0000
0100
0000
,
0010
0000
0001
0000
,
1000
0000
0010
0000
,
0100
0000
0001
0000
,
1000
0000
0010
0000
,
0001
0000
0000
0000
,
0001
0000
0010
0000
,
1000
0000
0000
0000
,
0001
0000
0100
0000
,
1000
0000
0100
0000
,
0010
0000
0100
0000
,
0110
0000
0000
0000
,
1001
0000
0000
0010
,
0000
0010
0000
0000
,
1001
0000
0000
0100
,
0000
0100
0000
0000
,
0110
0000
0000
1000
,
0000
1000
0000
0000
,
0110
0000
0000
0001
,
0000
0001
0000
0000
,
1001
0000
1000
0000
,
0000
0000
1000
0000
,
0000
0000
0001
0000
,
0000
0000
0001
0000
,
0000
0000
1000
0000
,
0000
0000
0001
0000
,
0000
0000
1000
0000
,
0001
0000
0100
0000
,
0110
0000
0010
0000
,
0010
0000
0000
0000
,
1000
1000
1000
0000
,
1000
0000
0000
0000
,
0001
0001
0001
0000
,
0001
0000
0000
0000
,
1000
1000
1000
0000
,
1000
0000
0000
0000
,
0110
0000
0010
0000
,
0010
0000
0010
0000
,
0110
0000
0100
0000
,
0100
0000
0100
0000
,
1001
0000
0100
0000
,
1001
0000
0010
0000
,
1001
0000
1001
0000
,
1001
0000
0000
0000
,
2002
0000
0000
0000
,
0000
0000
0000
0000
,
0000
0000
0000
0000
,
0000
0000
0000
0000
,
0000
0000
0000
0000
,
0000
0000
3003
0000
,
1001
0000
0100
0000
,
0010
0010
0010
0000
,
0100
0000
1001
0000
,
0001
0000
1000
0000
,
0010
0000
0110
0000
,
1000
0000
0001
0000
,
0010
0000
1001
0000
,
0001
0000
0100
0000
,
0010
0000
1000
0000
,
1001
0000
0000
0000
,
0010
0010
0010
0000
,
0100
0000
0001
0000
,
1000
1000
1000
0000
,
0100
0000
0010
0000
,
0001
0001
0001
0000
,
0100
0000
0001
0000
,
0100
0100
0100
0000
,
0010
0000
1000
0000
,
0001
1000
0001
0000
,
0010
0000
0100
0000
,
1000
0001
1000
0000
,
0010
0000
0100
0000
,
0010
0100
0010
0000
,
1000
0000
0001
0000
,
0010
0100
0010
0000
,
0001
0000
1000
0000
,
0001
0001
0001
0000
,
1000
1000
1000
0000
,
0001
0100
0001
0000
,
1000
0100
1000
0000
,
0010
0100
0010
0000
,
0100
0010
0100
0000
,
0001
0001
1000
1000
,
0100
0010
0100
0000
,
2002
0000
0000
0000
,
0000
0000
0000
0000
,
0000
0000
0000
0000
,
0000
0000
0000
0000
,
3003
0000
0000
0000
;

//--------------- dance-single - forcednature ----------------
#NOTES:
     dance-single:
     forcednature:
     Easy:
     10:
     0,0,0,0,0:
0000
0000
0000
0000
,
0000
0000
0000
0000
,
0000
0000
0000
0000
,
0000
0000
0000
0000
,
1001
0000
0001
0000
0100
0010
0100
0000
,
0001
1000
0100
0000
0010
0010
0010
0000
,
0110
0000
1000
0000
0100
1000
0001
0000
,
1000
0010
1000
0000
0001
0010
0100
0100
,
0110
0000
0001
0000
1000
0001
0100
0000
,
0110
0000
1001
0000
1000
0010
1000
0000
,
0100
0100
0100
0000
0010
0001
0100
0000
,
0110
0000
0010
0000
1000
0001
1000
0000
,
1100
0000
0100
0000
0010
0001
0100
0000
,
0110
0000
0000
0000
0010
0000
1001
0000
0000
0000
0010
0000
0000
0010
0000
0000
,
0110
0000
1001
0000
1000
0100
0010
0000
,
0100
0100
0100
0000
0010
0001
0100
0000
,
0101
0000
1100
0000
0010
1000
0001
0000
,
0110
0000
0000
0000
1000
0000
0001
0000
0000
0100
0000
0000
0110
0000
0000
0000
,
0001
1000
0001
0000
0010
0000
0100
0000
,
1000
0010
1000
0000
0100
0000
0010
0000
,
0001
0100
0001
0000
0010
0000
1000
0000
,
0010
0100
0010
0000
0001
0000
0100
0000
,
1010
1010
1010
1010
,
0011
0011
0011
0011
,
1100
0101
1100
0101
,
2002
0000
0000
3003
,
0001
0000
0100
0000
0000
0001
0000
0000
,
1000
0000
0000
0010
0000
0000
1000
0000
,
0001
0000
1000
0000
0000
0100
0000
0000
,
0010
0000
0010
0000
0000
0001
0000
0000
,
0000
0000
0100
0000
0000
0010
0000
0000
,
0100
0000
0000
1000
0000
0000
0100
0000
,
0000
0000
0001
0000
0000
0010
0000
0000
,
0100
0000
0000
0010
0000
0000
0001
0000
,
1000
0000
0001
0000
0000
0100
0000
0000
,
0010
0000
0000
1000
0000
0000
0001
0000
,
0010
0000
0100
0000
0000
0010
0000
0000
,
0001
0000
0100
0000
0010
1000
0000
0000
,
0000
0000
0001
0000
0000
0001
0000
0000
,
1000
0000
0000
1000
0000
0000
0100
0000
,
0010
0000
0000
0001
0000
0000
0010
0000
,
0000
1000
0000
0000
0010
0000
0100
0000
,
1000
0000
0001
0000
0000
1000
0000
0000
,
0010
0000
0000
0100
0000
0000
0001
0000
,
0010
0000
0100
0000
0000
0010
0000
0000
,
0001
0000
0100
0000
0000
0010
0000
0000
,
0000
0000
1000
0000
0000
0001
0000
0000
,
1000
0000
0000
0100
0000
0000
0010
0000
,
0000
1000
0000
0000
0010
0000
0000
0001
,
0000
0000
1000
0000
0000
0010
0000
0000
,
0100
0000
0001
0000
0000
0010
0000
0000
,
0100
0000
0000
0010
0000
0000
0001
0000
,
0100
0000
0010
0000
0000
1000
0000
0000
,
0001
0000
0010
0000
0000
0100
0000
0000
,
0000
0000
1000
0000
0000
1000
0000
0000
,
0010
0000
0000
0010
0000
0000
0100
0000
,
1000
0100
0001
0100
,
0010
0000
0000
0000
,
1001
0000
1000
0010
,
0100
0100
0100
0000
,
1001
0000
0001
0010
,
0100
0010
0001
0000
,
0100
0100
0100
0000
,
0010
0010
0010
0000
,
1000
0100
0001
0000
,
0100
0010
0001
0000
,
1001
0000
0110
0000
,
1000
0010
0001
0000
,
0010
0010
0100
0010
,
0100
0001
1000
0000
,
0110
0000
1001
0000
,
0001
0010
0100
0000
,
0010
0010
0100
0010
,
0001
1000
0010
0000
,
1000
0001
1000
1000
,
0001
1000
0001
0000
,
0100
0001
0100
0100
,
0001
0100
0001
0000
,
1000
0100
1000
1000
,
0100
1000
0100
0000
,
0010
0100
0010
0010
,
0100
0010
0100
0000
,
0110
0000
1000
0001
,
0100
0010
1000
0000
,
0110
0000
0001
1000
,
0100
0010
0001
0000
,
1100
0000
0010
0000
,
0101
0000
0010
0000
,
1000
0001
1000
0001
,
0100
0100
0100
0000
,
2002
0000
0000
0000
,
0000
0000
0000
0000
,
0000
0000
0000
0000
,
0000
0000
0000
0000
,
0000
0000
0000
0000
,
0000
0000
0000
3003
,
1001
0000
0010
0000
,
1001
1001
0100
0000
,
1000
0010
1000
0010
,
0100
0001
0100
0000
,
0001
0010
0001
0010
,
0100
1000
0100
0000
,
0010
0001
1000
0010
,
1000
0001
0010
0000
,
0100
0100
0100
1000
,
1001
0000
0010
0000
,
0110
0000
0001
1000
,
0010
0100
0001
1000
,
0100
0000
0010
0001
,
1000
0010
1000
0001
,
0010
0000
0100
0010
,
0001
0100
0010
1000
,
0001
0000
0100
1000
,
0100
0010
0100
0001
,
1001
0000
0001
1000
,
0100
0010
0100
1000
,
0010
0000
0100
0001
,
0010
0001
1000
0010
,
0100
0000
0001
0010
,
0100
0010
0001
0100
,
0010
0000
0000
1000
0000
0000
0001
0000
,
0000
0010
0000
0000
0100
0000
0010
0000
,
0001
0000
0000
0011
0000
0000
1100
0000
,
0000
1000
0000
0000
0010
0000
0100
0000
,
0001
0000
0000
0110
0000
0000
1001
0000
,
0000
1000
0000
0000
0010
0000
0100
0000
,
0101
0000
0000
0100
0000
0000
0001
0000
,
1100
0000
0000
0100
0000
0000
1000
0000
,
1001
0001
1000
1000
,
0110
0100
0010
0100
,
2002
0000
0000
0000
,
0000
0000
0000
0000
,
0000
0000
0000
0000
,
0000
0000
0000
0000
,
3003
0000
0000
0000
;

//--------------- dance-single - forcednature ----------------
#NOTES:
     dance-single:
     forcednature:
     Medium:
     12:
     0,0,0,0,0:
0000
0000
0000
0000
,
0000
0000
0000
0000
,
0000
0000
0000
0000
,
0000
0000
0000
0000
,
1001
0000
0110
0000
1000
1000
0010
0000
,
1000
0000
0001
0010
0001
0000
0000
0000
0100
0000
0010
1000
0001
0000
0001
0000
,
1100
1000
0001
0000
1100
1000
0001
0000
,
0100
0000
1000
0000
0100
0000
0010
0000
0100
0000
0001
0000
1000
0001
1000
0001
,
0010
0001
1000
0000
0011
0001
1000
0000
,
0101
0000
1000
0000
0010
0000
0000
0000
0100
0000
0100
0000
0001
1000
0001
1000
,
0001
0010
0100
0010
0001
0100
0010
0000
,
0001
0010
1000
0001
1000
0100
0010
0000
,
1000
0010
0001
0100
0010
0001
0010
0000
,
0100
0000
0001
0000
1000
0000
0100
0000
0000
0000
0110
0000
0000
1001
0000
0000
,
0110
1000
0001
1000
0010
0100
0001
0000
,
0100
1000
0100
0010
1000
0100
0001
0000
,
0100
0010
0001
1000
0010
0001
0010
0000
,
0100
0000
0001
0000
0010
0000
0110
0000
0000
1100
0000
0000
0101
0000
0000
0000
,
1000
0001
0200
0000
1000
0000
0301
0100
,
0010
0001
0010
1000
0200
0000
0301
0100
,
0010
0001
1000
0010
0200
0000
1300
0100
,
0010
1000
0001
1000
0200
0000
0301
0100
,
0110
1001
1001
1001
,
0110
1001
1001
1001
,
0110
1001
0110
1001
,
0220
0000
0330
0000
0100
0100
0010
0000
,
1001
0000
0001
0000
0100
0001
0000
0000
,
1000
0000
0000
0100
0000
0000
0010
0000
,
0100
0000
1000
0000
0001
0100
0000
0000
,
0010
0000
1000
0000
0001
0010
0000
0000
,
0000
0000
0200
0000
0000
0320
0000
0000
,
0032
0000
0000
2003
0000
0000
3020
0000
,
0000
0030
0200
0000
0000
0302
0000
0000
,
2003
0000
0000
3200
0000
0000
0320
0000
,
0031
0000
0100
0000
0010
1000
0000
0000
,
0001
0000
0000
1000
0000
0000
0100
0000
,
0010
0000
0001
0000
1000
0010
0000
0000
,
0100
0000
0100
0000
0001
1000
0000
0000
,
0000
0000
0000
0000
0200
0000
0000
0300
0000
0000
0200
0000
0000
0300
0000
0000
,
0002
0000
0000
0003
0000
0000
0002
0000
0000
0003
0000
0000
0200
0000
0000
0000
,
0320
0000
0000
0032
0000
0000
2003
0000
,
0000
3020
0000
0000
0230
0000
0302
0000
,
1003
0000
0100
0000
1000
0001
0000
0000
,
0100
0000
0000
0010
0000
0000
1000
0000
,
0001
0000
0010
0000
0100
0010
0000
0000
,
0001
0000
1000
0000
0001
0100
0000
0000
,
0000
0000
0020
0000
0000
2030
0000
0000
,
3002
0000
0000
0023
0000
0000
2030
0000
,
0000
3020
0000
0000
0230
0000
0000
2300
,
0000
0000
3002
0000
0000
0203
0000
0000
,
0310
0000
1000
0000
0001
0010
0000
0000
,
0100
0000
0000
0010
0000
0000
0001
0000
,
0100
0000
0010
0000
1000
0001
0000
0000
,
1000
0000
0100
0000
0010
0001
0000
0000
,
0100
0000
0010
0000
1000
0001
0000
0000
,
0010
0000
0000
0001
0000
0000
0100
0000
,
0010
0000
0010
0000
1000
0001
1000
0000
,
0200
0000
0000
0000
,
0310
0000
0011
0000
,
0100
0100
1100
0000
,
1000
0001
0100
1000
,
0100
0100
0010
0000
,
1000
0000
0101
0000
,
0010
0010
1010
0000
,
0100
0100
0001
1000
,
0100
0100
0010
0000
,
0110
0000
1001
0000
,
1000
0100
0110
0000
,
0100
1000
0100
0001
,
0100
1000
0100
0000
,
0110
0000
1001
0000
,
0001
0100
0110
0000
,
0100
0001
0100
1000
,
0100
0100
0020
0000
,
1030
0100
0010
0010
,
0010
0010
0010
0000
,
0001
0100
0010
0010
,
0010
0010
0010
0000
,
1000
0001
0100
0100
,
0100
0100
0100
0000
,
0001
1000
0100
0100
,
0100
0100
0100
0000
,
0011
0000
0001
0100
,
1000
0100
0001
1000
,
1010
0000
1000
0100
,
0001
0100
1000
0001
,
0011
0000
0001
1000
,
1010
0000
1000
0001
,
0011
0000
1001
0000
,
0220
0000
0000
0330
,
2002
0000
0000
0000
,
0000
0000
0000
0000
,
0000
0000
0000
0000
,
0000
0000
0000
0000
,
0000
0000
0000
0000
,
0000
0000
0000
3003
,
1001
0000
0200
0300
,
0110
0110
0020
0030
,
1001
0001
0100
0010
,
1000
0001
1000
0100
,
0010
0100
1000
0010
,
0100
0001
0010
0100
,
0010
0001
0100
0010
,
1000
0001
0010
0100
,
1000
0010
0100
0001
,
2002
0000
3003
0000
,
0001
0000
0100
0000
0001
0100
0000
0010
,
0000
1000
0002
0000
,
1003
0000
0100
0000
1000
0100
0000
0010
,
0000
0001
2000
0000
,
3001
0000
0100
0000
0010
1000
0000
0001
,
0000
1000
0200
0000
,
1300
0000
0100
0000
0010
0001
0000
1000
,
0000
0001
0200
0320
,
1030
0000
0001
0000
0010
0100
0000
0010
,
0000
0001
2000
0000
,
3001
0000
1000
0000
0010
0100
0000
0010
,
0000
1000
0002
0000
,
1003
0000
0100
0000
0010
0001
0000
1000
,
0000
0001
0200
0000
,
0310
0000
0000
1001
0000
0000
0110
0000
,
0000
1000
0000
0000
0001
0000
1000
0000
,
0100
0000
0010
0001
0000
0010
0001
0000
,
0000
1000
0000
0000
0001
0000
0001
0000
,
0100
0000
0010
1000
0000
0010
1000
0000
,
0000
0001
0000
0000
1000
0000
1000
0000
,
0100
0000
0010
0001
0000
0010
0001
0000
,
0100
0010
1000
0001
,
1000
0100
1000
0000
0001
0100
0001
0000
,
0020
0100
0100
0130
,
2002
0000
0000
0000
,
0000
0000
0000
0000
,
0000
0000
0000
0000
,
0000
0000
0000
0000
,
3003
0000
0000
0000
;

//--------------- dance-single - forcednature ----------------
#NOTES:
     dance-single:
     forcednature:
     Hard:
     14:
     0,0,0,0,0:
0000
0000
0000
0000
,
0000
0000
0000
0000
,
0000
0000
0000
0000
,
0000
0000
0000
0000
,
1001
0000
1000
0000
0010
0010
0010
0000
,
0100
0000
0000
0100
0001
0000
0000
0001
1000
0000
0000
1000
0100
0000
0100
0000
,
0010
0001
0000
0100
0001
0000
0000
0000
1000
0010
0000
1000
0100
0000
0000
0000
,
0010
0000
0001
1000
0001
0000
0100
0000
0010
0000
0010
0000
1000
0001
1000
0001
,
0010
0100
0000
0100
1000
0000
0000
0000
0010
0100
0000
0100
0001
0000
0000
0010
,
0100
1000
0010
0000
0100
0000
0000
0000
0001
0000
0001
0000
1000
0100
1000
0100
,
0010
0000
0100
0000
1000
0000
0010
0100
0010
0000
1000
0001
1000
0000
0000
0000
,
0100
0000
0010
0000
0001
0000
0100
0001
0000
1000
0010
0000
1000
0000
0000
0001
,
0010
0000
0100
0000
0010
0000
0001
0000
1000
0010
0000
0100
0001
0000
0000
1000
,
0100
0000
0010
0000
0100
0000
1000
0000
0000
0000
1010
0000
0000
0101
0000
0000
,
1000
0001
0000
0010
0001
0000
0100
0001
0000
1000
0010
0000
1000
0000
0000
0100
,
0010
0000
0100
0000
1000
0000
0010
0100
0010
0000
1000
0000
0001
0000
0000
0000
,
0100
0001
0000
0010
0001
0000
1000
0100
0000
1000
0010
0000
0100
0000
0000
1000
,
0100
0000
0010
0000
0100
0000
0100
0000
0001
0010
0001
0000
0100
0000
0000
0000
,
0010
1000
0010
0100
0002
0000
0000
0000
0010
0000
0000
0000
1003
0000
0001
0000
,
1000
0100
1000
0000
0001
0000
0010
0001
0020
0000
0000
0000
0130
0000
0010
0000
,
0001
1000
0001
0000
0100
0000
0010
1000
0020
0000
0000
0000
0130
0000
0010
0000
,
1000
0001
1000
0000
0100
0000
0010
0001
0020
0000
0000
0000
0130
0000
0010
0000
,
0011
0001
0001
0001
0001
0001
0001
0001
,
1010
1000
1000
1000
1000
1000
1000
1000
,
0101
0001
0001
0001
1100
1000
1000
1000
,
2002
0000
0000
0000
3003
0000
0000
0000
0001
1000
0001
1000
0100
0000
0000
0000
,
0110
0000
0010
0000
0001
0010
0000
0000
,
0001
0000
1000
0010
0000
0000
1000
0000
,
0001
0000
0100
0000
0010
1000
0000
0000
,
0100
0000
0100
0000
0010
0001
0010
0000
,
0100
0000
1000
0000
0001
0100
0000
0001
,
0100
0000
0010
1000
0000
0010
1000
0000
,
0001
0000
1000
0000
0100
1000
0000
0100
,
1000
0000
0001
0010
0000
0001
0010
0000
,
0100
0000
0010
0000
0001
1000
0000
0000
,
0100
0000
1000
0010
0000
0000
0100
0000
,
0001
0000
0010
0000
0100
0010
0000
0000
,
0001
1000
0001
0000
0100
0000
0010
1000
,
0100
0000
0010
0000
0000
0011
0000
0000
,
0100
0000
0000
1100
0000
0000
0001
0000
,
1000
0000
0001
1000
0000
0100
1000
0000
,
0001
1000
0000
0010
1000
0000
0001
0000
,
0100
0000
0001
0000
0010
0100
0000
0000
,
0010
0000
0001
0100
0000
0000
0010
0000
,
1000
0000
0100
0000
0001
0100
0000
0000
,
0010
0000
0010
0000
0001
1000
0001
0000
,
0100
0000
0010
0000
1000
0100
0000
1000
,
0100
0000
0010
0001
0000
0010
0001
0000
,
0100
0001
0000
1000
0001
0000
1000
0010
,
0000
1000
0100
0000
0010
0001
0000
0000
,
1001
0000
0001
0000
0010
0100
0000
0000
,
1000
0000
0010
0100
0000
0000
0001
0000
,
1001
0000
1000
0000
0100
0010
0000
0000
,
0100
1000
0100
0000
0010
0000
0001
1000
,
0001
0000
0100
0000
0010
1000
0000
0001
,
1000
0000
0001
0010
0000
0001
1000
0000
,
0100
0000
0010
0000
0001
1000
0001
0000
,
0100
0000
0000
0000
,
0110
0000
0000
0011
,
0000
1010
0000
0000
1001
0000
0000
0000
,
0110
0000
0000
1010
,
0000
0011
0000
0000
1001
0000
0000
0000
,
0110
0000
0000
0101
,
0000
1100
0000
0000
1001
0000
0000
0000
,
0110
0000
0000
1100
,
0000
0101
0000
0000
1001
0000
0000
0000
,
1010
0010
0100
0101
,
0000
1010
0000
0000
1001
0000
0000
0000
,
0011
0010
0100
1100
,
0000
0011
0000
0000
1001
0000
0000
0000
,
0101
0100
1000
1100
,
0000
0110
0000
0000
0101
0000
0000
0000
,
1001
0000
0000
0000
0100
0010
0100
0010
,
0200
0010
0310
0000
,
1001
0001
0100
0010
,
1000
0100
0010
0001
,
0100
0100
1000
1000
,
0100
0100
0001
0001
,
0010
0100
0010
0001
,
1000
0010
0001
0010
,
0100
0100
0001
0001
,
1000
1000
0100
0100
,
0010
0001
0010
0000
0100
0000
1000
0000
,
0010
0100
0001
1000
,
0100
0010
0100
0000
1000
0000
0001
0000
,
0100
1000
0100
0010
,
1000
0010
1000
0000
0001
0000
0010
0000
,
0100
1000
0100
0000
0010
0000
0001
0000
,
0100
0001
0100
0001
1000
0100
1000
0100
,
0020
0000
0000
0000
,
0230
0000
0001
0000
,
0000
0000
0010
0000
,
0000
0000
1000
0000
,
0000
0000
0010
0000
,
0000
0000
0001
0000
,
0000
0000
1300
0000
,
0110
0000
0000
0000
1000
0001
1000
0001
,
1000
1000
0010
0000
,
0110
0100
0101
0001
,
1000
0100
0110
0010
,
0100
1000
1010
0010
,
0100
0001
1001
1000
,
0100
0010
0011
0001
,
0100
0010
1010
1000
,
0001
0010
0110
0100
,
2002
0000
3003
0000
,
0001
0000
0100
0000
0010
1000
0000
0010
,
1000
0000
0001
0010
0200
0000
0000
0000
,
1300
0000
0100
0000
0010
0001
0000
0010
,
0001
0000
1000
0010
0200
0000
0000
0000
,
0301
0000
1000
0000
0100
0010
0000
0100
,
0010
0000
0001
0100
0020
0000
0000
0000
,
1030
0000
0001
0000
1000
0100
0000
0010
,
0001
0000
1000
0001
0200
0000
0320
0000
,
1030
0000
0001
0000
0100
0010
0000
1000
,
0001
0000
0010
0100
2000
0000
3002
0000
,
0103
0000
0010
0000
1000
0100
0000
0010
,
0100
0000
1000
0001
0200
0000
0320
0000
,
1030
0000
0001
0000
0010
0100
0000
0010
,
0001
0000
1000
0001
0200
0000
0320
0000
,
1030
0000
0100
0010
0000
0100
1000
0000
,
0001
0010
0000
0100
0010
0001
0010
0000
,
1001
0000
0001
0100
0000
0100
0010
0000
,
0010
1000
0000
1000
0100
0000
0010
0000
,
1001
0000
1000
0100
0000
0100
0010
0000
,
0010
0001
0000
0001
0100
0000
0010
0000
,
1001
0000
0001
0100
0000
0010
1000
0000
,
0001
0010
0000
0100
1000
0000
0010
0000
,
0100
0001
0100
0001
1000
0100
1000
0100
,
1000
0001
1000
0001
1000
0001
1000
0001
,
0200
0000
0000
0000
,
0000
0000
0000
0000
,
0000
0000
0000
0000
,
0000
0000
0000
0000
,
0300
0000
0000
0000
;

//--------------- dance-single - forcednature ----------------
#NOTES:
     dance-single:
     forcednature:
     Challenge:
     16:
     0,0,0,0,0:
0000
0000
0000
0000
,
0000
0000
0000
0000
,
0000
0000
0000
0000
,
0000
0000
0000
0000
,
1001
0000
0001
0000
1000
0100
0010
0000
,
0001
0000
0100
0001
0100
0000
0010
1000
0001
0000
1000
0100
0010
0000
0010
0000
,
0100
1000
0000
0100
1000
0000
0000
0000
0001
0100
0000
0001
0100
0000
0010
0000
,
1000
0001
1000
0001
0010
0000
0100
1000
0100
0010
0001
0000
0100
0000
0100
0000
,
0010
1000
0000
0010
1000
0000
0000
0000
0001
0010
0000
0001
0010
0000
0100
1000
,
0100
0000
0010
0001
0100
0000
0000
0000
0010
0000
0010
0000
1000
0001
1000
0001
,
0100
0000
0100
0000
1000
0000
0100
0010
1000
0000
0100
0010
0001
0000
0000
0000
,
1000
0000
0010
0100
0001
0000
0010
0001
0000
1000
0100
0000
0010
0000
0000
0001
,
0100
0000
0010
1000
0001
0000
1000
0000
0100
0010
0000
0010
0001
0000
0000
0100
,
0001
0000
0010
0100
1000
0000
0110
0000
1000
0001
0100
0000
0010
1000
0001
0000
,
1000
0100
0000
0010
0100
0000
0010
0001
0000
1000
0001
0000
0100
0000
0000
0100
,
0001
0000
1000
0000
0100
0000
0010
0001
0010
0001
0100
0000
0100
0000
0000
0000
,
0010
1000
0000
0001
1000
0000
0001
0100
0000
0010
0100
0000
1000
0000
0000
0100
,
0001
0000
0010
0000
0011
0000
1100
0000
1000
0001
0100
0000
0010
1000
0010
1000
,
0001
1000
0100
0000
0020
0000
0000
0000
0100
0000
0000
0000
0130
0000
0010
0000
,
0001
1000
0001
0000
0100
0000
0010
1000
0020
0000
0000
0000
0130
0000
0010
0000
,
1000
0001
1000
0000
0100
0000
0010
0001
0020
0000
0000
0000
0130
0000
0010
0000
,
0001
1000
0001
0000
0100
0000
0010
1000
0020
0000
0000
0000
0130
0000
0010
0000
,
1001
1000
0001
0001
0100
0100
0010
0010
,
1001
0001
1000
1000
0100
0100
0010
0010
,
0011
0001
0100
0100
1010
1000
0100
0100
,
2002
0000
0000
0000
3003
0000
0000
0000
0100
0010
0100
0010
0100
0000
0000
0000
,
1001
0000
0001
0000
0100
0010
1000
0000
,
0100
0000
0010
0001
0100
0000
0010
0000
,
0001
0000
0010
0000
1000
0001
0010
0000
,
0100
0000
0001
0100
1000
0100
0010
0000
,
0001
0000
0100
0000
0010
1000
0000
1000
,
0001
0000
0001
0010
0000
0010
0100
0000
,
0010
0000
0001
0000
1000
0010
0000
0010
,
0100
0000
0100
0001
0000
0001
1000
0000
,
1001
0000
0001
0000
0010
0100
1000
0000
,
0010
0000
0001
0010
0100
0000
0001
0000
,
1000
0000
0100
0000
0001
0100
0010
0000
,
0001
0100
0010
0000
0001
0000
0010
1000
,
0001
0000
1001
0000
0000
0101
0000
0000
,
1100
0000
0000
1001
0000
0000
0110
0000
,
1000
0000
1000
0010
0000
0010
0100
0000
,
0100
0001
0000
0001
0010
0100
0010
0100
,
1000
0000
0010
0000
0100
0001
0010
0100
,
1000
0000
0010
0100
0001
0000
1000
0000
,
0100
0000
0001
0000
0100
0010
0001
1000
,
0001
0000
0100
0010
1000
0001
0010
0000
,
0100
0000
1000
0000
0001
0100
0000
0100
,
1000
0000
1000
0100
0000
0100
0010
0000
,
1000
0100
0000
0010
0100
0000
0010
0001
,
0000
1000
0001
0000
0100
0001
0000
0000
,
1001
0000
0001
0000
1000
0100
0010
0001
,
0100
0000
1000
0100
0010
1000
0001
0000
,
1001
0000
1000
0000
0001
0100
0010
1000
,
0100
0000
0001
0100
0010
0001
1000
0000
,
1001
0000
0001
0000
1000
0100
0010
0100
,
1000
0000
0001
0100
0010
0100
0001
0000
,
1001
0000
1001
0000
0100
0010
0100
0000
,
0220
0000
0000
0330
,
1001
0000
0001
0100
0001
0000
1010
0000
,
0000
0011
0000
0000
1100
0000
0000
0000
,
1000
0001
0010
0110
,
0000
1000
0001
1000
0010
0000
0000
0000
,
0101
0101
0000
1100
,
0000
0110
0000
0000
1001
0000
0000
0000
,
1000
0100
0001
0110
,
0000
0001
1000
0000
0001
0100
0001
0100
,
0010
1000
0000
0010
1000
0000
0001
1000
,
0000
0001
1000
0000
0100
0000
0000
0010
,
0001
0000
1000
0000
0001
0000
0100
0010
,
0000
0100
1000
0000
0100
0001
0100
0001
,
1000
0000
0100
1000
0010
0000
0100
0001
,
0010
0000
0100
0010
0001
0000
0100
0000
,
0010
0000
0010
0000
1000
0001
1000
0001
,
0010
0010
0200
0000
,
1300
0010
1000
0001
0200
0000
0010
0000
,
0010
0010
0310
0100
,
0001
1000
0001
0000
0010
0000
0100
1000
,
0020
0100
0130
0010
,
1000
0001
0010
0000
0100
0000
0010
0001
,
2000
0001
3001
1000
,
0010
0100
0001
0000
0010
0000
0100
0010
,
0002
0100
0103
0001
,
1000
0100
1000
0100
1000
0000
0010
0100
,
0010
0100
0001
0000
1000
0001
1000
0000
,
0001
0100
0001
0100
0001
0000
0010
0100
,
0010
0100
1000
0000
0001
1000
0001
0000
,
1000
0010
1000
0010
0100
0001
0100
0000
,
0001
0010
0001
0010
0100
1000
0100
0000
,
1000
0001
1000
0001
0100
0010
0100
0010
,
0200
0010
0010
0010
,
0320
0000
0000
1000
0000
0000
1000
0000
,
0000
1000
0000
0000
0100
0000
0000
0000
,
0000
0000
0000
0001
0000
0000
0001
0000
,
0000
0001
0000
0000
0100
0000
0000
0000
,
0000
0000
0000
1000
0000
0000
0100
0000
,
0000
0001
0000
0000
0100
0000
0030
0000
,
0110
0000
0000
0000
1000
0001
1000
0001
,
0010
0110
1001
0000
,
1001
0001
0101
0100
,
0010
1000
1001
0001
,
0010
0100
0110
0010
,
0001
0000
1000
0000
1001
0000
0001
0100
,
0010
1000
1100
0100
,
0010
0001
0100
0000
0101
0000
0001
0010
,
0100
0000
0010
0000
0001
0100
0010
1000
,
0001
0000
0000
0000
1000
0100
0010
0000
,
0110
0000
0100
0000
1000
0001
0100
0010
,
1000
0000
0001
0010
0100
0010
0001
0000
,
0100
0000
0010
0000
1000
0100
0010
0001
,
0100
0000
0010
1000
0001
1000
0100
0000
,
0010
0000
0001
0000
0100
1000
0100
0010
,
1000
0000
0001
0010
0100
1000
0100
0000
,
0010
0000
0001
0000
1000
0010
0100
0010
,
0001
0010
0100
0001
1000
0000
0100
0010
,
0001
0000
0100
0000
0001
0010
0100
0001
,
0100
0000
1000
0001
0100
0010
1000
0000
,
0001
0000
0010
0000
1000
0010
0100
1000
,
0001
0000
1000
0010
0100
0001
0100
0000
,
0010
0000
1000
0000
0001
0010
0100
0010
,
0001
0000
0100
0010
1000
0001
0010
0000
,
0100
1000
0100
0010
0100
1000
0001
0100
,
0001
1000
0010
1000
0001
0010
0100
0000
,
0010
0001
0010
0001
1000
0001
1000
0001
,
0100
0010
1000
0100
0010
0001
0100
0000
,
0010
1000
0010
1000
0001
1000
0001
1000
,
0100
0010
0001
0100
0010
1000
0100
0000
,
0010
0001
0100
0010
0100
0001
0010
0000
,
0100
1000
0010
0100
0010
1000
0100
0000
,
1000
0010
1000
0010
0100
0001
0100
0001
,
0010
0100
0010
1000
0010
0100
0010
0001
,
0200
0000
0000
0000
,
0000
0000
0000
0000
,
0000
0000
0000
0000
,
0000
0000
0000
0000
,
0300
0000
0000
0000
;

//--------------- dance-double - forcednature ----------------
#NOTES:
     dance-double:
     forcednature:
     Easy:
     11:
     0,0,0,0,0:
00000000
00000000
00000000
00000000
,
00000000
00000000
00000000
00000000
,
00000000
00000000
00000000
00000000
,
00000000
00000000
00000000
00000000
,
00011000
00000000
01000000
00000000
00010000
00010000
00010000
00000000
,
10000000
01000000
00100000
00000000
01000000
10000000
00100000
00000000
,
10010000
00010000
10010000
00010000
,
01000000
00001000
00010000
00000000
00000100
00010000
00001000
00001000
,
00000100
00000010
00000110
00000010
,
00001001
00000000
00001001
00000000
00000100
00010000
00000100
00010000
,
00001000
00000000
01001000
00000000
01000000
00010000
00100000
00000000
,
01000000
00000000
11000000
00000000
10000000
00010000
01000000
00000000
,
00001000
00000000
00011000
00000000
00010000
00000100
00001000
00000000
,
00000001
00000000
00000000
00000000
00000101
00000000
00000100
00000000
00000000
00000000
00000010
00000000
00000000
00000010
00000000
00000000
,
00001001
00000000
00001100
00000000
00000010
00010000
00001000
00000000
,
00100000
00001000
00010000
00000000
00100000
01000000
00010000
00000000
,
10010000
00000000
01100000
00000000
10000000
01000000
00100000
00000000
,
01100000
00000000
00000000
00000000
00100000
00000000
00001000
00000000
00000000
00010000
00000000
00000000
00010000
00000000
00000000
00000000
,
00011000
00010200
00000000
00001300
,
00000100
00000010
00000001
00000100
00000002
00000000
00000000
00000003
,
00001000
00000010
00010000
00001000
00020000
00000000
00000000
00030000
,
00100000
01000000
00010000
10000000
02000000
00000000
00000000
03000000
,
00101000
00101000
00101000
00101000
,
00010010
00010010
00010010
00010010
,
01001000
01001000
00010100
00010100
,
00022000
00000000
00000000
00033000
,
00001000
00000000
00010000
00000000
00000000
01000000
00000000
00000000
,
00100000
00000000
00000000
00010000
00000000
00000000
10000000
00000000
,
00100000
00000000
10000000
00000000
00000000
00010000
00000000
00000000
,
01000000
00000000
00001000
00000000
00000000
00010000
00000000
00000000
,
00000000
00000000
00000100
00000000
00000000
00000100
00000000
00000000
,
00001000
00000000
00000000
00001000
00000000
00000000
00000001
00000000
,
00000000
00000000
00000100
00000000
00000000
00000100
00000000
00000000
,
00000010
00000000
00000000
00000010
00000000
00000000
00001000
00000000
,
00000100
00000000
00000010
00000000
00000000
00000100
00000000
00000000
,
00010000
00000000
00000000
00001000
00000000
00000000
01000000
00000000
,
00010000
00000000
10000000
00000000
00000000
01000000
00000000
00000000
,
00100000
00000000
00010000
00000000
00000000
01000000
00000000
00000000
,
00000000
00000000
00001000
00000000
00000000
00001000
00000000
00000000
,
00010000
00000000
00000000
00010000
00000000
00000000
00000100
00000000
,
00001000
00000000
00000000
00000001
00000000
00000000
00000100
00000000
,
00000000
00000010
00000000
00000000
00001000
00000000
00000001
00000000
,
00000010
00000000
00000100
00000000
00000000
00001000
00000000
00000000
,
00000010
00000000
00000000
00010000
00000000
00000000
00001000
00000000
,
00100000
00000000
00010000
00000000
00000000
01000000
00000000
00000000
,
00010000
00000000
10000000
00000000
00000000
01000000
00000000
00000000
,
00000000
00000000
00100000
00000000
00000000
01000000
00000000
00000000
,
10000000
00000000
00000000
00010000
00000000
00000000
01000000
00000000
,
00000000
00001000
00000000
00000000
00010000
00000000
00000000
00000100
,
00000000
00000000
00001000
00000000
00000000
00000001
00000000
00000000
,
00000100
00000000
00000001
00000000
00000000
00000010
00000000
00000000
,
00000100
00000000
00000000
00000010
00000000
00000000
00000001
00000000
,
00000100
00000000
00001000
00000000
00000000
00010000
00000000
00000000
,
00100000
00000000
10000000
00000000
00000000
00010000
00000000
00000000
,
00000000
00000000
10000000
00000000
00000000
01000000
00000000
00000000
,
00010000
00000000
00000000
00001000
00000000
00000000
00000100
00000000
,
00000001
00000010
00000100
00001000
,
00000010
00000000
00000000
00000000
,
00010000
00000000
00011000
00000000
,
00001000
00100000
00010000
00000000
,
01000000
00010000
01000000
00100000
,
10000000
00010000
10000000
00000000
,
01000000
00000000
01100000
00000000
,
00100000
00001000
00010000
00000000
,
00000100
00001000
00000001
00001000
,
00000000
00000010
00000100
00000000
,
00001001
00000000
00000110
00000000
,
00000001
00000100
00001000
00000000
,
00010000
01000000
10000000
00000000
,
00100000
01000000
00100000
00000000
,
10010000
00000000
01100000
00000000
,
10000000
01000000
00010000
00000000
,
00001000
00000100
00000001
00000000
,
00000010
00000100
00000010
00000000
,
00001001
00000000
00001001
00000000
,
00000001
00000100
00000001
00000100
,
00000010
00001000
00000010
00001000
,
00000100
00001000
00000100
00000000
,
00010000
00001000
00010000
00001000
,
00100000
00010000
00100000
00010000
,
10000000
00100000
10000000
00100000
,
01000000
00010000
01000000
00000000
,
10010000
00000000
10000000
01000000
,
00010000
00001000
00000010
00000000
,
00001001
00000000
00000001
00000100
,
00001000
00010000
00100000
00000000
,
10010000
00000000
01000000
00000000
,
00011000
00000000
00000100
00000000
,
00010010
00000000
00101000
00000000
,
00022000
00000000
00000000
00033000
,
00022000
00000000
00000000
00000000
,
00000000
00000000
00000000
00000000
,
00000000
00000000
00000000
00000000
,
00000000
00000000
00000000
00000000
,
00000000
00000000
00000000
00000000
,
00000000
00000000
00000000
00033000
,
00011000
00000000
00001000
00010000
,
00001000
00010000
00011000
00000000
,
00001000
01000000
00010000
10000000
,
00010000
10000000
01000000
00000000
,
00100000
00001000
00010000
00000100
,
00010000
00001000
00000100
00000000
,
00000010
00010000
00001000
00000010
,
00000100
00001000
00000001
00000000
,
00000100
00001000
00010000
00100000
,
01100000
00000000
00010000
10000000
,
10010000
00000000
10000000
01000000
,
00100000
00000000
00010000
00000000
01000000
00010000
01000000
00000000
,
00001000
00000000
00010000
00000100
,
00001000
00000000
00000001
00000000
00000100
00000010
00000100
00000000
,
00000001
00000000
00001000
00000100
,
00000010
00000000
00000100
00000000
00010000
00001000
00010000
00000000
,
00000010
00000000
00010000
00001000
,
00100000
00000000
00010000
00000000
01000000
00100000
01000000
00000000
,
00010000
00000000
10000000
01000000
,
00100000
00000000
00010000
00000000
01000000
00001000
01000000
00000000
,
00010000
00000000
00100000
00001000
,
00010000
00000000
00000100
00000000
00001000
00000001
00001000
00000000
,
00000010
00000000
00010000
00001000
,
00100000
00000000
00010000
00000000
01000000
00001000
01000000
00000000
,
00001000
00000000
00000000
00010000
00000000
00000000
00000100
00000000
,
00001000
00000000
00000001
00000000
00000100
00000010
00000100
00000000
,
00001001
00000000
00001000
00000100
00000000
00001000
00000100
00000000
,
00000000
00010000
00000000
00000000
00001000
00000000
00000000
00000000
,
10010000
00000000
00010000
01000000
00000000
00010000
01000000
00000000
,
00000000
00001000
00000000
00000000
00010000
00000000
00000000
00000000
,
00010100
00000000
00010000
00001000
00010000
00000000
00001000
00000000
,
01001000
00000000
00001000
00010000
00001000
00000000
00010000
00000000
,
00000100
00010000
00001000
01000000
,
00001000
00010000
00001000
00010000
00001000
00000000
00010000
00000000
,
00022000
00000000
00000000
00000000
,
00000000
00000000
00000000
00000000
,
00000000
00000000
00000000
00000000
,
00000000
00000000
00000000
00000000
,
00033000
00000000
00000000
00000000
;

//--------------- dance-double - forcednature ----------------
#NOTES:
     dance-double:
     forcednature:
     Medium:
     13:
     0,0,0,0,0:
00000000
00000000
00000000
00000000
,
00000000
00000000
00000000
00000000
,
00000000
00000000
00000000
00000000
,
00000000
00000000
00000000
00000000
,
00011000
00000000
01100000
00000000
00010000
00010000
10000000
00000000
,
00100000
00000000
01000000
00010000
01000000
00000000
00000000
00000000
00001000
00000000
00010000
00000100
00001000
00000000
00001000
00000000
,
00001100
00000100
00000010
00000000
00001100
00000100
00000010
00000000
,
00000001
00000000
00000100
00000000
00001000
00000000
00000100
00000000
00001000
00000000
00010000
00000000
00100000
10000000
00100000
10000000
,
00100000
10000000
01000000
00000000
00110000
10000000
01000000
00000000
,
00101000
00000000
00000000
00000000
00010010
00000000
00000000
00000000
00000010
00000000
00000010
00000000
00001000
00000001
00001000
00000001
,
00001000
00000010
00000100
00001000
00010000
01000000
00100000
00000000
,
00001000
00010000
00100000
00010000
00001000
00010000
01000000
00000000
,
00100000
00001000
00010000
00000100
00010000
00001000
00000100
00000000
,
00000010
00000000
00010000
00000000
00001000
00000000
00000010
00000000
00000000
00000000
00000110
00000000
00000000
00001001
00000000
00000000
,
00000110
00000001
00000100
00000010
00000100
00001000
00010000
00000000
,
00100000
10000000
00010000
10000000
01000000
00010000
00001000
00000000
,
00100000
00001000
00010000
00100000
01000000
00001000
00010000
00000000
,
00000100
00000000
00010000
00000000
00000010
00000000
00001010
00000000
00000000
00000011
00000000
00000000
00001001
00000000
00000000
00000000
,
00000001
00000100
00002000
00000000
00010000
00000000
00103000
00001000
,
00010000
00100000
10000000
00010000
00200000
00000000
01300000
00100000
,
00001000
00010000
00000010
00000100
00000002
00000000
00001003
00000001
,
00000010
00001000
00000010
00000100
00020000
00000000
00031000
01000000
,
01001000
00011000
00011000
00011000
,
00010100
00011000
00011000
00011000
,
00101000
00011000
00010010
00011000
,
00022000
00000000
00000000
00000000
00033000
00000000
00000000
00000000
00001000
00010000
00001000
00010000
02000000
00000000
00000000
00000000
,
03100000
00000000
00010000
00000000
10000000
00100000
00000000
00000000
,
01000000
00000000
00000000
00001000
00000000
00000000
00010000
00000000
,
00000100
00000000
00001000
00000000
00000001
00000100
00000000
00000000
,
00000010
00000000
00010000
00000000
00001000
00100000
00000000
00000000
,
00000000
00000000
00020000
00000000
00000000
02030000
00000000
00000000
,
03200000
00000000
00000000
20300000
00000000
00000000
32000000
00000000
,
00000000
03000000
00020000
00000000
00000000
00032000
00000000
00000000
,
00003020
00000000
00000000
00000230
00000000
00000000
00002300
00000000
,
00003001
00000000
00000100
00000000
00000010
00001000
00000000
00000000
,
00000001
00000000
00000000
00000010
00000000
00000000
00000100
00000000
,
00001000
00000000
00000010
00000000
00010000
00001000
00000000
00000000
,
00100000
00000000
00100000
00000000
00010000
10000000
00000000
00000000
,
00000000
00000000
00200000
00000000
00300000
00200000
00000000
00300000
,
00020000
00000000
00000000
00030000
00000000
00000000
00020000
00000000
00000000
00030000
00000000
00000000
00002000
00000000
00000000
00000000
,
00003020
00000000
00000000
00000230
00000000
00000000
00002300
00000000
,
00000000
00003002
00000000
00000000
00000203
00000000
00002300
00000000
,
00013000
00000000
00100000
00000000
00010000
00001000
00000000
00000000
,
00100000
00000000
00000000
00010000
00000000
00000000
01000000
00000000
,
00100000
00000000
10000000
00000000
00010000
10000000
00000000
00000000
,
01000000
00000000
00010000
00000000
00001000
00010000
00000000
00000000
,
00000000
00000000
00000200
00000000
00000000
00002300
00000000
00000000
,
00003002
00000000
00000000
00000203
00000000
00000000
00002300
00000000
,
00000000
00023000
00000000
00000000
02030000
00000000
00000000
03200000
,
00000000
00000000
00320000
00000000
00000000
20030000
00000000
00000000
,
30100000
00000000
00010000
00000000
00001000
00100000
00000000
00000000
,
00010000
00000000
00000000
01000000
00000000
00000000
00001000
00000000
,
00010000
00000000
00000100
00000000
00001000
00000010
00000000
00000000
,
00010000
00000000
00001000
00000000
00000010
00000001
00000000
00000000
,
00000100
00000000
00000010
00000000
00000100
00001000
00000000
00000000
,
00010000
00000000
00000000
01000000
00000000
00000000
00100000
00000000
,
00010000
00000000
00010000
00000000
01000000
00001000
01000000
00000000
,
00020000
00000000
00000000
00000000
,
00130000
00000000
00101000
00000000
,
00000100
00000100
00001100
00000000
,
00000001
00000010
00001000
00010000
,
00100000
00100000
01000000
00000000
,
00010000
00000000
11000000
00000000
,
00100000
00100000
10100000
00000000
,
10000000
10000000
01000000
00010000
,
00001000
00001000
00000010
00000000
,
00000110
00000000
00001001
00000000
,
00000001
00000100
00001010
00000000
,
00010000
00001000
00010000
00100000
,
01000000
00010000
00100000
00000000
,
01100000
00000000
00011000
00000000
,
00000100
00001000
00001010
00000000
,
00000010
00000001
00000010
00001000
,
00010000
00010000
02000000
00000000
,
03100000
10000000
01000000
01000000
,
01000000
01000000
01000000
00000000
,
00100000
00001000
00010000
00010000
,
00010000
00010000
00010000
00000000
,
00000010
00001000
00000001
00000001
,
00000001
00000001
00000001
00000000
,
00000010
00001000
00010000
00010000
,
00010000
00010000
00010000
00000000
,
00011000
00000000
00001000
00010000
,
01000000
10000000
01000000
00010000
,
00011000
00000000
00010000
00001000
,
00000100
00000001
00000100
00001000
,
00011000
00000000
00001000
01000000
,
01001000
00000000
00010000
00000100
,
00010100
00000000
00011000
00000000
,
00022000
00000000
00000000
00033000
,
00022000
00000000
00000000
00000000
,
00000000
00000000
00000000
00000000
,
00000000
00000000
00000000
00000000
,
00000000
00000000
00000000
00000000
,
00000000
00000000
00000000
00000000
,
00000000
00000000
00000000
00033000
,
00011000
00000000
00000200
00000300
,
00000110
00000110
00000020
00000030
,
00000001
00000100
00001000
00000100
,
00000010
00010000
00001000
00100000
,
01000000
00010000
01000000
10000000
,
00010000
01000000
00100000
00010000
,
00001000
00000010
00000100
00001000
,
00000001
00000100
00001000
00010000
,
01000000
10000000
00100000
01000000
,
02200000
00000000
03300000
00000000
,
10000000
00000000
01000000
00000000
00100000
00010000
00000000
01000000
,
00000000
00001000
00020000
00000000
,
00030100
00000000
00001000
00000000
00000001
00000100
00000000
00000010
,
00000000
00010000
00002000
00000000
,
00103000
00000000
00010000
00000000
01000000
00100000
00000000
10000000
,
00000000
01000000
00020000
00000000
,
00031000
00000000
00000010
00000000
00000001
00001000
00000000
00000010
,
00000000
00010000
00002000
00203000
,
01300000
00000000
10000000
00000000
00010000
01000000
00000000
00100000
,
00000000
10000000
00020000
00000000
,
00130000
00000000
00001000
00000000
00010000
00000100
00000000
00000010
,
00000000
00000001
00000200
00000000
,
00000310
00000000
00010000
00000000
00001000
00100000
00000000
01000000
,
00000000
10000000
00020000
00000000
,
01030000
00000000
00000000
01001000
00000000
00000000
00010100
00000000
,
00000000
00000100
00000000
00000000
00000010
00000000
00000001
00000000
,
00000100
00000000
00000010
00010000
00000000
00000010
00010000
00000000
,
00000000
00001000
00000000
00000000
00100000
00000000
00100000
00000000
,
01000000
00000000
00100000
00001000
00000000
00100000
00001000
00000000
,
00000000
00010000
00000000
00000000
00000010
00000000
00000010
00000000
,
00000100
00000000
00001000
00010000
00000000
00001000
00010000
00000000
,
01000000
00000000
00010000
00001000
00000000
00010000
00001000
00000000
,
01000000
00001000
00010000
00000000
00000100
00010000
00001000
00000000
,
02000000
00100000
00100000
03100000
,
20020000
00000000
00000000
00000000
,
00000000
00000000
00000000
00000000
,
00000000
00000000
00000000
00000000
,
00000000
00000000
00000000
00000000
,
30030000
00000000
00000000
00000000
;

//--------------- dance-double - forcednature ----------------
#NOTES:
     dance-double:
     forcednature:
     Hard:
     15:
     0,0,0,0,0:
00000000
00000000
00000000
00000000
,
00000000
00000000
00000000
00000000
,
00000000
00000000
00000000
00000000
,
00000000
00000000
00000000
00000000
,
00011000
00000000
01000000
00000000
00100000
00100000
00100000
00000000
,
10000000
00000000
00000000
01000000
00010000
00000000
00000000
00010000
00001000
00000000
00000000
00000100
00000001
00000000
00000001
00000000
,
00000010
00000001
00000000
00000100
00000001
00000000
00000000
00000000
00001000
00000100
00000000
00001000
00000010
00000000
00000000
00000000
,
00010000
00000000
00001000
01000000
00001000
00000000
00010000
00000000
00100000
00000000
00100000
00000000
10000000
01000000
10000000
01000000
,
00100000
00001000
00000000
00010000
00001000
00000000
00000000
00000000
00010000
00000010
00000000
00001000
00000010
00000000
00000000
00000100
,
00000001
00001000
00000100
00000000
00000010
00000000
00000000
00000000
00000001
00000000
00000001
00000000
00000100
00001000
00000100
00001000
,
00010000
00000000
00100000
00000000
01000000
00000000
00010000
10000000
00010000
00000000
10000000
01000000
00100000
00000000
00000000
00000000
,
00001000
00000000
00010000
00000000
00000100
00000000
00001000
00000001
00000000
00000010
00000100
00000000
00001000
00000000
00000000
00000010
,
00010000
00000000
00001000
00000000
00100000
00000000
00001000
00000000
00010000
00100000
00000000
10000000
00100000
00000000
00000000
01000000
,
00010000
00000000
00100000
00000000
00001000
00000000
00010000
00000000
00000000
00000000
00010010
00000000
00000000
00101000
00000000
00000000
,
00001000
00010000
00000000
00001000
01000000
00000000
00001000
00010000
00000000
00001000
00100000
00000000
00010000
00000000
00000000
01000000
,
00010000
00000000
10000000
00000000
01000000
00000000
00010000
00001000
00010000
00000000
00000010
00000000
00001000
00000000
00000000
00000000
,
00000001
00000010
00000000
00000001
00000100
00000000
00000001
00000010
00000000
00000001
00000100
00000000
00001000
00000000
00000000
00010000
,
01000000
00000000
00100000
00000000
00010000
00000000
00010000
00000000
10000000
00100000
10000000
00000000
01000000
00000000
00000000
00000000
,
00010000
00001000
00010000
00000100
00002000
00000000
00000000
00000000
00000010
00000000
00000000
00000000
00003100
00000000
00001000
00000000
,
00000001
00000100
00000001
00000000
00000010
00000000
00001000
00010000
00200000
00000000
00000000
00000000
01300000
00000000
00100000
00000000
,
10000000
00010000
10000000
00000000
01000000
00000000
00100000
00001000
00020000
00000000
00000000
00000000
00130000
00000000
00010000
00000000
,
00001000
00000010
00001000
00000000
00010000
00000000
00000100
00001000
00000020
00000000
00000000
00000000
00000130
00000000
00000010
00000000
,
00010010
00010000
00010000
00010000
00010000
00010000
00010000
00010000
,
00101000
00001000
00001000
00001000
00001000
00001000
00001000
00001000
,
01010000
01000000
01000000
01000000
00001100
00000100
00000100
00000100
,
00022000
00000000
00000000
00000000
00033000
00000000
00000000
00000000
00001000
00010000
00001000
00010000
02000000
00000000
00000000
00000000
,
03100000
00000000
00010000
00000000
10000000
00100000
00000000
00000000
,
01000000
00000000
00001000
00010000
00000000
00000000
00000100
00000000
,
00000010
00000000
00000001
00000000
00000100
00000010
00000000
00000000
,
00010000
00000000
00010000
00000000
00001000
00100000
00001000
00000000
,
00010000
00000000
00100000
00000000
10000000
01000000
00000000
10000000
,
01000000
00000000
00100000
00010000
00000000
00100000
00010000
00000000
,
00001000
00000000
00000010
00000000
00000100
00000001
00000000
00000100
,
00000001
00000000
00001000
00000100
00000000
00001000
00000100
00000000
,
00000010
00000000
00001000
00000000
00010000
00000100
00000000
00000000
,
00010000
00000000
00001000
01000000
00000000
00000000
00010000
00000000
,
10000000
00000000
01000000
00000000
00100000
00010000
00000000
00000000
,
01000000
00010000
01000000
00000000
00001000
00000000
00010000
00000100
,
00001000
00000000
00000010
00000000
00000000
00010010
00000000
00000000
,
00100000
00000000
00000000
00101000
00000000
00000000
00001000
00000000
,
01000000
00000000
00010000
10000000
00000000
01000000
10000000
00000000
,
00010000
01000000
00000000
00001000
00010000
00000000
00100000
00000000
,
00010000
00000000
00001000
00000000
00000010
00000100
00000000
00000000
,
00001000
00000000
00000001
00000100
00000000
00000000
00000010
00000000
,
00001000
00000000
00010000
00000000
01000000
00100000
00000000
00000000
,
10000000
00000000
10000000
00000000
01000000
00100000
00010000
00000000
,
01000000
00000000
00001000
00000000
00010000
00000100
00000000
00010000
,
00000100
00000000
00100000
00001000
00000000
00100000
00001000
00000000
,
01000000
00001000
00000000
00010000
00000010
00000000
01000000
00001000
,
00000000
00010000
00000010
00000000
00001000
00000001
00000000
00000000
,
00001100
00000000
00000100
00000000
00010000
00001000
00000000
00000000
,
01000000
00000000
00010000
10000000
00000000
00000000
01000000
00000000
,
01100000
00000000
00100000
00000000
00001000
00010000
00000000
00000000
,
00000010
00001000
00000100
00000000
00000010
00000000
00000001
00001000
,
00000001
00000000
00000100
00000000
00001000
00010000
00000000
00001000
,
01000000
00000000
00001000
00010000
00000000
00001000
00100000
00000000
,
01000000
00000000
00010000
00000000
00001000
01000000
00010000
00000000
,
10000000
00000000
00000000
00000000
,
11000000
00000000
00000000
00110000
,
00000000
00011000
00000000
00000000
00001100
00000000
00000000
00000000
,
00000101
00000000
00000000
00001010
,
00000000
00011000
00000000
00000000
01010000
00000000
00000000
00000000
,
11000000
00000000
00000000
01010000
,
00000000
00011000
00000000
00000000
00001100
00000000
00000000
00000000
,
00000011
00000000
00000000
00001010
,
00000000
00011000
00000000
00000000
00110000
00000000
00000000
00000000
,
10010000
00010000
01000000
01010000
,
00000000
00101000
00000000
00000000
00011000
00000000
00000000
00000000
,
00001100
00001000
00000010
00000110
,
00000000
00001001
00000000
00000000
00000110
00000000
00000000
00000000
,
00000101
00000100
00000010
00010010
,
00000000
01001000
00000000
00000000
00010010
00000000
00000000
00000000
,
00011000
00000000
00001000
00000000
01000000
00010000
01000000
00010000
,
02000000
00100000
03100000
00000000
,
10010000
10000000
01000000
00010000
,
00001000
00100000
00010000
00001000
,
00000100
00000100
00000010
00000010
,
00000001
00000001
00000100
00000100
,
00000010
00001000
00010000
01000000
,
00100000
10000000
00010000
00100000
,
01000000
01000000
00010000
00010000
,
00001000
00001000
00000100
00000100
,
00000010
00001000
00000010
00000000
00000100
00000000
00001000
00000000
,
00010000
01000000
00100000
00001000
,
00010000
00100000
00010000
00000000
00001000
00000000
01000000
00000000
,
00010000
10000000
01000000
00010000
,
00001000
00100000
00001000
00000000
00010000
00000000
00000100
00000000
,
00010000
00000010
00010000
00000000
00001000
00000000
01000000
00000000
,
00001000
00010000
00001000
00010000
00001000
00010000
00001000
00010000
,
00000200
00000000
00000000
00000000
,
00002300
00000000
00000010
00000000
,
00000000
00000000
00000001
00000000
,
00000000
00000000
00000100
00000000
,
00000000
00000000
00000001
00000000
,
00000000
00000000
00000010
00000000
,
00000000
00000000
00003100
00000000
,
00011000
00000000
00000000
00000000
01000000
00010000
01000000
00010000
,
01000000
01000000
01000000
00000000
,
00010000
10000000
01000000
00010000
,
00001000
01000000
00010000
00100000
,
00001000
00000010
00000100
00001000
,
00000001
00000000
00000100
00000000
00000010
00000000
00010000
00001000
,
00010000
00000100
00010000
00001000
,
00000100
00000010
00001000
00100000
,
00010000
00001000
00010000
01000000
,
01100000
00000000
00000000
00000000
00010000
10000000
00010000
00000000
,
01000000
00000000
00001000
00000000
00010000
00000100
00000000
00010000
,
00000100
00000000
00001000
00000001
00000200
00000000
00000000
00000000
,
00000310
00000000
00010000
00000000
00001000
00100000
00000000
00001000
,
00100000
00000000
00010000
10000000
00200000
00000000
00000000
00000000
,
01300000
00000000
00001000
00000000
00010000
00000100
00000000
00010000
,
00000100
00000000
00000010
00000001
00000200
00000000
00000000
00000000
,
00000310
00000000
00010000
00000000
00001000
01000000
00000000
00010000
,
10000000
00000000
01000000
00010000
00002000
00000000
00203000
00000000
,
00310000
00000000
01000000
00000000
00001000
00010000
00000000
00000100
,
00001000
00000000
00000001
00000100
00000020
00000000
00020030
00000000
,
00031000
00000000
00000010
00000000
00000100
00001000
00000000
00000001
,
00000100
00000000
00001000
00010000
00000020
00000000
00002030
00000000
,
00003100
00000000
00010000
00000000
00001000
01000000
00000000
00010000
,
10000000
00000000
01000000
00010000
00002000
00000000
00203000
00000000
,
00310000
00000000
01000000
00001000
00000000
00010000
00001000
00000000
,
00000010
00000100
00000000
00001000
00000100
00000010
00000001
00000000
,
00001001
00000000
00000001
00000100
00000000
00000100
00001000
00000000
,
00001000
00010000
00000000
00010000
00100000
00000000
10000000
00000000
,
10010000
00000000
10000000
01000000
00000000
01000000
00010000
00000000
,
00010000
00001000
00000000
00001000
00000010
00000000
00000001
00000000
,
00001001
00000000
00000001
00000100
00000000
00001000
00000100
00000000
,
00001000
00010000
00000000
00100000
00010000
00000000
00100000
00000000
,
10000000
00010000
10000000
00010000
10000000
01000000
10000000
01000000
,
00100000
00010000
00100000
00001000
00010000
00001000
01000000
00010000
,
02000000
00000000
00000000
00000000
,
00000000
00000000
00000000
00000000
,
00000000
00000000
00000000
00000000
,
00000000
00000000
00000000
00000000
,
03000000
00000000
00000000
00000000
;

//--------------- dance-double - forcednature ----------------
#NOTES:
     dance-double:
     forcednature:
     Challenge:
     17:
     0,0,0,0,0:
00000000
00000000
00000000
00000000
,
00000000
00000000
00000000
00000000
,
00000000
00000000
00000000
00000000
,
00000000
00000000
00000000
00000000
,
00011000
00000000
00001000
00010000
01000000
00000000
00100000
00000000
00010000
00000000
00010000
00000000
10010000
00000000
00000000
00000000
,
10000000
00000000
00100000
01000000
00010000
00000000
10000000
01000000
00100000
00000000
00001000
00010000
00001000
00000000
00001000
00000000
,
00000100
00000001
00001000
00000001
00000010
00000000
00000000
00000000
00000100
00001000
00000001
00001000
00000010
00000000
00010000
00001000
,
00010000
00000100
00010000
00001000
00100000
00000000
00001000
00010000
00001000
01000000
00010000
00000000
10000000
01000000
00010000
01000000
,
10000000
00010000
01000000
00010000
00100000
00000000
00000000
00000000
00001000
00010000
00000100
00010000
00000010
00000000
00001000
00000001
,
00000010
00000100
00000010
00000001
00000100
00000000
00000010
00010000
00001000
00000000
00001000
00000000
00010000
00100000
00010000
00100000
,
01000000
00000000
00010000
00000000
10000000
00000000
01000000
00100000
00010000
00000000
01000000
00001000
00010000
00000000
00000000
00000000
,
00000100
00001000
00000001
00000100
00000010
00000000
00010000
00001000
00000000
00010000
00001000
00000000
00100000
00000000
00000000
00001000
,
00010000
00000000
00100000
01000000
00010000
00000000
10000000
00000000
01000000
00100000
00000000
00010000
10000000
00000000
00000000
00010000
,
01000000
00000000
00001000
00000000
00011000
00000000
00010100
00000000
00000100
00001000
00000001
00000000
00000100
00000010
00001000
00000000
,
00000100
00000010
00000000
00000100
00000010
00000000
00000001
00001000
00000001
00000100
00000010
00000000
00010010
00000000
00000000
00010000
,
00001000
00100000
00001000
00010000
00100000
00000000
01000000
00010000
10000000
01000000
00100000
00000000
01100000
00000000
00000000
00000000
,
01000000
10000000
00000000
00010000
01000000
00000000
00001000
00010000
00000100
00001000
00000001
00000000
00001001
00000000
00000000
00000001
,
00000100
00000000
00000010
00001000
00000100
00000000
00000110
00000000
00000010
00000100
00001000
00000000
00000010
00000100
00001000
00010000
,
00000100
00010000
00001000
01000000
00002000
00000000
00000000
00000000
00000100
00000000
00010000
00000000
00100000
00000000
01003000
00001000
,
00010000
01000000
00100000
01000000
10000000
00000000
00010000
01000000
00002000
00000000
00010000
00000000
00000100
00000000
00013000
00001000
,
00000100
00000001
00000100
00000010
00010000
00000000
00001000
00100000
00020000
00000000
01000000
00000000
00100000
00000000
10030000
00010000
,
00100000
01000000
00010000
01000000
10000000
00000000
00010000
01000000
00002000
00000000
00010000
00000000
00000100
00000000
00013000
00001000
,
00010100
00000100
00010100
00000100
00010100
00000100
00010100
00000100
,
01001000
01000000
01001000
01000000
01001000
01000000
01001000
01000000
,
00010010
00000010
00010010
00000010
00101000
00100000
00101000
00100000
,
00022000
00000000
00000000
00000000
00000000
00000000
00033000
00000000
00001000
00010000
00001000
00010000
02000000
00000000
00000000
00000000
,
03100000
00000000
00001000
00000000
00010000
00100000
01000000
00000000
,
00010000
00000000
10000000
01000000
00010000
00000000
00001000
00000000
,
01000000
00000000
00010000
00000000
00100000
00001000
00010000
00000000
,
00100000
00000000
01000000
00001000
00010000
00001000
00000010
00000000
,
00000100
00000000
00001000
00000000
00000001
00000100
00000000
00001000
,
00000100
00000000
00000010
00010000
00000000
00000100
00010000
00000000
,
00001000
00000000
01000000
00000000
00100000
00010000
00000000
00100000
,
10000000
00000000
00010000
10000000
00000000
01000000
00010000
00000000
,
00011000
00000000
00001000
00000000
00000100
00000010
00001000
00000000
,
00000100
00000000
00000010
00000001
00000100
00000000
00000010
00000000
,
00001000
00000000
00000100
00000000
00000010
00001000
00010000
00000000
,
00000010
00001000
00010000
00000000
01000000
00000000
00100000
10000000
,
00010000
00000000
00110000
00000000
00000000
00101000
00000000
00000000
,
00010010
00000000
00000000
00001010
00000000
00000000
00001001
00000000
,
00000001
00000000
00000100
00001000
00000000
00001000
00010000
00000000
,
00010000
01000000
00000000
01000000
00100000
10000000
00100000
01000000
,
00100000
00000000
00010000
00000000
01000000
00001000
00010000
01000000
,
00100000
00000000
00001000
00010000
00100000
00000000
01000000
00000000
,
00001000
00000000
00010000
00000000
00000100
00001000
00000010
00000100
,
00001000
00000000
00000100
00000001
00001000
00000100
00000001
00000000
,
00000100
00000000
00000010
00000000
00000001
00001000
00000000
00000010
,
00001000
00000000
00010000
00100000
00000000
00010000
10000000
00000000
,
01000000
00010000
00000000
00001000
00010000
00000000
00000010
00010000
,
00000000
00001000
00000100
00000000
00000001
00000100
00000000
00000000
,
00000110
00000000
00001000
00000000
00000001
00000010
00000100
00001000
,
00000010
00000000
00000100
00001000
00010000
00100000
01000000
00000000
,
01100000
00000000
00100000
00000000
10000000
01000000
00010000
00001000
,
00010000
00000000
00100000
10000000
00010000
10000000
01000000
00000000
,
01100000
00000000
00100000
00000000
00001000
00010000
00000100
00001000
,
00000010
00000000
00000001
00000010
00000100
00000010
00001000
00000000
,
00001100
00000000
00010100
00000000
00010000
00001000
01000000
00000000
,
02020000
00000000
00000000
03030000
,
10010000
00000000
10000000
01000000
00100000
00000000
00110000
00000000
,
00000000
00011000
00000000
00000000
00001100
00000000
00000000
00000000
,
00000001
00000000
00000100
00000010
00001000
00000000
00001100
00000000
,
00000000
00010000
00001000
00010000
01000000
00000000
00000000
00000000
,
01100000
01100000
00000000
01010000
,
00000000
00011000
00000000
00000000
00001010
00000000
00000000
00000000
,
00000001
00000000
00000010
00000000
00001000
00000000
00010000
00000100
,
00010000
00001000
00000100
00000000
00000010
00001000
00000010
00001000
,
00000100
00000010
00000000
00001000
00000010
00000000
00000001
00000010
,
00000000
00001000
00010000
00000000
00100000
00000000
00000000
10000000
,
00010000
00000000
10000000
00000000
01000000
00000000
00010000
00001000
,
00000000
01000000
00010000
00000000
10000000
01000000
00100000
01000000
,
00010000
00000000
01000000
00100000
00001000
00000000
00010000
00000010
,
00000100
00000000
00000001
00000010
00000100
00000000
00000001
00000000
,
00000100
00000000
00000100
00000000
00010000
00001000
00010000
00001000
,
01000000
01000000
00200000
00000000
,
10300000
01000000
00010000
00001000
00020000
00000000
00100000
00000000
,
00100000
00000000
00100000
00000000
00130000
00000000
00010000
00001000
,
00000100
00000010
00001000
00000100
00000010
00000000
00000001
00000100
,
00002000
00000000
00010000
00000000
00013000
00000000
00001000
00000100
,
00000010
00001000
00000001
00000010
00000100
00000000
00010000
00001000
,
02000000
00000000
00100000
00000000
03100000
00000000
01000000
00010000
,
10000000
01000000
00100000
00001000
00010000
00000000
00100000
10000000
,
00020000
00000000
01000000
00000000
01030000
00000000
00010000
00100000
,
00001000
00010000
00001000
00010000
01000000
00010000
01000000
00010000
,
01000000
00100000
00010000
10000000
00010000
01000000
00001000
00000000
,
00010000
00001000
00010000
00001000
00000100
00001000
00000100
00001000
,
00000100
00000010
00001000
00000001
00001000
00000100
00010000
00000000
,
00001000
00010000
01000000
00010000
00001000
00010000
00000010
00000000
,
00010000
00001000
00000100
00001000
00010000
00001000
00100000
00000000
,
00010000
01000000
00001000
00010000
00000100
00001000
00000100
00010000
,
00001000
00010000
00001000
00010000
00001000
00010000
00001000
00010000
,
00002000
00000000
00000000
00010000
00000000
00000000
00000100
00000000
,
00000000
00010000
00000000
00000000
00100000
00000000
00000000
00000000
,
00000000
00000000
00000000
00010000
00000000
00000000
00000010
00000000
,
00000000
00010000
00000000
00000000
01000000
00000000
00000000
00000000
,
00000000
00000000
00000000
00010000
00000000
00000000
00000100
00000000
,
00000000
00010000
00000000
00000000
01000000
00000000
00003000
00000000
,
00011000
00000000
00000000
00000000
00010000
00001000
00010000
00001000
,
00010000
00011000
00022000
00033000
,
00011000
00000000
00010000
00000100
00001000
00000100
00000010
00000000
,
00000001
00000100
00000010
00001000
00000100
00000000
00010000
00001000
,
00100000
00000000
00010000
01000000
00100000
10000000
00010000
00000000
,
10000000
01000000
00100000
00010000
01000000
00000000
00001000
00010000
,
00000100
00000000
00001000
00000001
00001000
00000010
00010000
00000000
,
00001000
01000000
00010000
10000000
00010000
00000000
00100000
00001000
,
00010000
00000000
00010000
00000000
00000100
00001000
00000100
00000010
,
00000002
00000000
00000003
00000000
00001000
00000001
00001000
00000000
,
00000010
00010000
00000010
00010000
00001000
00010000
00001000
01000000
,
00010000
10000000
01000000
00100000
01000000
10000000
00010000
00000000
,
01000000
00001000
01000000
00001000
00010000
00000100
00001000
00000001
,
00000100
00000010
00001000
00000100
00000010
00000100
00001000
00000000
,
00000100
00010000
00000100
00010000
00001000
00100000
00001000
00010000
,
00100000
01000000
00010000
10000000
01000000
00100000
00010000
00000000
,
00100000
00001000
00100000
00001000
00010000
00000100
00001000
00000001
,
00001000
00000010
00010000
00001000
00100000
01000000
00010000
00000000
,
00001000
01000000
00010000
10000000
01000000
10000000
00010000
01000000
,
00100000
10000000
00010000
00100000
00001000
00010000
00001000
00000000
,
01000000
00010000
01000000
00001000
00010000
00000100
00001000
00000010
,
00010000
00001000
00010000
00000100
00001000
00000001
00000100
00000000
,
00000010
00001000
00000001
00000010
00000100
00000010
00000001
00000100
,
00000010
00010000
00001000
00010000
00000100
00001000
00000010
00000000
,
00010000
00001000
00100000
00001000
01000000
00010000
00100000
00001000
,
00010000
00100000
00010000
00001000
01000000
00010000
00100000
00000000
,
01000000
10000000
01000000
00100000
01000000
10000000
00010000
01000000
,
00001000
00010000
00001000
00100000
00010000
01000000
00001000
00000000
,
00010000
00000100
00001000
00000010
00010000
00001000
00000010
00001000
,
00010000
00000100
00001000
00000010
00001000
00000100
00000010
00000000
,
00000001
00000100
00000001
00001000
00000010
00010000
00001000
00100000
,
00001000
00010000
01000000
00010000
00001000
00100000
00010000
00000000
,
01000000
00001000
00010000
00000010
00010000
00001000
00000100
00001000
,
00010000
00001000
00010000
00001000
00010000
00001000
00010000
00001000
,
00000020
00000000
00000000
00000000
,
00000000
00000000
00000000
00000000
,
00000000
00000000
00000000
00000000
,
00000000
00000000
00000000
00000000
,
00000030
00000000
00000000
00000000
;
