#VERSION:0.83;
#TITLE:YOU AND ME;
#SUBTITLE:;
#ARTIST:airbag;
#TITLETRANSLIT:;
#SUBTITLETRANSLIT:;
#ARTISTTRANSLIT:;
#GENRE:EURODANCE;
#ORIGIN:;
#CREDIT:;
#BANNER:;
#BACKGROUND:;
#PREVIEWVID:;
#JACKET:;
#CDIMAGE:;
#DISCIMAGE:;
#LYRICSPATH:;
#CDTITLE:;
#MUSIC:youandme.ogg;
#OFFSET:-0.023420;
#SAMPLESTART:14.246000;
#SAMPLELENGTH:12.000000;
#SELECTABLE:YES;
#BPMS:0.000=135.000;
#STOPS:;
#DELAYS:;
#WARPS:;
#TIMESIGNATURES:0.000=4=4;
#TICKCOUNTS:0.000=4;
#COMBOS:0.000=1;
#SPEEDS:0.000=1.000=0.000=0;
#SCROLLS:0.000=1.000;
#FAKES:;
#LABELS:0.000=Song Start;
#BGCHANGES:;
#KEYSOUNDS:;
#ATTACKS:
;

//---------------dance-single - ----------------
#NOTEDATA:;
#CHARTNAME:;
#STEPSTYPE:dance-single;
#DESCRIPTION:;
#CHARTSTYLE:;
#DIFFICULTY:Hard;
#METER:11;
#RADARVALUES:0.480583,0.550912,0.515748,0.082051,0.175823,287.000000,243.000000,44.000000,7.000000,0.000000,0.000000,0.000000,0.000000,0.000000,0.480583,0.550912,0.515748,0.082051,0.175823,287.000000,243.000000,44.000000,7.000000,0.000000,0.000000,0.000000,0.000000,0.000000;
#CREDIT:TonyAkita;
#NOTES:
0000
0000
0000
0000
,
0000
0000
0000
0000
,
0000
0000
0000
0000
,
0000
0000
0000
0000
,
1000
0000
0000
0101
0000
0000
0001
0000
0000
1100
0000
0000
0000
0000
0000
0000
,
0001
0100
0010
1000
0100
0000
0011
0000
,
0001
0000
0000
1010
0000
0000
1000
0000
0000
0011
0000
0000
0000
0000
0000
0000
,
0010
0100
1000
0000
1001
0000
0001
1000
,
0010
0000
0000
0101
0000
0000
0010
0000
0000
1100
0000
0000
0000
0000
0000
0000
,
0001
0100
0010
1000
0001
0000
0011
0000
,
0100
0000
0000
1010
0000
0000
0100
0000
0000
0011
0000
0000
0000
0000
0000
0000
,
1000
0010
0100
0000
1001
0000
0001
1000
,
0002
0000
0000
0000
0010
0000
0000
0013
0000
0000
0100
0000
1000
0000
0010
0000
,
2000
0000
0000
0000
0001
0000
0000
3001
0000
0000
0001
0000
0010
0000
0001
0000
,
2000
0000
0000
0000
0010
0000
0000
3010
0000
0000
0100
0000
0001
0000
0010
0000
,
0002
0000
0000
0000
1000
0000
0000
1003
0000
0000
0001
0000
0010
0000
0001
0000
,
0011
0000
0000
0000
1100
0000
0000
0011
0000
0000
1000
0000
0010
0000
1000
0000
,
1010
0000
0000
0000
0101
0000
0000
1010
0000
0000
0001
0000
0010
0000
0100
0000
,
1100
0000
0000
0000
0101
0000
0000
1100
0000
0000
0001
0000
0100
0000
0010
0000
,
2000
0001
0001
3001
,
1000
0010
0100
0000
0001
1000
0001
0010
,
0100
1000
0100
0010
0100
0000
1001
0000
,
0001
0100
0010
0000
1000
0001
1000
0010
,
0100
0001
0100
0010
0000
1000
1000
1000
,
0001
0100
0010
0000
1000
0010
0001
0010
,
1000
0010
0100
0010
1000
0000
0101
0000
,
0001
1000
0010
0000
0001
0010
1000
0010
,
0001
0010
0100
1000
0000
0001
0001
0001
,
1000
0000
0010
0000
1000
0000
0010
0100
0000
0000
0101
0000
0000
0000
0001
0000
,
1000
0000
0100
0000
1000
0000
0001
0100
0000
0000
1010
0000
0000
0000
1000
0000
,
0001
0000
0010
0000
0001
0000
0010
0100
0000
0000
1100
0000
0000
0000
1000
0000
,
0001
0000
0100
0000
0001
0000
1000
0100
0000
0000
0011
0000
0000
0000
0000
0000
,
1000
0000
0010
0000
0001
0000
0010
0100
0000
0000
0101
0000
0000
0000
0100
0000
,
1000
0000
0100
0000
0001
0000
1000
0100
0000
0000
0011
0000
0000
0000
0010
0000
,
0001
0000
0010
0000
1000
0000
0010
0100
0000
0000
1100
0000
0000
0000
0100
0000
,
0001
0100
1000
0010
0000
0000
0000
0000
,
1000
0000
0000
0101
0000
0000
0001
0000
0000
1100
0000
0000
0000
0000
0000
0000
,
0001
0100
0010
1000
0100
0000
0011
0000
,
0001
0000
0000
1010
0000
0000
1000
0000
0000
0011
0000
0000
0000
0000
0000
0000
,
0010
0100
1000
0000
1001
0000
0001
1000
,
0010
0000
0000
0101
0000
0000
0010
0000
0000
1100
0000
0000
0000
0000
0000
0000
,
0001
0100
0010
1000
0001
0000
0011
0000
,
0100
0000
0000
1010
0000
0000
0100
0000
0000
0011
0000
0000
0000
0000
0000
0000
,
1000
0010
0100
0000
1001
0000
0000
0000
,
0002
0010
0000
0013
,
0001
1000
0001
0010
0100
0000
1100
0000
,
2000
0010
0000
3010
,
1001
0000
0000
0000
;

//---------------dance-single - ----------------
#NOTEDATA:;
#CHARTNAME:;
#STEPSTYPE:dance-single;
#DESCRIPTION:;
#CHARTSTYLE:;
#DIFFICULTY:Medium;
#METER:8;
#RADARVALUES:0.336576,0.385639,0.257874,0.093772,0.093772,201.000000,179.000000,22.000000,8.000000,0.000000,0.000000,0.000000,0.000000,0.000000,0.336576,0.385639,0.257874,0.093772,0.093772,201.000000,179.000000,22.000000,8.000000,0.000000,0.000000,0.000000,0.000000,0.000000;
#CREDIT:TonyAkita;
#NOTES:
0000
0000
0000
0000
,
0000
0000
0000
0000
,
0000
0000
0000
0000
,
0000
0000
0000
0000
,
1000
0000
0000
1000
0000
0000
0001
0000
0000
0001
0000
0000
0000
0000
0000
0000
,
0010
0001
1000
0101
,
0001
0000
0000
0001
0000
0000
1000
0000
0000
1000
0000
0000
0000
0000
0000
0000
,
1100
0001
0101
0000
,
0001
0000
0000
0001
0000
0000
1000
0000
0000
1000
0000
0000
0000
0000
0000
0000
,
0010
1000
0001
1100
,
1000
0000
0000
1000
0000
0000
0001
0000
0000
0001
0000
0000
0000
0000
0000
0000
,
0101
1000
1100
0000
,
0002
0000
0010
0000
0013
0000
0001
1000
,
0100
0000
0100
0000
0100
0000
0001
0100
,
2000
0000
0010
0000
3010
0000
1000
0001
,
0100
0000
0100
0000
0100
0000
1000
0100
,
0002
0000
1000
0000
1003
0000
1000
0010
,
0200
0000
0001
0000
0301
0000
0100
0001
,
2000
0000
0001
0000
3001
0000
1000
0100
,
0020
0001
0031
0000
,
1000
0000
0010
0000
0100
0001
0010
0000
,
0100
0100
1100
0101
,
1000
0000
1000
0000
0001
0100
0010
1000
,
0001
0001
0011
0000
,
0001
0000
0100
0000
0010
1000
0100
0000
,
0010
0010
0011
1010
,
0001
0000
0001
0000
1000
0010
0100
0001
,
1000
1000
1100
0000
,
0001
0100
1000
0010
,
0001
0000
0001
0000
1000
0010
0100
0001
,
1000
0100
0001
0010
,
1000
1000
1010
0000
,
0001
0010
1000
0010
,
0100
0000
0100
0000
1000
0100
0010
0001
,
1000
0010
0001
0010
,
1000
1000
1010
0000
,
0001
0000
0000
0001
0000
0000
1000
0000
0000
1000
0000
0000
0000
0000
0000
0000
,
0010
1000
0001
1100
,
1000
0000
0000
1000
0000
0000
0001
0000
0000
0001
0000
0000
0000
0000
0000
0000
,
0101
1000
1100
0000
,
1000
0000
0000
1000
0000
0000
0001
0000
0000
0001
0000
0000
0000
0000
0000
0000
,
0010
0001
1000
0101
,
0001
0000
0000
0001
0000
0000
1000
0000
0000
1000
0000
0000
0000
0000
0000
0000
,
1100
0001
0101
0000
,
2000
0010
0000
3010
,
0001
0010
1000
1001
,
0002
0010
0000
0013
,
1001
0000
0000
0000
;

//---------------dance-single - ----------------
#NOTEDATA:;
#CHARTNAME:;
#STEPSTYPE:dance-single;
#DESCRIPTION:;
#CHARTSTYLE:;
#DIFFICULTY:Easy;
#METER:4;
#RADARVALUES:0.242803,0.330548,0.246152,0.035165,0.000000,145.000000,124.000000,21.000000,3.000000,0.000000,0.000000,0.000000,0.000000,0.000000,0.242803,0.330548,0.246152,0.035165,0.000000,145.000000,124.000000,21.000000,3.000000,0.000000,0.000000,0.000000,0.000000,0.000000;
#CREDIT:TonyAkita;
#NOTES:
0000
0000
0000
0000
,
0000
0000
0000
0000
,
0000
0000
0000
0000
,
0000
0000
0000
0000
,
1000
0000
1000
0000
,
0001
1000
0101
0000
,
0001
0000
0001
0000
,
1100
0001
1010
0000
,
0001
0000
0001
0000
,
1000
0001
1100
0000
,
1000
0000
1000
0000
,
0101
1000
0011
0000
,
0001
0001
0001
1000
,
0010
0000
0010
0000
,
1000
1000
1000
0001
,
0100
0000
0100
0000
,
0010
0010
0010
1000
,
0001
0000
0001
0000
,
0010
0010
0010
0001
,
2000
0000
3000
0000
,
0001
0010
0001
0000
,
1000
0001
1100
0101
,
1000
0010
1000
0001
,
0010
0010
0011
0000
,
0100
1000
0100
0000
,
0001
0100
1100
0101
,
0100
0010
0100
0001
,
1000
1000
1100
0000
,
0001
0100
1000
0100
,
0001
0010
0100
0000
,
1000
0100
0001
0100
,
0010
0001
1001
0000
,
1000
0010
0001
0010
,
1000
0010
0100
0000
,
0001
0010
1000
0010
,
0100
1000
1100
0000
,
0001
0000
0001
0000
,
1000
0001
1100
0000
,
1000
0000
1000
0000
,
0101
1000
0011
0000
,
1000
0000
1000
0000
,
0001
1000
0101
0000
,
0001
0000
0001
0000
,
1100
0001
1010
0000
,
2000
0000
0000
3000
,
0001
0000
0010
0000
,
0002
0000
0000
0003
,
1001
0000
0000
0000
;

//---------------dance-single - ----------------
#NOTEDATA:;
#CHARTNAME:;
#STEPSTYPE:dance-single;
#DESCRIPTION:;
#CHARTSTYLE:;
#DIFFICULTY:Beginner;
#METER:3;
#RADARVALUES:0.162427,0.192819,0.117215,0.070329,0.000000,97.000000,87.000000,10.000000,6.000000,0.000000,0.000000,0.000000,0.000000,0.000000,0.162427,0.192819,0.117215,0.070329,0.000000,97.000000,87.000000,10.000000,6.000000,0.000000,0.000000,0.000000,0.000000,0.000000;
#CREDIT:TonyAkita;
#NOTES:
// measure 0
0000
0000
0000
0000
,  // measure 1
0000
0000
0000
0000
,  // measure 2
0000
0000
0000
0000
,  // measure 3
0000
0000
0000
0000
,  // measure 4
1000
0000
1000
0000
,  // measure 5
0001
0001
0001
0000
,  // measure 6
0010
0000
0010
0000
,  // measure 7
0001
0000
1001
0000
,  // measure 8
0001
0000
0001
0000
,  // measure 9
1000
1000
1000
0000
,  // measure 10
0010
0000
0010
0000
,  // measure 11
1000
0000
1001
0000
,  // measure 12
0001
0000
0100
0000
,  // measure 13
0010
0000
0100
0000
,  // measure 14
0001
0000
1000
0000
,  // measure 15
0001
0000
0110
0000
,  // measure 16
1000
0000
0100
0000
,  // measure 17
0010
0000
0100
0000
,  // measure 18
1000
0000
0001
0000
,  // measure 19
1000
0000
0110
0000
,  // measure 20
0002
0000
0003
0000
,  // measure 21
0001
0000
1000
0000
,  // measure 22
0020
0000
0030
0000
,  // measure 23
0010
0000
1001
0000
,  // measure 24
2000
0000
3000
0000
,  // measure 25
1000
0000
0001
0000
,  // measure 26
0020
0000
0030
0000
,  // measure 27
0010
0000
1001
0000
,  // measure 28
1000
1000
1000
0000
,  // measure 29
0100
0000
0010
0000
,  // measure 30
0100
0100
0100
0000
,  // measure 31
1000
0000
0110
0000
,  // measure 32
0001
0001
0001
0000
,  // measure 33
0100
0000
0010
0000
,  // measure 34
0100
0100
0100
0000
,  // measure 35
0001
0000
0110
0000
,  // measure 36
1000
0000
1000
0000
,  // measure 37
0001
0001
0001
0000
,  // measure 38
0010
0000
0010
0000
,  // measure 39
0001
0000
1001
0000
,  // measure 40
0001
0000
0001
0000
,  // measure 41
1000
1000
1000
0000
,  // measure 42
0010
0000
0010
0000
,  // measure 43
1000
0000
1001
0000
,  // measure 44
0002
0000
0000
0000
,  // measure 45
0003
0000
0001
0000
,  // measure 46
2000
0000
0000
0000
,  // measure 47
3000
0000
0000
0000
;
