#TITLE:Winner's Proof ft. KANASA from bless4;
#ARTIST:BEMANI Sound Team "HuΣeR" & kors k;
#ARTISTTRANSLIT:HuΣeR & kors k;
#BANNER:Winner's Proof ft. KANASA from bless4.png;
#BACKGROUND:Winner's Proof ft. KANASA from bless4-bg.png;
#JACKET:Winner's Proof ft. KANASA from bless4-jacket.png;
#CDTITLE:./CDTITLES/BEATMANIA IIDX.PNG;
#MUSIC:Winner's Proof ft. KANASA from bless4.ogg;
#SAMPLESTART:60;
#SAMPLELENGTH:15;
#BPMS:0=100;

//---------------dance-double - t7r----------------
#NOTES:
     dance-double:
     t7r:
     Easy:
     5:
     :
00000000
00000000
00000000
00000000
,
00000000
00000000
00000000
00000000
,
00000000
00000000
00000000
00000000
,
00000000
00000000
00000000
00000000
,
00000000
00000000
00000000
00000000
,
00000000
00000000
00000000
00000000
,
00000000
00000000
00000000
00000000
,
00000010
00000100
00000001
00000000
,
00000010
00000100
00010000
00000000
,
00000200
00020300
00031000
00010000
,
00001000
01000000
20000000
30000000
,
01100000
10000000
10000000
00000000
,
01000000
00010000
00010000
00000000
,
00000020
00000032
00000023
00001030
,
00100000
00000000
01100000
00000000
,
20000000
00000000
30010000
00000000
,
00200000
00000000
01300000
00020000
,
00030020
00000000
00000130
00000000
,
00000001
00000001
00000100
00010000
,
00000000
01100000
00000000
01100000
,
10000000
01000000
00010000
00002000
,
00003000
00000110
00000000
00000110
,
00000001
00000100
00000010
00010000
,
00002000
00000000
00023000
00000000
,
00030020
00000000
00000130
00001002
,
00001003
00100000
10000000
00010000
,
10000000
01000000
00010000
00000010
,
00000100
00000000
00000001
00000000
,
00000020
00001030
01000000
00100000
,
10010000
02000000
03200000
00300000
,
10000000
00010000
00000100
00000010
,
00001000
00000010
00000100
00001000
,
00011000
00011000
00022000
00033000
,
00100000
00000000
00100000
00000000
,
00100000
00000000
00100000
00100000
00100000
00000000
00000000
00000000
,
00011000
00000000
00000010
00000000
,
00000010
00000000
00000010
00000010
00000010
00000000
00000000
00000000
,
00011000
00000000
01000000
00000000
01000000
00000000
01000000
01000000
,
00000000
00000000
00011000
00000000
00000100
00000000
00000100
00000100
,
00000000
00000000
00000110
00000000
00000000
00000000
00000010
00000010
,
00000000
00000000
00001001
00000000
00000000
00000000
00000001
00000001
,
00000001
00000100
00010000
00100000
,
00010000
10000000
00010000
00000000
10010000
00000000
00000000
00000000
,
01200000
00000000
20300000
00000000
,
32000000
03020000
00032000
00000000
,
00023000
00000000
00030020
00000000
,
00000230
00000302
00002003
00000000
,
00003002
00000000
00000020
00000000
,
00000033
00000000
00000000
00000000
;

//---------------dance-double - t7r----------------
#NOTES:
     dance-double:
     t7r:
     Medium:
     7:
     :
00000000
00000000
00000000
00000000
,
00000000
00000000
00000000
00000000
,
00000000
00000000
00000000
00000000
,
00000000
00000000
00000000
00000000
,
00000000
00000000
00000000
00000000
,
00000000
00000000
00000000
00000000
,
00000000
00000000
00000000
00000000
,
20000000
00000000
31000000
10000000
00010000
00000000
00000000
00000000
,
02000000
00000000
03001000
00010000
00000100
00000000
00000010
00000000
,
00000002
00000203
00010300
00100000
,
00010000
10000000
10010000
01000000
,
20010000
00000000
30100000
01000000
00001000
00000000
00000000
00000000
,
00020000
00000000
00030010
00001000
00000001
00000000
00000010
00000000
,
00000002
00000023
00010030
01000000
,
00100000
10000000
10010000
01100000
,
10000000
20000000
00000000
00000000
31000000
00000000
00000000
00000000
,
00020000
00000000
00031000
00000120
,
00001030
00002000
00000000
00000000
00003001
00000000
00000000
00000000
,
00000010
00001000
00010000
00000000
00000010
00010000
00001000
00000000
,
01000000
00100000
00100000
00000000
01100000
00000000
00001000
00000000
,
00020000
00000000
00030010
00000000
00000100
00000001
00002000
00000000
,
00003001
00000010
00000010
00000000
00000110
00000000
00010000
00000000
,
01000000
00010000
00001000
00000000
01000000
00001000
00010000
00000000
,
00021000
00030020
00000230
00000000
,
00000302
00000000
00000013
00001002
,
00001003
00000000
00001010
00000000
00000010
00001000
00010000
00000000
,
00200000
00000000
00310000
00000000
10000000
01000000
00010000
00000000
,
00000020
00000031
00002000
00003100
,
00000120
00000000
00010030
00000000
00001000
00100000
01000000
00010000
,
01000000
00000000
11000000
00000000
00201000
00000000
00310000
01000000
,
10000000
00000000
01000000
00000000
00001000
00010000
00000020
00000000
,
00000130
00000001
00001000
00000000
00000100
00010000
00001000
00000000
,
00011000
00011000
00022000
00033000
,
00201000
00000000
00310000
00000000
01000000
01000000
10000000
00000000
,
01000000
00010000
00000100
00000000
00000020
00000000
00001030
00000001
,
00001002
00000000
00000013
00000000
00000100
00000100
00000001
00000000
,
00000100
00010000
01000000
01000000
02000000
00000000
03100000
00000000
,
00010000
10010000
00000000
10000000
00100000
00001000
00000100
00000010
,
00000000
00000002
00000000
00000203
00002300
00023000
00230000
20300000
,
30010000
00000000
10010000
00000000
10000000
01000000
00010000
00010000
,
00021000
00030010
00000210
00000301
,
00000010
00001000
00010000
00000010
00001000
00010000
00100000
00010000
,
10000000
10000000
01000000
01000000
00001000
00000000
00000010
00000000
,
00000210
00000000
00000000
00000000
00000302
00000000
00000023
00002030
,
00023000
00032000
02003000
00000000
,
03200000
00000000
00000000
00000000
20300000
00000000
32000000
03020000
,
00032000
00003200
00000302
00000000
,
00002003
00000000
00000020
00000000
,
00003030
00000000
00000000
00000000
;

//---------------dance-double - t7r----------------
#NOTES:
     dance-double:
     t7r:
     Hard:
     13:
     :
00000000
00000000
00000000
00000000
,
00000000
00000000
00000000
00000000
,
00000000
00000000
00000000
00000000
,
00000000
00000000
00000000
00000000
,
00000000
00000000
00000000
00000000
,
00000000
00000000
00000000
00000000
,
00000000
00000000
00000000
00000000
,
00200000
00000000
00000000
10300000
01000000
00000000
00100000
01000000
00000000
00000000
10000000
00000000
00100000
00000000
00010000
00000000
,
00000200
00000000
00000000
00000310
00000001
00000000
00001000
00000001
00000000
00000000
00000100
00000000
00010000
00000000
00100000
00000000
,
00020000
00000000
00000000
00000000
02030000
00000000
00000000
00000000
13000000
00000000
01000000
00010000
00000000
00000000
10000000
00000000
,
01000000
00000000
00010000
00000000
00000010
00000000
00000100
00000000
00000001
00000010
00000010
00000000
00001000
00000000
00010000
00000000
,
00012000
00000000
00000000
01003000
00001000
00000000
00010000
00000100
00000000
00000100
00000000
00010000
00001000
00010000
00000000
00001000
,
00000000
00001000
01000000
00000000
00100000
00000000
10000000
01000000
00000000
01000000
00000000
00010000
00001000
00000000
00010000
00000000
,
00000020
00000000
00000000
00000000
00000032
00000000
00000000
00000000
00000013
00000000
00010000
00000100
00000000
00010000
00001000
00000000
,
01000000
00000000
10000000
00000000
01000000
00000000
00100000
01000000
01000000
00000000
00010000
00000000
00100000
00000000
00000000
00000000
,
10010000
20000000
00000000
00000000
31000000
00000000
00000000
00000000
,
00020000
00000000
00000000
00000000
00000000
00000000
00000000
00000000
00031000
00000000
00000000
00000000
00021000
00000000
00000000
00030010
,
00000100
00000210
00000000
00000000
00000301
00000000
00000000
00000000
,
00000010
00000000
00000010
00000000
00001000
00010000
00000100
00000000
00010000
00001000
00001000
00000000
01000000
00010000
10000000
00000000
,
00010000
00000000
01100000
00000000
01100000
00000000
01100000
00000000
10100000
00000000
10000000
01000000
00100000
00000000
00001000
00010000
,
00000020
00000000
00000000
00000130
00000002
00000000
00000000
00001003
00000100
00010000
00010000
00000000
00021000
00000000
00000000
00031000
,
00010000
00000000
00000110
00000000
00000110
00000000
00000110
00000000
00000101
00000000
00000001
00000010
00000100
00000000
00010000
00001000
,
01000000
10000000
01000000
00000000
00100000
10000000
00010000
00000000
01000000
00001000
00010000
00000000
00000100
00000001
00000100
00000000
,
00000020
00000000
00000032
00000000
00000203
00000000
00010300
00200000
,
10000000
00000000
01300000
00100000
00010000
10000000
01200000
00000000
,
10300000
00000000
01000000
00010000
01000000
00000000
00100000
00000000
00001000
00010000
00010000
00000000
00000010
00000000
00000100
00000001
,
00000000
00000100
00001000
00000000
00000100
00000000
00000010
00000000
00010000
00000100
00000000
00020000
00000000
00031000
01000000
00000000
,
00100000
00000000
00010000
00100000
00000000
10000000
01000000
00000000
00001000
00000000
00000010
00000001
00000000
00001000
00000100
00000000
,
00000020
00000000
00000000
00000000
00001030
00000000
00000000
00000000
00000001
00000010
00000010
00000000
00010000
00000000
01000000
00000000
,
01100000
00000000
10000000
00000000
01000000
00000000
00010000
00000000
00001000
00010000
00010000
00000000
00000010
00000000
00000001
00000010
,
00001000
00000000
00100000
01000000
00001000
00000000
00100000
00000000
10000000
00100000
00000000
00001000
00020000
00000000
00030010
00000100
,
00000000
00000001
00000010
00000100
00001000
00000000
00000010
00001000
00010000
00100000
00100000
00000000
00010000
00000000
10000000
00000000
,
10010000
00100000
10010000
01000000
10010000
01000000
01100000
00100000
,
10200000
00000000
00000000
00000000
10300000
00000000
01000000
00010000
01000000
00000000
00010000
00000000
00011000
00000000
00010000
00000010
,
00010000
00000000
00000010
00000000
00000011
00000000
00000010
00001000
00010000
00100000
00100000
00000000
00010000
10000000
01000000
00000000
,
10000000
00000000
01100000
00000000
10000000
01000000
10000000
01000000
00010000
00000000
00001000
00000000
00011000
00000000
00010000
00000010
,
00010000
00000010
00000001
00000000
00000010
00001000
00010000
00000000
01000000
00010000
00001000
00000000
00000010
00000000
00000110
00000000
,
00000001
00000000
00001001
00000000
00000000
00000001
00000010
00001000
00010000
00100000
10000000
00100000
01000000
00100000
01000000
01000000
,
00000000
00000000
20010000
00000000
00000000
00010000
30010000
00000000
20000000
32000000
03020000
00032000
00003200
00000302
00000203
00000320
,
00001030
00000000
00000100
00000001
00000100
00000000
00010000
00000000
00010100
00000000
00010000
00000000
00011000
00000000
00011000
00000000
,
00001000
00000000
01000000
10000000
01000000
00000000
00100000
00000000
10100000
00000000
10000000
00000000
10010000
00000000
10010000
00000000
,
10000000
00000000
00100000
00010000
00001000
00000000
00100000
00010000
00001000
00000000
00000010
00000000
00000100
00000001
00001000
00000000
,
00000001
00000010
00001000
00010000
01000000
00100000
00001000
00010000
00000010
00000000
00000200
00000000
00000302
00000000
00000023
00000000
,
00002030
00000000
00000000
02003000
23000000
32000000
03200000
20300000
,
32000000
00000000
03020000
00000000
00030020
00000000
00000230
00000302
,
00002003
00000000
00000000
00003002
00000023
00020030
02030000
03200000
,
20300000
32000000
03020000
00000000
,
00032000
00000000
02000000
00000000
,
03003000
00000000
00000000
00000000
;
