#TITLE:Why Not;
#SUBTITLE:;
#ARTIST:Virginelle;
#TITLETRANSLIT:;
#SUBTITLETRANSLIT:;
#ARTISTTRANSLIT:;
#CREDIT:;
#BANNER:Why Not.png;
#BACKGROUND:Why Not-bg.png;
#LYRICSPATH:;
#CDTITLE:;
#MUSIC:Why Not.ogg;
#OFFSET:-0.382;
#SAMPLESTART:62.064;
#SAMPLELENGTH:12.000;
#SELECTABLE:YES;
#BPMS:0.000=139.790;
#STOPS:;
#BGCHANGES:;

//---------------dance-single - ----------------
#NOTES:
     dance-single:
     :
     Hard:
     12:
     0.548,0.535,0.101,0.175,0.313:
0000
0000
0000
0000
,
0000
0000
0000
0000
,
0000
0000
0000
0000
,
0000
0000
0000
0000
,
0000
0000
0000
0000
,
0000
0000
0000
0000
,
0000
0000
0000
0000
,
1000
1000
0001
0001
0100
0100
0010
0010
,
1000
0100
0010
0100
0000
0000
1000
0000
,
0001
0100
0010
0100
0000
0000
0001
1000
,
0100
0010
1000
0010
0000
0000
0001
0000
,
0101
0000
0000
1010
0000
0000
1001
0000
,
0001
0100
0001
0000
1000
0100
0000
0020
0000
0000
0000
0000
0000
0000
0031
0000
,
1000
0010
1000
0000
0001
0010
0000
0100
0000
0010
0002
0000
0000
0000
0003
1000
,
0010
0000
0100
0000
1000
0100
0000
0020
0000
0000
0000
0000
0000
0000
1030
0001
,
0010
0000
0001
0000
1000
0010
0000
0100
0000
0001
0010
0000
0100
1000
0001
0000
,
0100
0010
0100
0000
0001
1000
0000
0200
0000
0000
0000
0000
0000
0000
0310
0000
,
0001
0010
0001
0000
1000
0010
0000
0100
0000
1000
0200
0000
0000
0000
0000
0301
,
0010
0000
0100
0000
0001
0100
0000
2000
0000
0000
0000
0000
0000
0000
3001
0100
,
0010
0000
1000
0000
0100
0001
0000
0100
0000
1000
0010
0000
0100
0010
0100
0000
,
0001
1000
0001
0000
0000
0010
0001
0001
,
1000
1000
0010
0100
0000
0001
0010
0100
,
1000
0001
1000
0001
1000
0000
0010
0000
0000
0000
0100
0000
0001
0000
0001
0000
,
1000
0000
0100
0010
0000
0100
1000
0000
0001
0000
0001
0000
0100
0000
0000
0000
,
0010
1000
1001
0000
0000
0001
0010
0010
,
0100
1000
0001
1000
0000
0010
0100
0001
,
1000
0100
0000
0010
0000
0010
0100
0100
,
1000
0001
0100
0010
0100
0001
1000
1000
,
0001
0010
0001
1000
0001
0100
0001
1000
,
0010
0000
1000
0000
0001
0000
1000
0000
0100
0000
1000
0000
0001
0000
0100
0010
,
1000
0100
0010
0100
0001
0100
0010
0100
,
1000
0010
0100
0010
0001
0010
1000
0000
,
0001
0010
0100
0010
1000
0010
0100
0010
,
0001
0000
0100
0000
0010
0000
0100
0000
1000
0000
0100
0000
0010
0000
0100
0001
,
1000
0100
0010
0100
0001
0100
0010
0100
,
1000
0010
0000
0001
0000
0100
0000
0000
,
2100
0000
3010
0000
0010
0100
0001
0010
,
0100
1000
0000
1000
0100
0010
1000
0010
,
0000
0001
1000
1000
0010
0100
1000
0200
,
0000
0000
0000
0001
0300
0000
1000
0000
0000
0000
0000
0000
0000
0000
0000
0000
0000
0000
0100
0000
0000
0000
0000
0000
0010
0000
0000
0000
0000
0000
0110
0000
0000
0000
0000
0000
0000
0000
0000
0000
0000
0000
0000
0000
0000
0000
0000
0000
,
0012
0000
0103
0000
0100
0010
1000
0100
,
0000
0010
0001
0100
1000
0100
0010
1000
,
0000
0100
0001
0001
1000
0010
0100
1000
,
0010
0200
0000
0000
1300
1000
0001
0001
,
0120
0000
1030
0000
0001
0010
0100
0001
,
0100
1000
0000
0010
0100
1000
0100
0001
,
0000
0010
0100
0100
1000
0010
0100
0002
,
0000
0013
0100
0000
0000
0000
1000
0000
0001
0000
1001
0000
0000
0000
0000
0000
,
1020
0000
0130
0000
0001
0010
0100
0001
,
0000
0100
1000
0010
0100
1000
0100
0001
,
0000
0010
0100
0100
0001
0100
1000
0001
,
0100
0010
0001
0010
1000
1000
0001
0001
,
0010
0100
0010
0000
0001
1000
0000
0020
0000
0000
0000
0000
0000
0000
0130
0000
,
0001
0010
0001
0000
1000
0010
0000
0100
0000
1000
0200
0000
0000
0000
0000
0301
,
0010
0000
0100
0000
0001
0100
0000
2000
0000
0000
0000
0000
0000
0000
3001
0100
,
0010
0000
1000
0000
0001
0010
0000
0100
0000
1000
0001
0000
0100
0010
0100
0000
,
0001
1000
0001
0000
0010
0100
0000
0020
0000
0000
0000
0000
0000
0000
0031
0000
,
1000
0010
1000
0000
0001
0010
0000
1000
0000
0010
0200
0000
0000
0000
0000
1300
,
0010
0000
0100
0000
1000
0100
0000
0020
0000
0000
0000
0000
0000
0000
1030
0001
,
1000
0000
0100
0000
0010
0001
0000
0100
0000
0010
1000
0000
0001
0010
0100
0000
,
1000
0100
0000
0001
0000
0010
0000
0000
,
1000
1001
0000
0000
;

//---------------dance-single - ----------------
#NOTES:
     dance-single:
     :
     Medium:
     10:
     0.440,0.451,0.092,0.239,0.064:
0000
0000
0000
0000
,
0000
0000
0000
0000
,
0000
0000
0000
0000
,
0000
0000
0000
0000
,
0000
0000
0000
0000
,
0000
0000
0000
0000
,
0000
0000
0000
0000
,
1000
0100
0010
0001
,
1000
0010
1000
0001
0000
0000
0010
0000
,
0100
1000
0100
0010
0000
0000
0001
1000
,
0001
0100
0010
0100
0000
0000
0001
0000
,
1001
0000
0000
0011
0000
0000
0110
0000
,
0100
0000
1000
0000
0001
0000
0000
0002
0000
0000
0000
0000
0000
0000
0103
0000
,
0010
0000
1000
0000
0100
0000
0000
0010
0000
0000
0200
0000
0000
0000
0000
0000
,
1300
0000
0010
0000
0100
0000
0000
0200
0000
0000
0000
0000
0000
0000
0001
0000
,
0310
0100
1000
0000
1000
0010
0001
0010
,
1000
0000
0001
0000
0010
0000
0000
0200
0000
0000
0000
0000
0000
0000
0310
0000
,
0001
0000
1000
0000
0010
0000
0000
0100
0000
0000
0020
0000
0000
0000
0000
0000
,
1030
0000
0001
0000
0010
0000
0000
0020
0000
0000
0000
0000
0000
0000
0031
0000
,
1000
0010
0100
0000
1000
0100
0001
0100
,
0110
0010
1010
0000
0000
1000
0100
0100
,
0001
0001
0100
1000
0000
0010
0100
1000
,
0200
0000
0001
0301
0000
1000
0100
0010
,
0100
1000
0000
0002
0000
0003
0000
0000
,
1001
1000
1010
0000
0000
0010
0100
0100
,
0001
0010
0001
1000
0000
0010
0100
0001
,
0010
0001
0000
0001
0000
1000
0010
1000
,
0001
0010
0000
0100
0000
0000
1000
1000
,
0001
0001
0100
1000
0000
1000
0100
0001
,
0000
0001
0010
0100
0000
0100
1000
0000
,
1000
1000
0100
0001
0000
0001
0100
1000
,
0000
0010
0100
1000
0000
0100
0010
0000
,
1000
1000
0010
0001
0000
0001
0010
1000
,
0000
0001
0010
0100
0000
0100
1000
0000
,
0100
0100
0010
1000
0000
0010
0000
0001
,
0100
1000
0000
0010
0000
0001
0000
0000
,
0012
0000
0103
0000
0010
0010
1000
0200
,
0000
0301
0100
2000
0000
3010
0100
1000
,
0000
0100
0010
0010
1000
0100
0001
0100
,
0000
1000
0001
0000
0000
0000
0200
0000
0000
0000
1300
0000
0000
0000
0000
0000
,
0200
0000
0310
0000
1000
0100
0001
0100
,
0000
1000
0010
0100
0000
1000
0100
0001
,
0000
0010
0100
0100
0001
0100
1000
0020
,
0000
0200
0000
0000
0330
0000
0100
0000
,
1002
0000
0013
0000
0100
0001
0100
0020
,
0000
0031
0100
2000
0000
3100
0010
1000
,
0000
0100
0001
0001
0100
0010
0001
0100
,
0000
1000
0100
0000
0000
0000
0010
0000
1000
0000
0100
0000
0000
0000
0000
0000
,
0020
0000
0130
0000
1000
0010
0001
0010
,
0000
0100
0001
0010
0000
0100
0001
1000
,
0000
0010
0100
0100
1000
0001
0100
1000
,
0000
0200
0000
0000
0001
0000
0010
0000
,
1300
0000
0100
0000
0010
0000
0000
0020
0000
0000
0000
0000
0000
0000
1030
0000
,
0001
0000
0001
0000
0010
0000
0000
0100
0000
0000
2000
0000
0000
0000
0000
0000
,
3010
0000
0100
0000
1000
0000
0000
2000
0000
0000
0000
0000
0000
0000
3100
0000
,
0010
1000
0100
0000
0001
0100
1000
0010
,
0001
0000
0010
0000
0100
0000
0000
0002
0000
0000
0000
0000
0000
0000
0013
0000
,
1000
0000
0010
0000
0100
0000
0000
0001
0000
0000
0200
0000
0000
0000
0000
0000
,
1300
0000
0010
0000
0100
0000
0000
2000
0000
0000
0000
0000
0000
0000
3100
0000
,
0001
0010
1000
0000
1000
0010
0001
0100
,
1000
0100
0000
0001
0000
0010
0000
0000
,
1000
1001
0000
0000
;

//---------------dance-single - ----------------
#NOTES:
     dance-single:
     :
     Easy:
     6:
     0.285,0.338,0.064,0.175,0.000:
0000
0000
0000
0000
,
0000
0000
0000
0000
,
0000
0000
0000
0000
,
0000
0000
0000
0000
,
0000
0000
0000
0000
,
0000
0000
0000
0000
,
0000
0000
0000
0000
,
0000
0000
0000
0000
,
1000
0000
0000
1000
0000
0000
0100
0000
,
0010
0000
0000
0010
0000
0000
0001
0000
,
1000
0000
0000
1000
0000
0000
0010
0000
,
0110
0000
0000
1001
0000
0000
0110
0000
,
0001
0100
0020
0000
,
1030
1000
0100
0000
,
0010
0001
2000
0000
,
3010
0100
0001
0001
,
1000
0100
0020
0000
,
0031
0001
0100
0000
,
0010
1000
0002
0000
,
0013
0100
1000
0010
,
0100
0100
0100
0000
0000
0000
0001
0000
,
1000
0100
0010
0100
,
1000
0000
0000
1000
,
0010
0100
0001
0000
,
0010
0010
0010
0000
0000
0000
0001
0000
,
0100
1000
0100
0010
,
1000
0000
0000
0100
,
0010
0100
0001
0000
,
0100
1000
0001
1000
,
0010
1000
0100
0001
,
1000
0010
0001
0100
,
1000
0100
0020
0030
,
0010
1000
0001
1000
,
0100
0001
0100
1000
,
0010
0100
1000
0001
,
0010
0100
0000
0001
0000
0001
0000
0000
,
0020
0130
0001
0100
,
1000
0010
0100
0010
,
1000
1000
0001
0001
,
0020
0130
2000
3010
,
0210
0301
0010
0100
,
1000
0100
0010
0010
,
0001
0100
1000
0100
,
0020
1000
0100
0031
,
0020
1030
0100
0010
,
1000
0001
0100
0010
,
0001
0001
1000
1000
,
0020
0130
2000
3100
,
0120
1030
0001
0010
,
0100
0001
1000
0010
,
0100
1000
0001
0100
,
0020
0001
0100
1030
,
0001
0010
0200
0000
,
1300
0010
0100
0000
,
0100
0010
2000
0000
,
3100
0010
0001
0001
,
1000
0010
0200
0300
,
0001
0010
0100
0000
,
0100
0010
0002
0000
,
1003
0010
0100
0100
,
0001
0010
0000
0100
0000
0100
0000
0000
,
1100
1001
0000
0000
;

//---------------dance-double - ----------------
#NOTES:
     dance-double:
     :
     Hard:
     13:
     0.574,0.592,0.147,0.156,0.354: // measure 1
00000000
00000000
00000000
00000000
,  // measure 2
00000000
00000000
00000000
00000000
,  // measure 3
00000000
00000000
00000000
00000000
,  // measure 4
00000000
00000000
00000000
00000000
,  // measure 5
00000000
00000000
00000000
00000000
,  // measure 6
00000000
00000000
00000000
00000000
,  // measure 7
00000000
00000000
00000000
00000000
,  // measure 8
00010000
00010000
00001000
00001000
00000100
00000100
00000010
00000010
,  // measure 9
00001000
00000100
00010000
00001000
00000000
00000000
10010000
00000000
,  // measure 10
00010000
00100000
00001000
00010000
00000000
00000000
00000010
00001000
,  // measure 11
00000100
00010000
00001000
00100000
00000000
00000000
00110000
00000000
,  // measure 12
10010000
00000000
00000000
00011000
00000000
00000000
00001001
00000000
,  // measure 13
00000001
00000100
00000010
00000000
00000100
00001000
00000000
00020000
00000000
00000000
00000000
00000000
00000000
00130000
01000000
00100000
,  // measure 14
10000000
00010000
10000000
00000000
01000000
00100000
00000000
00001000
00000000
00010000
00002000
00000000
00000000
00000000
00000000
00003010
,  // measure 15
00000001
00000000
00001000
00000000
00000010
00000100
00000000
00002000
00000000
00000000
00000000
00000000
00000000
00000000
00013000
00100000
,  // measure 16
01000000
00000000
00010000
00000000
10000000
01000000
00000000
00010000
00000000
00001000
00000100
00000000
00000001
00001000
00000001
00000000
,  // measure 17
00000010
00000100
00010000
00000000
01000000
00100000
00000000
00002000
00000000
00000000
00000000
00000000
00000000
00003100
00000010
00000100
,  // measure 18
00001000
00010000
00001000
00000000
00000100
00000001
00000000
00000010
00000000
00001000
00020000
00000000
00000000
00000000
00000000
01030000
,  // measure 19
10000000
00000000
00100000
00000000
00010000
00001000
00000000
00020000
00000000
00000000
00000000
00000000
00000000
00000000
00130000
10000000
,  // measure 20
00010000
00000000
00100000
00000000
01000000
00010000
00000000
00001000
00000000
00000100
00000010
00000000
00001000
00000001
00001000
00000000
,  // measure 21
00001010
00010000
00011000
00000000
00000000
00100000
00010000
00010000
,  // measure 22
10000000
00100000
00010000
00001000
00000000
00000100
00000001
00001000
,  // measure 23
00000100
00010000
00000100
00010000
00001000
00000000
00000000
00000000
00000000
00000000
00010000
00000000
00001000
00000000
00100000
00000000
,  // measure 24
01000000
00000000
10000000
00100000
00000000
00100000
01000000
00010000
00100000
00000000
00001000
00000000
00010000
00000000
00000000
00000000
,  // measure 25
00011000
00000010
00001010
00000000
00000000
00000001
00000010
00000010
,  // measure 26
00001000
00010000
00000010
00000100
00001000
00010000
01000000
00010000
,  // measure 27
00001000
00000010
00000000
00000010
00000000
00000010
00000001
00000100
,  // measure 28
00001000
00010000
01000000
10000000
00100000
01000000
00001000
00001000
,  // measure 29
00010000
00000010
00001000
00000001
00000010
00000100
00010000
00001000
,  // measure 30
00000100
00000000
00000010
00000000
00010000
00000000
00001000
00000000
00100000
00000000
00010000
00000000
10000000
00000000
01000000
00100000
,  // measure 31
00001000
00010000
00000010
00001000
00000001
00000100
00000010
00001000
,  // measure 32
00000001
00000100
00001000
00010000
01000000
10000000
01000000
00000000
,  // measure 33
00010000
00000100
00001000
00000001
00000100
00000010
00010000
00000100
,  // measure 34
00000010
00000000
00001000
00000000
00010000
00000000
00001000
00000000
00100000
00000000
00010000
00000000
10000000
00000000
00100000
01000000
,  // measure 35
00001000
00010000
00000010
00001000
00000001
00000010
00001000
00010000
,  // measure 36
00100000
10000000
00000000
01000000
00000000
00010000
00000000
00000000
,  // measure 37
00012000
00000000
00003100
00000000
00000001
00000010
00001000
00010000
,  // measure 38
00000010
00000100
00001000
00010000
00100000
10000000
00010000
00100000
,  // measure 39
00000000
01000000
10000000
10000000
00100000
01000000
10000000
01000000
,  // measure 40
00000000
00000000
00001000
00010000
00000100
00000000
00000010
00000000
00000001
00000000
00001001
00000000
00000000
00000000
00000000
00000000
,  // measure 41
00021000
00000000
00130000
00000000
10000000
00010000
00100000
10000000
,  // measure 42
00100000
00001000
00000010
00000100
00010000
00001000
00000100
00000001
,  // measure 43
00000000
00000010
00001000
00001000
00010000
00100000
00001000
00000010
,  // measure 44
00000001
00000010
00001000
00001000
00100000
10000000
00100000
00010000
,  // measure 45
00012000
00000000
00003010
00000000
00000001
00001000
00000010
00000100
,  // measure 46
00001000
00010000
01000000
10000000
00100000
01000000
10000000
01000000
,  // measure 47
00000000
00010000
00100000
00100000
01000000
00010000
00001000
00000010
,  // measure 48
00000000
00000000
00000001
00000100
00000010
00000000
00010000
00000000
00001000
00000000
01010000
00000000
00000000
00000000
00000000
00000000
,  // measure 49
00021000
00000000
01030000
00000000
10000000
00100000
00010000
00001000
,  // measure 50
00010000
01000000
00100000
00001000
00010000
00000010
00000100
00001000
,  // measure 51
00000000
00000100
00000010
00000010
00010000
00100000
10000000
00010000
,  // measure 52
00100000
01000000
00010000
00001000
00000010
00000001
00001000
00000010
,  // measure 53
00000100
00001000
00010000
00000000
00100000
01000000
00000000
00020000
00000000
00000000
00000000
00000000
00000000
10030000
01000000
10000000
,  // measure 54
00100000
01000000
00010000
00000000
00100000
01000000
00000000
00010000
00000000
00001000
00000200
00000000
00000000
00000000
00000000
00000301
,  // measure 55
00001000
00000000
00000100
00000000
00000010
00001000
00000000
00020000
00000000
00000000
00000000
00000000
00000000
00000000
00130000
10000000
,  // measure 56
00010000
00000000
00100000
00000000
01000000
00010000
00000000
00001000
00000000
00000010
00000100
00000000
00001000
00000001
00001000
00000000
,  // measure 57
00000010
00000100
00001000
00000000
00010000
00100000
00000000
20000000
00000000
00000000
00000000
00000000
00000000
30010000
00100000
00010000
,  // measure 58
01000000
00100000
01000000
00000000
00001000
00010000
00000000
00000100
00000000
00000010
00000002
00000000
00000000
00000000
00000000
00001003
,  // measure 59
00000010
00000000
00000100
00000000
00001000
00010000
00000000
00002000
00000000
00000000
00000000
00000000
00000000
00000000
00003010
00000001
,  // measure 60
00000100
00000000
00001000
00000000
00010000
01000000
00000000
10000000
00000000
00100000
00010000
00000000
00001000
00010000
00001000
00000000
,  // measure 61
00000010
00000001
00000000
00000100
00000000
00001000
00000000
00000000
,  // measure 62
00021000
10030000
00000000
00000000
;

//---------------dance-double - ----------------
#NOTES:
     dance-double:
     :
     Medium:
     11:
     0.468,0.479,0.101,0.202,0.055: // measure 1
00000000
00000000
00000000
00000000
,  // measure 2
00000000
00000000
00000000
00000000
,  // measure 3
00000000
00000000
00000000
00000000
,  // measure 4
00000000
00000000
00000000
00000000
,  // measure 5
00000000
00000000
00000000
00000000
,  // measure 6
00000000
00000000
00000000
00000000
,  // measure 7
00000000
00000000
00000000
00000000
,  // measure 8
00010000
00010000
00001000
00001000
00010000
00010000
00001000
00001000
,  // measure 9
00100000
00010000
10000000
00100000
00000000
00000000
01000000
00000000
,  // measure 10
00001000
00010000
00000100
00001000
00000000
00000000
00000010
00000100
,  // measure 11
00000001
00001000
00000100
00010000
00000000
00000000
00001000
00000000
,  // measure 12
00011000
00000000
00000000
10010000
00000000
00000000
01100000
00000000
,  // measure 13
00100000
00000000
10000000
00000000
01000000
00000000
00000000
00020000
00000000
00000000
00000000
00000000
00000000
00000000
00031000
00000000
,  // measure 14
00000010
00000000
00000100
00000000
00001000
00000000
00000000
00000001
00000000
00000000
00000200
00000000
00000000
00000000
00000000
00000000
,  // measure 15
00000310
00000000
00010000
00000000
00001000
00000000
00000000
00200000
00000000
00000000
00000000
00000000
00000000
00000000
00310000
00000000
,  // measure 16
10000000
00100000
00010000
00100000
10000000
01000000
00010000
00001000
,  // measure 17
00000010
00000000
00001000
00000000
00010000
00000000
00000000
00200000
00000000
00000000
00000000
00000000
00000000
00000000
10300000
00000000
,  // measure 18
00010000
00000000
00100000
00000000
01000000
00000000
00000000
00010000
00000000
00000000
02000000
00000000
00000000
00000000
00000000
00000000
,  // measure 19
13000000
00000000
00100000
00000000
00010000
00000000
00000000
00002000
00000000
00000000
00000000
00000000
00000000
00000000
00003010
00000000
,  // measure 20
00000001
00000100
00001000
00000100
00000001
00000010
00001000
00010000
,  // measure 21
00100000
10000000
00010000
00000000
00000000
00100000
01000000
01000000
,  // measure 22
10000000
00100000
01000000
00100000
00000000
00010000
00001000
00000010
,  // measure 23
00000100
00000100
00001000
00000000
00000000
00000001
00000100
00010000
,  // measure 24
00001000
00000010
00000000
00000200
00000000
00000000
00000300
00000000
,  // measure 25
00000101
00000001
00001001
00000000
00000000
00001000
00000100
00000100
,  // measure 26
00010000
00001000
00100000
10000000
00000000
00100000
01000000
10000000
,  // measure 27
00010000
01000000
00000000
00100000
00000000
00010000
00001000
00000010
,  // measure 28
00001000
00010000
00000000
00000010
00000100
00000001
00001000
00001000
,  // measure 29
00000001
00000001
00000100
00001000
00000000
00010000
01000000
10000000
,  // measure 30
00000000
00100000
00010000
00001000
00000000
00000010
00001000
00000000
,  // measure 31
00010000
00010000
00100000
10000000
00000000
01000000
00010000
00001000
,  // measure 32
00000000
00000010
00001000
00010000
00100000
00100000
10000000
10000000
,  // measure 33
01000000
00010000
00001000
00010000
00000000
00001000
00000100
00000010
,  // measure 34
00000000
00010000
01000000
00100000
00000000
01000000
00010000
00000000
,  // measure 35
00001000
00000100
00000001
00000010
00000000
00001000
00010000
00100000
,  // measure 36
10000000
01000000
00000000
00100000
00000000
00001000
00000000
00000000
,  // measure 37
00012000
00000000
00003100
00000000
00000001
00000010
00000100
00010000
,  // measure 38
00001000
00100000
00010000
02000000
00000000
13000000
01000000
00010000
,  // measure 39
00000000
10000000
01000000
00010000
01000000
10000000
01000000
00020000
,  // measure 40
00000000
00001000
00000000
00100000
00000000
10030000
00000000
00000000
,  // measure 41
02100000
00000000
03010000
00000000
10000000
01000000
00100000
00001000
,  // measure 42
00000000
00010000
00000010
00001000
00000001
00000010
00001000
00010000
,  // measure 43
00000000
00100000
10000000
10000000
00010000
00100000
01000000
00010000
,  // measure 44
00001000
00000010
00000100
00001000
00000001
00000100
00000010
00010000
,  // measure 45
00021000
00000000
00130000
00000000
10000000
01000000
00100000
00001000
,  // measure 46
00010000
00000010
00001000
00000200
00000000
00000301
00000100
00001000
,  // measure 47
00000000
00000001
00000100
00001000
00000100
00000001
00000100
00002000
,  // measure 48
00000000
00010000
00000000
00000010
00000000
00003001
00000000
00000000
,  // measure 49
00000210
00000000
00001300
00000000
00000001
00000100
00000010
00010000
,  // measure 50
00000000
00010000
00001000
00100000
00010000
10000000
00100000
00010000
,  // measure 51
00000000
00001000
00000010
00000010
00000100
00001000
00000001
00000100
,  // measure 52
00000010
00000100
00001000
00010000
00100000
01000000
00010000
10000000
,  // measure 53
01000000
00000000
00010000
00000000
00001000
00000000
00000000
00000020
00000000
00000000
00000000
00000000
00000000
00000000
00000031
00000000
,  // measure 54
00001000
00000000
00001000
00000000
00000010
00000000
00000000
00000100
00000000
00000000
00002000
00000000
00000000
00000000
00000000
00000000
,  // measure 55
00013000
00000000
00100000
00000000
10000000
00000000
00000000
00020000
00000000
00000000
00000000
00000000
00000000
00000000
00130000
00000000
,  // measure 56
10000000
00010000
01010000
00000000
01000000
10000000
00100000
00010000
,  // measure 57
00001000
00000000
00000010
00000000
00000100
00000000
00000000
00002000
00000000
00000000
00000000
00000000
00000000
00000000
00003010
00000000
,  // measure 58
00000001
00000000
00000010
00000000
00000100
00000000
00000000
00001000
00000000
00000000
00020000
00000000
00000000
00000000
00000000
00000000
,  // measure 59
00130000
00000000
10000000
00000000
01000000
00000000
00000000
00200000
00000000
00000000
00000000
00000000
00000000
00000000
00301000
00000000
,  // measure 60
00000010
00000100
00001000
00000001
00000100
00001000
00010000
00100000
,  // measure 61
10000000
01000000
00000000
00010000
00000000
00001000
00000000
00000000
,  // measure 62
00012000
00003001
00000000
00000000
;

//---------------dance-double - ----------------
#NOTES:
     dance-double:
     :
     Easy:
     8:
     0.323,0.338,0.110,0.221,0.000:
00000000
00000000
00000000
00000000
,
00000000
00000000
00000000
00000000
,
00000000
00000000
00000000
00000000
,
00000000
00000000
00000000
00000000
,
00000000
00000000
00000000
00000000
,
00000000
00000000
00000000
00000000
,
00000000
00000000
00000000
00000000
,
00010000
01000000
10000000
00100000
,
10010000
00000000
00000000
10000000
00000000
00000000
00010000
00000000
,
00001000
00000000
00000000
00001000
00000000
00000000
00000001
00001000
,
00000001
00000000
00000000
00001000
00000000
00000000
00010000
00000000
,
10010000
00000000
00000000
00011000
00000000
00000000
00001001
00000000
,
00000001
00000100
00000020
00000000
,
00000031
00000000
00000010
00000000
00010000
02000000
00000000
00000000
,
13000000
01000000
00200000
00000000
,
00301000
00000100
00000001
00011000
,
10000000
01000000
00200000
00000000
,
00301000
00000000
00000010
00000000
00000001
00000200
00000000
00000000
,
00001300
00010000
00200000
00000000
,
10300000
00010000
00100000
00011000
,
00000010
00000010
00000100
00000000
00000000
00000000
00000001
00000000
,
00000010
00001000
00010000
00100000
,
00020000
00030000
00000000
00001000
,
00010000
01000000
10000000
00000000
,
00100000
00100000
01000000
00000000
00000000
00000000
10000000
00000000
,
01000000
00001000
00000100
00000010
,
00010000
00000000
00000000
00001000
,
00000010
00000001
00000100
00000000
,
00001000
00000100
00000001
00000010
00000000
00001000
00000000
00010000
,
00000000
00100000
00000000
10000000
00000000
01000000
00010000
00000000
,
00010000
01000000
10000000
00100000
00000000
00010000
00000000
00001000
,
00000000
00000010
00000000
00000001
00000000
00000100
00000000
00000000
,
00001000
00010000
01000000
10000000
00000000
00100000
00000000
00010000
,
00000000
00001000
00000000
00000010
00000000
00001000
00010000
00000000
,
00100000
10000000
01000000
00010000
00000000
00001000
00000000
00000100
,
00000001
00000100
00000000
00001000
00000000
00010000
00000000
00000000
,
00021000
01030000
10000000
00100000
,
00001000
00000010
00000001
00000010
,
00010000
00001000
00100000
00010000
,
00002000
00000010
00023000
00130000
,
20010000
30100000
10000000
01000000
,
00010000
00001000
00000100
00000001
,
00000010
00000000
00001000
00000000
00010000
00000000
00100000
00010000
,
00000000
00002000
00000010
00000000
00000001
00000000
00000100
00000000
,
00023000
01030000
10000000
00100000
,
00001000
00000010
00000001
00000010
,
00010000
00001000
00000010
00001000
,
00020000
00100000
00032000
00003010
,
00002001
00003100
00001000
00000010
,
00000100
00010000
10000000
01000000
,
00010000
00000000
00001000
00000000
00000100
00000000
00000100
00001000
,
00000000
00020000
00100000
00000000
10000000
00000000
01000000
00000000
,
00031000
00000010
00000002
00000000
,
00000103
00000000
00001000
00000000
00100000
02000000
00000000
00000000
,
13000000
00100000
00020000
00000000
,
00031000
00000010
00000001
00011000
,
10000000
00100000
00020000
00000000
,
00031000
00000000
00000100
00000000
00000001
00000020
00000000
00000000
,
00001030
00010000
00200000
00000000
,
10300000
01000000
00010000
00000110
,
00000001
00000010
00000000
00001000
00000000
00010000
00000000
00000000
,
00012000
00003001
00000000
00000000
;
