#TITLE:取り残された美術(Arranged-HiZuMi);
#SUBTITLE:;
#ARTIST:幽閉サテライト feat. senya;
#TITLETRANSLIT:Torinokosareta bijutsu(Arranged-HiZuMi);
#SUBTITLETRANSLIT:;
#ARTISTTRANSLIT:Yuuhei Satellite feat. senya;
#GENRE:HYPER J-POP;
#CREDIT:;
#MUSIC:Torinokosareta bijutsu.ogg;
#BANNER:Torinokosareta bijutsu.png;
#BACKGROUND:Torinokosareta bijutsu-bg.png;
#CDTITLE:;
#SAMPLESTART:64.504;
#SAMPLELENGTH:15.000;
#SELECTABLE:YES;
#OFFSET:-0.051;
#BPMS:0.000=160.000;
#STOPS:;
#BGCHANGES:0.000=Torinokosareta bijutsu.avi=1.000=0=0=1,
99999.000=-nosongbg-=1.000=0=0=0=StretchNoLoop====
;
#FGCHANGES:;

//--------------- dance-single - forcednature ----------------
#NOTES:
     dance-single:
     forcednature:
     Beginner:
     4:
     0,0,0,0,0:
0000
0000
0000
0000
,
0000
0000
0000
0000
,
0000
0000
0000
0000
,
0000
0000
0000
0000
,
0000
0000
0000
0000
,
1001
0000
0000
0000
,
0110
0000
0000
0000
,
1000
0001
1000
0001
,
0100
0100
0100
0100
,
0010
0000
1000
0000
,
0001
0000
0001
0000
,
0100
0000
0010
0000
,
1000
0000
1000
0000
,
0100
0000
0010
0000
,
0001
0000
0100
0000
,
0010
0000
1000
0000
,
0001
0000
1000
0000
,
0100
0100
0100
0100
,
0010
0000
0010
0000
,
0010
0000
0000
0000
,
0001
0000
0100
0000
,
0001
0000
0000
0000
,
0010
0000
0010
0000
,
0010
0000
0000
0000
,
1000
0000
0100
0000
,
1000
0000
1000
0000
,
0000
0010
0100
0000
,
0001
0000
0000
0000
,
1000
0000
0100
0000
,
0010
0000
0000
0000
,
0100
0000
1000
0000
,
0001
0000
0000
0000
,
0100
0000
0010
0000
,
1000
0001
1000
0001
,
0010
0000
0100
0000
,
1000
1000
1000
0000
,
0010
0000
0100
0000
,
0001
0001
0001
0000
,
1001
0000
0110
0000
,
0010
0010
0010
0000
,
0110
0000
1001
0000
,
0100
0000
0100
0000
,
0010
0010
0010
0010
,
0110
0000
1001
0000
,
1000
0000
0001
0000
,
0100
0000
0010
0000
,
1000
0000
0000
0000
,
0001
0000
0010
0000
,
0100
0100
0100
0000
,
0010
0000
0001
0000
,
0100
0100
0100
0000
,
0110
0000
1001
0000
,
1000
1000
1000
0000
,
0010
0000
0100
0000
,
0001
0001
0001
0000
,
1000
0000
0100
0000
,
0010
0100
0010
0000
,
0001
1000
0001
0000
,
0100
0100
0100
0000
,
0010
0000
1000
0000
,
0001
0000
0000
0000
,
0010
0000
0001
0000
,
1000
0000
0000
0000
,
0100
0000
1000
0000
,
0001
0000
0000
0000
,
0100
0000
0001
0000
,
1000
1000
1000
0000
,
0010
0100
0010
0100
,
2002
0000
0000
0000
,
3003
0000
0000
0000
;

//--------------- dance-single - forcednature ----------------
#NOTES:
     dance-single:
     forcednature:
     Easy:
     8:
     0,0,0,0,0:
0000
0000
0000
0000
,
0000
0000
0000
0000
,
0000
0000
0000
0000
,
0000
0000
0000
0000
,
0000
0000
0000
0000
,
1001
0010
0100
0000
,
0010
0000
0000
0010
0000
0000
0010
0000
0010
0000
0000
0000
0000
0000
0000
0000
,
1001
0100
1001
0010
,
1001
1001
1001
1001
,
0001
0100
0010
1000
,
0100
0010
0110
1001
,
1000
0010
0100
0001
,
0010
0100
1000
0001
,
1001
1000
0010
0100
,
0001
0010
0110
1001
,
1000
0001
0100
0001
,
0010
0100
0010
0000
0100
0010
0100
0000
,
0110
0110
0110
1001
,
0001
0100
0010
1000
,
0001
0010
0200
0300
,
0010
0001
1000
0010
,
1000
0001
0020
0030
,
0100
1000
0001
1000
,
0010
0100
0002
0003
,
0010
0100
0010
0001
,
0100
0000
0010
0000
1000
0001
1000
0001
,
0000
0100
0100
0000
0010
0000
1000
0000
,
0001
1000
0200
0300
,
0010
0001
0100
0010
,
0100
0001
0020
0030
,
0100
1000
0001
1000
,
0010
0100
0002
0003
,
1000
0100
0010
0100
,
1000
0001
1000
0000
0001
1000
0001
0000
,
0100
0001
0010
0100
,
0010
0000
0000
0010
0000
0000
0010
0000
0000
0000
0000
0000
0100
0000
0000
0000
,
1000
0001
0100
0010
,
0100
0000
0000
0100
0000
0000
0100
0000
0000
0000
0010
0000
0000
0000
0000
0000
,
2002
3003
0220
0330
,
0010
0100
0010
0100
0010
0100
0010
0000
,
1100
1000
0101
0001
,
1000
0001
0010
0100
,
0110
0110
0110
1001
,
2000
0000
3002
0000
,
0103
0001
1000
0010
,
1000
0100
0010
0001
,
0100
0010
2000
3000
,
0001
0010
0100
1000
,
0010
0100
0010
1000
,
0001
0000
0000
0000
0010
0000
0000
0000
0100
0000
0000
0100
0000
0000
0100
0000
,
1000
0001
1000
0000
0001
1000
0001
0000
,
0200
0000
0320
0000
,
1030
0100
0010
0100
,
1000
0010
0100
0001
,
0010
0100
0020
0030
,
0001
0100
0010
1000
,
0001
0000
0000
0001
0000
0000
0001
0000
1000
0000
0000
0000
1000
0000
0100
0000
,
0010
0110
0100
0110
,
1000
0001
1000
0000
0001
1000
0001
0000
,
1000
0000
0010
0000
0100
0100
0001
0000
,
0010
0100
0020
0030
,
0001
0000
1000
0000
0010
0010
0100
0000
,
0001
1000
0200
0300
,
0010
0000
0100
0000
1000
1000
0010
0000
,
0100
0001
0020
0030
,
1100
1000
0101
0001
,
1000
0001
1000
0001
2000
0000
3000
0000
,
0110
0110
0110
1001
,
2002
0000
0000
0000
,
3003
0000
0000
0000
;

//--------------- dance-single - forcednature ----------------
#NOTES:
     dance-single:
     forcednature:
     Medium:
     12:
     0,0,0,0,0:
0000
0000
0000
0000
,
0000
0000
0000
0000
,
0000
0000
0000
0000
,
0000
0000
0000
0000
,
0000
0000
0000
0000
,
0001
0100
0001
0100
0010
0000
0000
0000
,
1000
0000
0000
1000
0000
0000
0100
0000
0010
0000
0000
0000
0001
0000
0100
0000
,
0010
1010
0100
0011
,
1001
1001
1001
1001
,
0001
0100
0001
0100
0010
1000
0010
1000
,
0001
1000
0100
0010
0001
0000
1001
0000
,
1000
0010
1000
0010
0100
0001
0100
0001
,
0010
0100
0010
0100
1000
0001
0100
0010
,
1000
0100
1000
0100
0010
0001
0010
0001
,
0100
0010
1000
0001
0010
0000
1001
0000
,
1000
0010
1000
0010
0100
0001
0010
0100
,
1000
1000
0001
0001
1000
1000
0001
0001
,
1001
1100
0101
1001
,
0002
0203
0320
2030
,
3002
0000
1003
0100
0020
0000
0030
0000
,
0200
2300
3002
0203
,
2300
0000
3100
0010
1000
0001
1000
0001
,
0020
0230
0320
0032
,
0203
0000
0310
1000
0200
0000
0300
0000
,
0002
0000
0103
0010
0002
0000
0103
0010
,
1000
0001
1000
0001
0010
0100
0010
0100
,
0000
1001
2000
0000
3002
0000
0203
0000
,
0320
0000
1030
0100
0020
0000
0030
0000
,
0200
2300
3002
0203
,
0320
0000
1030
0001
0020
0000
0030
0000
,
2000
3020
0032
2003
,
3002
0000
0103
0010
2000
0000
3000
0000
,
0200
0000
0310
0001
0200
0000
0310
1000
,
0001
0010
0001
0010
0100
1000
0100
1000
,
0010
0000
0100
0000
0001
0000
0000
1000
0000
0000
0100
0000
0010
0000
0001
0000
,
0100
0000
0000
0110
0000
0000
1001
0000
0000
0000
0001
0000
1000
0000
0100
0000
,
0000
0000
0010
0000
0001
0000
0000
0100
0000
0000
0010
0000
1000
0000
0001
0000
,
0010
0000
0000
0110
0000
0000
1001
0000
0000
0000
0001
0000
1000
0000
0001
0000
,
1000
0100
1000
0000
0000
0000
0000
0000
0001
0100
0001
0000
0000
0000
0000
0000
,
0010
0010
0100
0100
1000
0001
0100
0010
,
1001
0000
1000
0100
0110
0000
0001
0100
,
0010
1000
0010
1000
0001
0010
0001
0010
,
0110
1100
0101
1001
,
0002
0000
0000
1003
0020
0000
0000
1030
,
0100
0010
0100
0010
0001
1000
0001
1000
,
0001
0100
0001
0100
0010
1000
0010
1000
,
0001
0010
0100
1000
0020
0000
0030
0000
,
0100
0001
0100
0001
0020
0000
0130
1000
,
0001
0000
0000
1000
0000
0000
0010
0000
0100
0000
0000
0000
0001
0000
1000
0000
,
0200
0000
0000
0000
0310
0000
0000
0000
0110
0000
0000
0110
0000
0000
1001
0000
,
1000
0010
1000
0010
0100
0001
0100
0001
,
0020
0000
0000
0130
2000
0000
0000
3010
,
0100
0001
0100
0001
0010
0100
0010
0100
,
1000
0001
1000
0001
0100
0010
0100
0010
,
1000
0001
0010
0100
2000
0000
3000
0000
,
0010
1000
0001
0100
0010
1000
0100
0010
,
1001
0000
0000
1001
0000
0000
0100
0000
0010
0000
0000
0000
0100
0000
0100
0000
,
0100
1001
0010
1001
,
1000
1000
0001
0001
0100
0010
0100
0010
,
1000
0000
0000
0000
0001
0000
0010
0000
0100
0000
0000
1000
0000
0000
0010
0000
,
0100
0000
0001
0010
0200
0000
0000
0000
,
1300
0000
0000
0001
0000
0000
0100
0000
0010
0000
1000
0001
1000
0000
0100
0000
,
0010
0000
0000
0001
0100
0000
0010
0000
2000
0000
0000
0000
0000
0000
0000
0000
,
3001
0000
0000
0000
0010
0000
0100
0000
0010
0000
0000
0001
0000
0000
0100
0000
,
0010
0000
0000
0000
1000
0100
1000
0000
0020
0000
0000
0000
0000
0000
0000
0000
,
0130
0000
0000
0001
1000
0000
0000
1000
0001
0000
0000
0001
1000
0000
0000
1000
,
0100
0000
0100
0000
0010
0001
0000
0001
0200
0000
0000
0000
0310
0000
0000
0000
,
0110
1100
0101
1001
,
0220
0000
0000
0000
,
0330
0000
0000
0000
;

//--------------- dance-single - forcednature ----------------
#NOTES:
     dance-single:
     forcednature:
     Hard:
     15:
     0,0,0,0,0:
0000
0000
0000
0000
,
0000
0000
0000
0000
,
0000
0000
0000
0000
,
0000
0000
0000
0000
,
0000
0000
0000
0000
,
0001
0100
1000
0100
0020
0000
0030
1000
,
1001
0000
0000
0001
0000
0000
0010
0000
0100
0000
0000
0000
0010
0000
0001
0000
,
0101
1000
1100
0001
,
1010
0011
1100
0101
,
1000
0000
0001
0000
0100
0000
0001
0000
0010
0000
0100
1000
0001
0000
0010
0000
,
0001
0100
1000
0100
0110
0000
1001
0000
,
1000
0000
0100
0000
0001
0000
0100
0000
0010
0000
0001
1000
0010
0000
0100
0000
,
0001
0000
0001
0000
1000
0000
1000
0000
0001
0010
0001
0000
0010
0001
0010
0000
,
0100
0000
1000
0000
0010
0000
0100
0000
0001
0000
1000
0100
0010
0000
0001
0000
,
1000
0010
0001
0010
0110
0000
1001
0000
,
0001
0010
0100
0001
1000
0010
0001
1000
,
0001
0100
0001
0000
1000
0100
1000
0000
0001
0010
0001
0000
1000
0010
1000
0000
,
1100
0101
1010
0011
,
0001
0100
0000
0000
0100
0010
0000
0000
0010
1000
0000
0000
1000
0001
0000
0000
,
0001
0010
0000
0000
0100
0000
1000
0000
0020
0000
0000
0000
0030
0000
0000
0000
,
0100
0001
0000
0000
0001
0010
0000
0000
0010
1000
0000
0000
1000
0010
0000
0000
,
0010
0001
0000
0000
0001
0000
0100
0000
0010
1000
0010
0000
1000
0010
1000
0000
,
0001
0100
0000
0000
0100
1000
0000
0000
1000
0100
0000
0000
0100
0010
0000
0000
,
0010
1000
0000
0000
0001
0000
0010
0000
0200
0000
0000
0000
0300
0000
0000
0000
,
0010
0001
0000
0000
1000
0000
0001
0000
1000
0010
0000
0000
1000
0000
0001
0000
,
0100
0000
0100
0000
0010
0000
0010
0000
1000
0001
1000
0000
0001
1000
0001
0000
,
0000
0000
1001
0000
1000
0100
0000
0000
0100
0001
0000
0000
0001
0100
0000
0000
,
0100
0010
0000
0000
0001
0000
1000
0000
0020
0000
0000
0000
0030
0000
0000
0000
,
0100
1000
0000
0000
1000
0100
0000
0000
0100
0010
0000
0000
0010
1000
0000
0000
,
1000
0001
0000
0000
0010
0000
1000
0000
0010
0001
0010
0000
0001
0010
0001
0000
,
0100
0010
0000
0000
0010
0001
0000
0000
0001
0010
0000
0000
0010
1000
0000
0000
,
1000
0001
0000
0000
0010
0000
0100
0000
2000
0000
0000
0000
3000
0000
0000
0000
,
0010
0100
0000
0000
0001
0000
1000
0000
0100
0010
0000
0000
0001
0000
1000
0000
,
0010
0000
0010
0000
0100
0000
0100
0000
0001
1000
0001
0000
1000
0001
1000
0000
,
0100
0000
0010
0000
0001
0000
0100
0001
0000
0000
1000
0000
0010
0000
1000
0000
,
1100
0000
0000
0011
0000
0000
1100
0000
0000
0000
1000
0000
0001
0000
0100
0001
,
0100
0000
0010
0000
1000
0000
0001
0010
0000
0000
0100
0000
0010
0000
0001
0000
,
0101
0000
0000
1010
0000
0000
0101
0000
0000
0000
0001
0000
0010
0000
0001
1000
,
0001
0100
0002
0000
1003
0000
0000
0000
1000
0100
2000
0000
3001
0000
0000
0000
,
0010
0000
0010
0000
0100
0000
0100
0000
1000
0000
0001
0100
0010
0000
0010
0000
,
1000
0100
0000
0000
0010
0000
0001
0000
0001
0100
0000
0000
0010
0000
1000
0000
,
0100
0100
0001
0001
0100
0100
1000
1000
,
1100
0101
1010
0011
,
2001
0000
3100
0001
0200
0000
0310
0001
,
1000
0010
0001
1000
0100
0010
1000
0100
,
0001
0100
0010
0001
1000
0010
0001
1000
,
0001
0010
1000
0100
0020
0000
0030
0000
,
1000
0010
0100
1000
0020
0000
0031
0010
,
0100
0000
0000
0001
0000
0000
0010
0000
0100
0000
0000
0000
1000
0000
0001
0000
,
0200
0000
0000
0000
0310
0000
0000
0000
1001
0000
0000
0110
0000
0000
1001
0000
,
1000
0000
0100
0000
0010
0000
0001
0000
1000
0100
1000
0000
0001
0100
0001
0000
,
1002
0000
0103
1000
0200
0000
0310
1000
,
0001
0010
1000
0001
0100
0010
0001
0100
,
1000
0100
0010
1000
0001
0010
1000
0001
,
1000
0010
0001
0100
0020
0000
0030
0000
,
0100
0001
0010
1000
0010
0100
1000
0010
,
1010
0000
0000
0011
0000
0000
0110
0000
1001
0000
0000
0000
0100
0000
0100
0000
,
0100
0110
0010
1001
,
1000
0000
0001
0000
1000
0000
0001
0000
1000
0001
1000
0001
1000
0001
1000
0001
,
1000
0000
0000
0000
0010
0000
0100
0000
0001
0000
0000
0010
0000
0000
0100
0000
,
1000
0000
0000
0000
0001
0000
0100
0000
0010
1000
0010
0000
1000
0010
1000
0000
,
0001
0000
0000
0010
0000
0000
0100
0000
0010
0000
0001
1000
0001
0000
0100
0000
,
1000
0000
0000
0100
0010
0000
1000
0000
0001
0010
0001
0000
0010
0001
0010
0000
,
0100
0000
0000
0000
1000
0000
0010
0000
0001
0000
0000
0010
0000
0000
0100
0000
,
0001
0000
0000
0000
1000
0100
0010
0000
0001
0100
0001
0000
0100
0001
0100
0000
,
0010
0000
0000
1000
0001
1000
0000
0100
0010
0000
0000
0001
1000
0001
0000
0100
,
0010
0000
0010
0000
1000
0001
0000
1000
0001
0000
0010
0000
0100
1000
0000
0001
,
0100
1010
0011
0110
,
2002
0000
0000
0000
,
3003
0000
0000
0000
;

//--------------- dance-double - forcednature ----------------
#NOTES:
     dance-double:
     forcednature:
     Easy:
     7:
     0,0,0,0,0:
00000000
00000000
00000000
00000000
,
00000000
00000000
00000000
00000000
,
00000000
00000000
00000000
00000000
,
00000000
00000000
00000000
00000000
,
00000000
00000000
00000000
00000000
,
01001000
00000000
00000000
00000000
,
00010100
00000000
00000000
00000000
,
00011000
00000000
00011000
00000000
,
00001000
00001000
00010000
00010000
,
00000100
00000000
00001000
00000001
,
00000100
00000010
00001000
00000001
,
00000010
00000000
00000100
00010000
,
00001000
00100000
00010000
01000000
,
00001000
00000000
00100000
00010000
,
10000000
00100000
10000000
10000000
,
01000000
00000000
00100000
00001000
,
00010000
00001000
00010000
00001000
,
00000100
00000100
00000100
00000010
,
00001000
00000001
00001000
00000001
,
00000010
00000100
00001000
00000000
,
00000010
00010000
00001000
00010000
,
00000100
00001000
00000010
00000000
,
00010000
00001000
00100000
00010000
,
01000000
00001000
00010000
00000000
,
00100000
10000000
00010000
00100000
,
00010000
10000000
00100000
00000000
,
00000000
10010000
00000000
00000000
00010000
00000000
01000000
00000000
,
00001000
00010000
00000100
00000000
,
00001000
00000001
00001000
00000010
,
00001000
00000100
00010000
00000000
,
00001000
01000000
00001000
01000000
,
00010000
10000000
00010000
00000000
,
00100000
00010000
00100000
00001000
,
00010000
00001000
01000000
00000000
,
00010000
10000000
00010000
01000000
,
00001000
00000000
00000000
00001000
00000000
00000000
00001000
00000000
00000000
00000000
00000000
00000000
00000000
00000000
00000000
00000000
,
00010000
00000100
00001000
00000001
,
00001000
00000000
00000000
00001000
00000000
00000000
00001000
00000000
00000000
00000000
00000000
00000000
00000000
00000000
00000000
00000000
,
00000020
00000030
00020000
00030000
,
00001000
00001000
00010000
00010000
,
00001000
01000000
00010000
10000000
,
00020000
01000000
01000000
01030000
,
00010000
00010000
00010000
00100000
,
00002000
00000000
00023000
00000000
,
00030100
00001000
00000001
00000100
,
00000010
00001000
00000100
00010000
,
00001000
01000000
00010000
00000000
,
00100000
01000000
10000000
00100000
,
01000000
00010000
00100000
00000000
,
00001000
00010000
00000010
00001000
,
00000001
00000010
00000100
00000000
,
00002000
00000000
00003002
00000000
,
00000103
00000010
00001000
00000001
,
00000010
00000100
00001000
00000100
,
00010000
00001000
01000000
00000000
,
00010000
10000000
00100000
10000000
,
00010000
00100000
01000000
00000000
,
00100000
00001000
00010000
00001000
,
01000000
00010000
01000000
00001000
,
00010000
00000100
00001000
00000001
,
00001000
00000010
00020000
00000000
,
00030100
00010000
00001000
00100000
,
00001000
00010000
00000200
00000000
,
00010300
00001000
01000000
00010000
,
01000000
00001000
00200000
00000000
,
00310000
10000000
00010000
01000000
,
00100000
10000000
02000000
00000000
,
03100000
00100000
00100000
00001000
,
00022000
00000000
00000000
00000000
,
00033000
00000000
00000000
00000000
;

//--------------- dance-double - forcednature ----------------
#NOTES:
     dance-double:
     forcednature:
     Medium:
     11:
     0,0,0,0,0:
00000000
00000000
00000000
00000000
,
00000000
00000000
00000000
00000000
,
00000000
00000000
00000000
00000000
,
00000000
00000000
00000000
00000000
,
00000000
00000000
00000000
00000000
,
00010100
00000100
00020000
00030000
,
01001000
01000000
00002000
00003000
,
00101000
00001000
00010010
00010000
,
01001000
00010100
01001000
00010100
,
00010000
00000000
00001000
00000000
00010000
01000000
00100000
00000000
,
00010000
10000000
10100000
01010000
,
00010000
00000000
00100000
00000000
01000000
00010000
00001000
00000000
,
00000100
00000000
00000010
00000000
00001000
00000001
00001000
00000001
,
00000010
00000000
00000001
00000000
00000010
00000100
00010000
00000000
,
00001000
00100000
00101000
00010100
,
00001001
00000001
00000100
00001000
,
00010000
00001000
00010000
00001000
01000000
00010000
01000000
00010000
,
00200000
00302000
00023000
00230000
,
01300000
00010000
10000000
01000000
,
00010000
00000000
00001000
00010000
00002000
00000000
00003000
00000000
,
00000100
00000001
00000010
00000100
,
00001000
00000000
00000010
00010000
00000020
00000000
00000030
00000000
,
00000100
00001000
00010000
01000000
,
00100000
00000000
00001000
00010000
00002000
00000000
00003000
00000000
,
01000000
00000000
00010000
10000000
00010000
00000000
00100000
01000000
,
00100000
00010000
00100000
00010000
00100000
00001000
00100000
00001000
,
00000000
00010000
00000010
00000000
00000100
00000000
00001000
00000000
,
00000100
00000000
00000001
00001000
00000002
00000000
00000003
00000000
,
00000010
00001000
00010000
00100000
,
00010000
00000000
00001000
01000000
00002000
00000000
00003000
00000000
,
00010000
01000000
00100000
00001000
,
00010000
00000000
00000010
00001000
00000020
00000000
00000030
00000000
,
00000100
00000000
00001000
00010000
00001000
00000000
00100000
00010000
,
00100000
00000000
01000000
01000000
02000000
00000000
03000000
00000000
,
10010000
10000000
00010000
01000000
,
00001000
00000000
00000000
00001000
00000000
00000000
00001000
00000000
00000000
00000000
00010000
00000000
00000100
00000000
00000000
00000000
,
00001000
00000001
00000100
00000010
,
00010000
00000000
00000000
00010000
00000000
00000000
00010000
00000000
00000000
00000000
00001000
00000000
01000000
00000000
00000000
00000000
,
02002000
03003000
00020200
00030300
,
00010000
00000000
00001000
00100000
00010000
00010000
00010000
00000000
,
10000000
00000000
00100000
01000000
00100000
00000000
00010000
00001000
,
00020000
00000100
00001000
00030010
,
00020000
00030200
00002300
00003002
,
00000103
00000000
00000100
00000010
00002000
00000000
00003000
00001000
,
00000100
00010000
00000100
00010000
00001000
01000000
00001000
01000000
,
00010000
10000000
00010000
10000000
01000000
00100000
01000000
00100000
,
00001000
00010000
00001000
01000000
00002000
00000000
00003000
00000000
,
00010000
00000100
00010000
00000100
00001000
00000000
00000001
00000100
,
00000010
00000000
00000000
00010000
00000000
00000000
00001000
00000000
00010000
00000000
00000000
00000000
00000100
00000000
00010000
00000000
,
00001000
00000000
00000000
00000000
01000000
00000000
00000000
00000000
00100000
00000000
00000000
00100000
00000000
00000000
00100000
00000000
,
10000000
00000000
01000000
00100000
00020000
00000000
00030000
00000000
,
01000000
00000000
01000000
00001000
00020000
00000000
00030000
00010000
,
00000010
00001000
00000010
00001000
00000001
00000010
00000001
00000010
,
00000100
00010000
00000100
00010000
00001000
01000000
00001000
01000000
,
00100000
10000000
00010000
10000000
02000000
00000000
03000000
00000000
,
00100000
00010000
00100000
00001000
00010000
00000100
00001000
00000100
,
00000010
00000000
00000000
00000010
00000000
00000000
00000010
00000000
00000001
00000000
00000000
00000000
00000100
00000000
00000010
00000000
,
00001000
00010100
00010000
01001000
,
01000000
00010000
01000000
00010000
10000000
01000000
10000000
01000000
,
00100000
00000000
00000000
00000000
00001000
00000000
00000000
00000000
00010000
00000000
00000000
00100000
00000000
00000000
01000000
00000000
,
00001000
00000000
00010000
00000100
00002000
00000000
00003000
00000000
,
00000001
00000000
00000000
00000100
00000000
00000000
00000010
00000000
00001000
00000000
00000100
00000000
00010000
00000000
00001000
00000000
,
01000000
00000000
00000000
00010000
00000000
00000000
10000000
00000000
02000000
00000000
00000000
00000000
03000000
00000000
00000000
00000000
,
00100000
00000000
00000000
00000000
00001000
00000000
00010000
00000000
00000010
00000000
00000000
00001000
00000000
00000000
00000001
00000000
,
00000010
00000000
00000100
00010000
00002000
00000000
00003000
00000000
,
01000000
00000000
00000000
00010000
00000000
10000000
00000000
00000000
01000000
00000000
00000000
10000000
00000000
00010000
00000000
00000000
,
00100000
00000000
00001000
00000000
00010000
00000010
00000000
00000010
00002000
00000000
00000000
00000000
00000001
00000000
00000000
00000000
,
00003200
00020300
00032000
02003000
,
23000000
00000000
00000000
00000000
,
30000000
00000000
00000000
00000000
;

//--------------- dance-double - forcednature ----------------
#NOTES:
     dance-double:
     forcednature:
     Hard:
     14:
     0,0,0,0,0:
00000000
00000000
00000000
00000000
,
00000000
00000000
00000000
00000000
,
00000000
00000000
00000000
00000000
,
00000000
00000000
00000000
00000000
,
00000000
00000000
00000000
00000000
,
00010000
00001000
00010000
01000000
00200000
00000000
00000000
00310000
,
10000000
00000000
00000000
00100000
00000000
00000000
00010000
00000000
00001000
00000000
00000000
00000000
00100000
00000000
00010000
00000000
,
01010000
00001000
00110000
00001000
,
00011000
00010010
00000101
00001100
,
00000001
00000100
00000010
00001000
00000100
00000010
00000100
00010000
,
00001000
01000000
00010000
00100000
00110000
00000000
11000000
00000000
,
10000000
00100000
00010000
00100000
01000000
00001000
00010000
00000100
,
00000010
00001000
00000010
00000001
00000100
00000010
00000100
00001000
,
00010000
01000000
00100000
00001000
00010000
00100000
10000000
00010000
,
10000000
01000000
00010000
00001000
00101000
00000000
00010100
00000000
,
00000100
00001000
00000010
00000001
00000010
00000100
00000001
00001000
,
00000100
00000100
00010000
00010000
00001000
00001000
01000000
01000000
,
01001000
00010010
00101000
00010100
,
00020000
02030000
03200000
00302000
,
00023000
00000000
00130000
10000000
02000000
00000000
03000000
00000000
,
00200000
00302000
00023000
00030020
,
00001030
00000001
00000100
00000001
00000100
00001000
00000100
00001000
,
00020000
00230000
02300000
03020000
,
20030000
00000000
31000000
00010000
00002000
00000000
00003000
00000000
,
02000000
00000000
03001000
00010000
00000200
00000000
00010300
00001000
,
00000010
00000010
00000100
00000100
00010000
00010000
00001000
00001000
,
00000000
00101000
00200000
00000000
02300000
00000000
23000000
00000000
,
30200000
00000000
00310000
00001000
00200000
00000000
00300000
00000000
,
02000000
03020000
00032000
00003020
,
00000230
00000000
00001300
00000001
00000010
00000100
00000010
00000100
,
00002000
00003200
00020300
00032000
,
00003020
00000000
00000130
00001000
00000002
00000000
00000003
00000000
,
00000200
00000000
00001300
00010000
00200000
00000000
00310000
00001000
,
00010000
01000000
00010000
01000000
00100000
00010000
00100000
00010000
,
10000000
00000000
00100000
00000000
10000000
00000000
00000000
01000000
00000000
00000000
00010000
00000000
00001000
00000000
00010000
00000000
,
00010100
00000000
00000000
00010100
00000000
00000000
00001100
00000000
00000000
00000000
00001000
00000000
00000001
00000000
00000100
00000000
,
00000001
00000000
00000010
00000000
00000100
00000000
00000000
00001000
00000000
00000000
00000010
00000000
00010000
00000000
00001000
00000000
,
01001000
00000000
00000000
01001000
00000000
00000000
01010000
00000000
00000000
00000000
00010000
00000000
00100000
00000000
01000000
00000000
,
00020000
00000100
00000100
00000000
00032000
01000000
01000000
00000000
,
00013000
00001000
00010000
00001000
00000010
00000100
00000010
00000100
,
00001000
00000000
00000001
00000100
00001000
00000000
00010000
00100000
,
10000000
01000000
10000000
01000000
00100000
00010000
00100000
00010000
,
00110000
01001000
00010100
00001010
,
00001002
00000000
00000103
00001000
00000200
00000000
00000310
00010000
,
00001000
00000010
00000100
00001000
00000001
00000100
00001000
00010000
,
00000100
00010000
00001000
00100000
01000000
00010000
01000000
00100000
,
00001000
00010000
00100000
10000000
00020000
00000000
00030000
00000000
,
01000000
00001000
00010000
00000100
00020000
00000000
00031000
00000100
,
00000001
00000000
00000000
00000010
00000000
00000000
00000100
00000000
00001000
00000000
00000000
00000000
00000010
00000000
00010000
00000000
,
00002000
00000000
00000000
00000000
00203000
00000000
00000000
00000000
01300000
00000000
00000000
01000000
00000000
00000000
10000000
00000000
,
00100000
01000000
00100000
01000000
00001000
00010000
00001000
00010000
,
00000200
00000000
00000310
00000001
00000200
00000000
00000310
00010000
,
00001000
00000010
00000100
00010000
00001000
00000100
00001000
00010000
,
00100000
00010000
00001000
00010000
01000000
00100000
00001000
00010000
,
00100000
10000000
01000000
00010000
00002000
00000000
00003000
00000000
,
01000000
00010000
00100000
01000000
00010000
00001000
00000100
00000010
,
00001000
00000000
00000000
00001000
00000000
00000000
00000001
00000000
00000010
00000000
00000000
00000000
00001000
00000000
00010000
00000000
,
00100000
10010000
01000000
10010000
,
10000000
00000000
01000000
00000000
00010000
00000000
00001000
00000000
00010000
00001000
00010000
00000000
00001000
00010000
00001000
00000000
,
00000010
00000000
00000001
00000000
00000100
00000000
00001000
00000000
00010000
00000000
00000000
00000100
00000000
00000000
00010000
00000000
,
00001000
00000000
00000000
00000000
01000000
00000000
00010000
00000000
10000000
01000000
10000000
00000000
01000000
10000000
01000000
00000000
,
00100000
00000000
00000000
00001000
00000000
00000000
00010000
00000000
00000010
00000000
00001000
00000001
00001000
00000000
00000100
00000000
,
00010000
00000000
00000000
00010000
00001000
00000000
00000010
00000000
00000001
00000100
00000001
00000000
00000100
00000001
00000100
00000000
,
00000010
00000000
00000000
00000000
00010000
00000000
00001000
00000000
01000000
00000000
00000000
00100000
00000000
00000000
00100000
00000000
,
10000000
00000000
00000000
00000000
01000000
00000000
00100000
00000000
00010000
10000000
00010000
00000000
10000000
00010000
10000000
00000000
,
01000000
00000000
00000000
00100000
00010000
00100000
00000000
00001000
00010000
00000000
00000000
00000010
00001000
00000010
00000000
00000100
,
00000001
00000000
00001000
00000000
00000100
00010000
00000000
00010000
00001000
00000000
01000000
00000000
00100000
10000000
00000000
10000000
,
01000000
00110000
00011000
00001010
,
00002002
00000000
00000000
00000000
,
00003003
00000000
00000000
00000000
;
