#TITLE:たたえよ!絶対覇権アリーシャ帝国;
#SUBTITLE:;
#ARTIST:Blanc Bunny Bandit;
#TITLETRANSLIT:Tataeyo! Zettai haken Alisha teikoku;
#SUBTITLETRANSLIT:;
#ARTISTTRANSLIT:;
#GENRE:;
#CREDIT:;
#MUSIC:Tataeyo! Zettai haken Alisha teikoku.ogg;
#BANNER:Tataeyo! Zettai haken Alisha teikoku.png;
#BACKGROUND:Tataeyo! Zettai haken Alisha teikoku-bg.png;
#CDTITLE:;
#SAMPLESTART:78.188;
#SAMPLELENGTH:15.000;
#SELECTABLE:YES;
#OFFSET:0.863;
#BPMS:0.000=99.900
,16.000=145.000
;
#STOPS:;
#DISPLAYBPM:100.000:145.000;
#BGCHANGES:;
#FGCHANGES:;

//--------------- dance-single - forcednature ----------------
#NOTES:
     dance-single:
     forcednature:
     Beginner:
     4:
     0,0,0,0,0:
0000
0000
0000
0000
,
0000
0000
0000
0000
,
0000
0000
0000
0000
,
1000
0000
0001
0000
,
0100
0010
0100
0010
,
0100
0000
0000
0000
,
1001
0000
0000
0000
,
0110
0000
0000
0000
,
1000
0000
0000
0001
,
0001
0000
0100
0000
,
0010
0000
0000
0000
,
1000
0000
0100
0000
,
0010
0000
0000
0000
,
0110
0000
0000
0000
,
0001
0000
0100
0000
,
0010
0000
1000
0000
,
0001
0000
0000
0000
,
0110
0000
0000
0000
,
1000
0000
0100
0000
,
0010
0010
0100
0100
,
0010
0010
0100
0100
,
1000
0000
0001
0000
,
0100
0000
0100
0000
,
0001
0000
1000
0000
,
0100
0000
0100
0000
,
0110
0000
1000
0000
,
0001
0000
0100
0000
,
0110
0000
0000
0000
,
1000
0001
1000
0001
,
0100
0010
0100
0010
,
1000
0000
0001
0000
,
0100
0000
0000
0000
,
0010
0000
0010
0000
,
0100
0100
0100
0000
,
0001
0000
1000
0000
,
1001
0000
0000
0000
,
0110
0000
0000
0000
,
1001
0000
0000
0000
,
1000
0000
1000
0000
,
0010
0000
0100
0000
,
0001
0000
0001
0000
,
0010
0000
0100
0000
,
0010
0000
0000
0000
,
0100
0100
0100
0000
,
1001
0000
0010
0000
,
0100
0000
0000
0000
,
1000
0000
0010
1000
,
0010
0000
1000
0010
,
0100
0000
0001
0000
,
1000
0000
0000
0000
,
0001
0000
0010
0001
,
0010
0000
0001
0010
,
0100
0000
1000
0000
,
0001
0000
0000
0000
,
0100
0000
0000
0000
,
0010
0000
0010
0000
,
1000
0000
0001
0000
,
0001
0000
1000
0000
,
0100
0000
0010
0000
,
0110
0000
0000
0000
,
1000
0000
0000
0000
,
0001
0000
0100
0000
,
0010
0000
0000
0000
,
1001
0000
1000
0000
,
0100
0100
0100
0000
,
0110
0000
0001
0000
,
0110
0000
0000
0000
,
1000
0000
0000
0001
,
0100
0000
0000
0001
,
0000
0000
0000
0010
0000
0000
0000
0000
0000
0010
0000
0000
0000
0000
0000
1001
;

//--------------- dance-single - forcednature ----------------
#NOTES:
     dance-single:
     forcednature:
     Easy:
     8:
     0,0,0,0,0:
0000
0000
0000
0000
,
0000
0000
0000
0000
,
0000
0000
0000
0000
,
1000
0100
0010
0001
,
0100
0100
0010
0010
,
1001
0000
0000
0000
,
2002
0000
0000
0000
,
3003
0000
0000
0000
,
1000
0000
0000
0010
0000
0000
0010
0000
,
0110
1000
0001
1000
,
0100
0010
0100
0100
,
1001
0001
0100
0010
,
1000
0001
0010
0100
,
1001
0001
0100
0001
,
1000
0100
1000
0000
,
0110
0000
0001
1000
,
0010
0100
0010
0000
,
1001
0000
1000
0100
,
0010
0001
0100
0100
,
0001
0010
1000
0010
,
0001
1000
0010
0100
,
1002
0000
2003
0000
,
3001
0100
0020
0030
,
2001
0000
3002
0000
,
1003
0100
0020
0030
,
0110
1000
0001
0100
,
0001
1000
0010
0100
,
0012
0100
1000
0103
,
0010
0001
0010
1000
,
0010
0100
0001
0100
,
2000
0001
0100
3010
,
2002
0000
0000
3003
,
0100
0000
0100
0000
0100
0100
0100
0000
,
0010
0000
0010
0000
0010
0010
0010
0000
,
1001
0000
0110
0000
,
2002
0000
0000
0000
,
3003
0000
0000
0000
,
1001
0000
0000
0000
,
1001
0000
1000
0000
0100
0000
0010
0001
,
0010
0100
1000
0001
,
1001
0000
0001
0000
0100
0000
0010
1000
,
0010
0100
0001
1000
,
1001
0010
0100
0000
,
1001
0100
0010
0000
,
1010
0100
0011
0100
,
0010
0100
0010
0000
0200
0000
0300
0000
,
0001
0000
1000
0000
0100
0010
0100
0000
,
1000
0000
0001
0000
0100
0010
0100
0000
,
0001
1000
0100
0010
,
0001
0000
1000
0000
0010
0100
0010
0000
,
1001
0000
0001
0000
1000
0100
1000
0000
,
0001
0000
1000
0000
0001
0100
0001
0000
,
0010
0100
1000
0010
,
0200
1000
0010
0301
,
0220
0000
0330
0000
,
0101
0000
0001
0000
1000
0100
1000
0000
,
0010
0010
0110
0000
,
1001
0000
0001
0000
0100
0010
0100
0000
,
0001
0001
0110
0001
,
0020
0000
0031
0100
,
0020
0000
1030
0100
,
0001
0100
1000
0100
,
0010
0001
2000
3000
,
0101
0000
1000
0100
1000
0000
0010
0000
,
1100
0101
2002
3003
,
0110
0000
0001
0000
1000
0010
1000
0000
,
0001
0010
0100
1000
,
0010
0000
0000
0010
0000
0000
0010
0000
0000
0010
0000
0000
0000
0000
0000
0000
,
0100
0000
0000
0100
0000
0000
0100
0000
0000
0100
0000
0000
0000
0000
0000
0000
,
0001
0000
0000
1000
0000
0000
0001
0000
0000
1000
0000
0000
0100
0000
0000
0020
,
0000
0000
0030
0000
;

//--------------- dance-single - forcednature ----------------
#NOTES:
     dance-single:
     forcednature:
     Medium:
     11:
     0,0,0,0,0:
0000
0000
0000
0000
,
0000
0000
0000
0000
,
0000
0000
0000
0000
,
0001
0100
0001
0100
0010
1000
0100
0010
,
0002
0100
1000
0013
,
1001
0000
0000
0000
,
2002
0000
0000
3003
,
0220
0330
0000
0000
,
0001
0000
0000
0010
0000
0000
0100
0000
0000
1000
0000
0000
0010
0000
0100
0000
,
0001
0000
1001
0000
1000
0100
1000
0010
,
0100
0100
0001
0000
0010
0100
0010
0100
,
1000
0000
1001
0000
0001
0100
0001
0000
,
1000
0010
1000
0100
0010
0001
0010
0001
,
0100
0000
0000
0000
0010
0000
0000
0000
1000
0000
0000
0001
0000
0000
1000
0000
,
0010
0100
0010
0100
0001
0000
0010
0100
,
1100
0010
0100
0001
,
0010
0000
0100
0000
0010
0000
0002
0000
0000
0000
0100
0000
0000
0013
0000
0000
,
1001
0000
0001
0100
0010
1000
0001
0000
,
1000
0100
0010
0100
1000
0000
0110
0000
,
0101
1100
0011
1010
,
1100
0101
1010
0011
,
0001
0100
0010
0000
1000
0000
0011
0000
,
1000
0000
0100
0000
0010
0001
0000
0100
0000
0000
0010
0000
0000
0010
0000
0000
,
0100
0001
1000
0000
0100
0010
0001
0000
,
1000
0000
0010
0000
0100
0001
0000
0010
0000
0000
0100
0000
0000
0100
0000
0000
,
1001
0000
0000
0001
0000
0000
0100
0000
0020
0000
0000
0000
1030
0000
0000
0000
,
0100
0000
0000
0010
0000
0000
0100
0000
2000
0000
0000
0000
3001
0000
0000
0000
,
0200
0000
0001
0000
0000
0010
0000
0000
1000
0000
0000
0020
0000
0000
0330
0000
,
0100
0000
1001
0010
0100
0000
1001
0000
,
0010
0000
1001
0100
0010
0000
1001
0000
,
0001
0000
0000
0001
0100
0000
0000
0100
0010
0000
0000
0010
1000
0000
0000
1000
,
0001
0010
0001
0010
0100
1000
0010
0100
,
0010
0000
0110
0000
0010
1000
0001
0000
,
0010
0000
0110
0000
0010
0001
1000
0000
,
0202
0303
2200
3300
,
0220
0000
0000
0330
,
2002
0000
0000
3003
,
1001
0002
0203
0320
,
1030
0000
0000
0000
0100
0000
0010
0000
0001
0000
0000
0000
0100
0001
0100
0001
,
0100
0000
0000
0000
0010
0000
1000
0000
0001
0000
0000
1000
0000
0000
0100
0000
,
0010
0000
0000
0000
0001
0000
0100
0000
0010
0000
0000
0000
1000
0100
1000
0100
,
1000
0000
0000
0000
0010
0000
0100
0000
0001
0000
0000
1000
0000
0000
0100
0000
,
0020
0000
0000
0000
0130
0000
1000
0000
0010
0000
0000
0100
0001
0000
0000
0000
,
0010
0000
0000
0000
0100
0000
0000
0000
0010
0000
0001
0000
0000
0000
0001
0000
0000
0000
1000
0000
0000
0010
0000
0000
1000
0000
0000
0000
0000
0000
0000
0000
,
1100
0000
0000
0100
0010
0000
0000
0010
0001
0000
0000
0001
1000
0000
0010
0000
,
0001
0010
0100
0001
2000
0100
3100
0000
,
0110
0000
0001
0100
1000
0100
0001
0000
,
0110
0000
1000
0100
0001
0100
1000
0000
,
0001
0000
0100
0000
0010
0000
0000
1000
0000
1000
0000
0000
0001
0000
1000
0000
,
0100
0000
0010
0000
1000
0000
0010
0000
0001
0000
0000
0001
0000
0000
0100
0000
,
0110
0000
0001
0010
1000
0010
0001
0000
,
0110
0000
1000
0010
0001
0010
1000
0000
,
0100
0010
1000
0010
0100
1000
0010
0001
,
0020
1000
0100
0031
,
0110
2000
3002
0203
,
0310
0000
0000
1000
0000
0000
0100
0000
0010
0001
0000
0001
0000
0000
0100
0000
,
0010
0000
0000
1000
0000
0000
0001
0000
0010
0100
0000
0100
0010
0000
0000
0000
,
1100
0000
0000
0100
0000
0000
0010
0000
0001
0100
0000
0100
0010
0000
1000
0000
,
0001
0000
0010
0000
0000
0100
0000
0000
1000
0010
1000
0010
1000
0000
0000
0000
,
1100
0000
0001
0100
1000
0100
0010
0000
,
0101
0000
1000
0100
0001
0100
0010
0000
,
0001
0000
0010
0000
0100
0000
0000
1000
0000
1000
0000
0000
0010
0000
0100
0000
,
0001
1000
0100
0001
0200
0000
0300
0000
,
0010
0000
0001
0000
1000
0000
0100
0000
1000
0010
1000
0000
0100
0000
0000
0000
,
1000
0010
0001
0010
0200
0000
0301
0010
,
0001
0000
0100
0000
0010
0000
1000
0000
0001
0010
0001
0000
0100
0000
0010
0000
,
0110
2000
3002
0023
,
0130
1000
0000
0100
1000
0000
0100
1000
0000
0100
1000
0000
0000
0000
0000
0000
,
0001
0100
0000
0001
0100
0000
0001
0100
0000
0001
0100
0000
0000
0000
0000
0000
,
0010
1000
0010
1000
0000
0000
0001
0010
0001
0010
0000
0000
0001
1000
0001
2000
,
0000
0000
3000
0000
;

//--------------- dance-single - forcednature ----------------
#NOTES:
     dance-single:
     forcednature:
     Hard:
     14:
     0,0,0,0,0:
0000
0000
0000
0000
,
0000
0000
0000
0000
,
0000
0000
0000
0000
,
0001
0100
1000
0100
0010
1000
0001
0010
,
0110
1100
0101
0110
,
1001
1000
0100
0001
,
0220
0000
0000
0330
,
2002
3003
0000
0000
,
0001
0100
0000
0001
0100
0000
0010
1000
0000
0010
1000
0000
0001
0010
0001
0000
,
0100
0000
0000
0000
0110
0000
0000
0000
0010
1000
0001
0000
1000
0100
0010
0000
,
0100
0000
1000
0000
0001
0000
0100
0001
0020
0000
0030
0000
0020
0000
0030
0000
,
1001
0000
0000
0000
0110
0000
0000
0001
0000
0100
0001
0000
0010
0000
0000
0100
,
1000
0000
0010
0000
0100
0000
0010
0000
1000
0001
0100
0000
0001
1000
0100
0000
,
0110
0000
0010
0000
0001
0000
0100
0000
0010
0000
0000
0100
0000
0000
1000
0000
,
0100
0000
0010
0000
1000
0000
0001
1000
0000
0000
0000
0000
0100
0000
0010
0000
,
0011
0000
0000
0000
1000
0000
0000
0010
0000
0000
0100
0000
0001
0000
0000
0000
,
0010
0000
0100
0000
0010
0000
0001
0000
0000
0000
0101
0000
0000
1010
0000
0000
,
1001
1000
0010
0001
0020
0000
0230
0000
,
0301
1000
0100
0010
0001
0000
1001
0000
,
1000
0100
0001
0100
1000
0010
0001
0010
,
0100
0000
1000
0000
0100
0000
0001
0000
0010
0000
1000
0000
0010
0100
0010
0000
,
0001
1000
0100
0000
0011
0000
1100
0000
,
1000
0000
0010
0000
0100
0001
0000
0100
0000
0000
0010
0000
1000
0001
0000
0000
,
1100
0000
1000
0000
0001
0000
0000
0100
0001
0000
0010
0000
0100
0000
0000
0000
,
0001
0000
0100
0000
0010
0001
0000
1000
0000
0000
0001
0100
0001
0100
0000
0000
,
1010
0000
0000
1000
0001
0000
0010
0000
0200
0000
0000
0000
1300
0000
0000
0000
,
0011
0000
0000
0001
1000
0000
0010
0000
0200
0000
0000
0000
0301
0000
0000
0000
,
0002
0000
0010
0000
0000
1000
0000
0000
0100
0000
0000
1000
0003
0000
0001
0000
,
0100
0000
0010
0000
1000
0001
1000
0000
0100
0000
0010
0000
0001
1000
0001
0000
,
0010
0000
0001
0000
1000
0100
1000
0000
0010
0000
1000
0000
0001
0100
0001
0000
,
1000
0000
0000
0100
0001
0000
0000
0100
1000
0000
0000
0100
0010
0000
0001
0000
,
0100
0001
0100
0000
0010
1000
0010
0000
1000
0100
1000
0000
0001
0010
0001
0000
,
1000
0000
0001
0000
0100
0001
0000
1000
0010
0000
1000
0001
1000
0000
0000
0000
,
0001
0000
1000
0000
0100
0000
0001
0000
0100
0000
1000
0000
0010
0100
0010
0000
,
1000
0001
0110
1000
,
2002
0000
0000
3003
,
0220
0000
0000
0330
,
1001
0200
0320
0130
,
1001
0000
0000
0001
0100
0000
0000
0100
0010
0000
0000
0010
1000
0001
0100
0010
,
1000
0000
0000
1000
0100
0000
0000
0100
1000
0000
0000
1000
0010
0000
0000
0000
,
0101
0000
0000
0001
1000
0000
0000
1000
0100
0000
0000
0100
0010
0001
1000
0100
,
0010
0000
0000
0010
0001
0000
0000
0001
1000
0000
0000
1000
0010
0000
0000
0000
,
0110
0000
0000
0000
0001
0000
1000
0000
0010
0000
1000
0100
0010
0000
0001
0000
,
0100
0000
0000
0000
1000
0000
0000
0000
0100
0000
0010
0000
0000
0000
1000
0000
0000
0000
0001
0000
0000
0001
0000
0000
0001
0000
0000
0000
0010
0000
0000
0000
,
0011
0000
1010
0000
0101
0000
1100
1000
,
0010
0000
0100
0001
0010
0000
0100
0000
2000
0000
0000
0000
3000
0000
0000
0000
,
1010
0000
0000
1000
0001
0000
0010
0000
0100
1000
0100
0000
0010
0001
0010
0000
,
0001
0000
0000
0100
0001
0000
0010
0000
0001
0100
0001
0000
1000
0010
1000
0000
,
1001
0000
0001
0000
0010
0000
0001
0100
0000
0010
0000
0001
0010
0000
0100
0000
,
0001
1000
0001
0000
1000
0000
0100
0010
0100
1000
0000
0010
1000
0000
0001
0000
,
0101
0000
0000
0100
0010
0000
1000
0000
0100
0010
0001
0000
0100
0010
1000
0000
,
0001
0000
0000
0100
0001
0000
1000
0000
0010
1000
0001
0000
0010
0001
1000
0000
,
1001
0001
0100
1000
0100
0010
0001
0010
,
2000
0100
0001
3010
,
2002
0000
3003
0000
,
1001
0000
0000
1000
0000
0001
0010
0000
0100
1000
0000
0010
0000
0100
0001
0000
,
1000
0100
0000
0010
0000
0001
0100
0001
0100
0010
0000
1000
0001
0000
0000
0000
,
1100
0000
1000
0010
0000
0010
0100
0000
0100
0001
0000
0001
0010
0000
0100
0000
,
0001
0000
0100
0000
1000
0001
1000
0001
1000
0100
1000
0100
0010
0000
0001
0000
,
0100
0000
0000
0100
0010
0000
0001
0000
0010
0000
0010
0000
2000
0000
0000
0000
,
3100
0000
0000
0100
0010
0000
1000
0000
0010
0000
0010
0000
0002
0000
0000
0000
,
0103
0000
1000
0000
0100
0000
0001
1000
0000
0100
0000
0001
0100
0000
0010
0000
,
0001
1000
0001
0000
0100
0000
0010
2000
0000
0000
0000
0000
3000
0000
0000
0000
,
1100
0000
1000
0001
0100
0000
0010
1000
0001
0000
0010
0100
1000
0000
0010
0000
,
0100
0000
0001
0010
0100
0000
0010
0001
0100
0000
0010
1000
0001
0000
0010
0000
,
0110
0000
0100
1000
0001
0000
1000
0010
0100
0000
0001
0010
0100
0000
0010
0000
,
2002
0000
0000
3003
0000
0000
0000
0000
,
0001
0100
0000
0100
1000
0000
1000
0100
0000
0100
0001
0000
1000
0001
1000
0001
,
1000
0100
0000
0100
0001
0000
0001
0100
0000
0100
1000
0000
0001
0100
0010
1000
,
0001
0010
0001
0100
0000
0000
0010
1000
0100
1000
0000
0000
0001
0010
0100
2000
,
0000
0000
3000
0000
;

//--------------- dance-double - forcednature ----------------
#NOTES:
     dance-double:
     forcednature:
     Easy:
     9:
     0,0,0,0,0:
00000000
00000000
00000000
00000000
,
00000000
00000000
00000000
00000000
,
00000000
00000000
00000000
00000000
,
00002000
02003000
03020000
20030000
,
31000000
00010000
00001000
00000010
,
00002002
00003003
00000000
00000000
,
00022000
00000000
00000000
00000000
,
00033000
00000000
00000000
00000000
,
00001000
00000000
00000000
00010000
00000000
00000000
00100000
00000000
00000000
01000000
00000000
00000000
00010000
00000000
00000000
00000000
,
10000000
00000000
11000000
00000000
00010000
00100000
00010000
00000000
,
01000000
00001000
00010000
00010000
,
00001100
00000000
00000001
00000000
00000100
00000010
00000100
00000000
,
00000001
00001000
00000100
00000100
,
00011000
00000000
00000000
00000000
01000000
00000000
00000000
00000000
00010000
00000000
00000000
10000000
00000000
00000000
00000000
00000000
,
01000000
00000000
00010000
00000000
00001000
00000000
00010000
00000100
,
00010000
00000010
00001000
00000001
,
00000100
00000001
00000100
00000002
00000000
00000000
00000003
00000000
,
00000011
00000000
00000100
00000000
00010000
00001000
00010000
00000000
,
00100000
00000000
01000000
00000000
00010000
10000000
00010000
00000000
,
10000000
01010000
00010000
11000000
,
00100000
00011000
00000010
00011000
,
01000000
00001000
00010000
00000000
00000100
00000000
00001100
00000000
,
00001000
00000000
00000001
00000000
00000100
00000000
00000000
00000010
00000000
00000000
00010000
00000000
00000000
00010000
00000000
00000000
,
00001000
00000000
00101000
00000000
00001000
00010000
00100000
00000000
,
01000000
00000000
00000000
00000000
00010000
00000000
00000000
10000000
00000000
00000000
01000000
00000000
00000000
01000000
00000000
00000000
,
00100000
00000000
00011000
00000000
00000100
00001000
00000010
00000000
,
00010000
00000000
00001000
00000000
00000010
00000100
00001000
00000000
,
00000102
00000100
00001000
00000013
,
00000001
00000000
00000100
00001000
00010000
00000000
00100000
00000000
,
10000000
00000000
01000000
00010000
00001000
00000000
00000010
00000000
,
00000001
00000100
00001000
00010000
,
02200000
00000000
00000000
03300000
,
11000000
00000000
00010000
00000000
01000000
00001000
00010000
00000000
,
00001100
00000000
00010000
00000000
00001000
00000100
00000001
00000000
,
00000010
00011000
00100000
00011000
,
00022000
00000000
00000000
00033000
,
00022000
00000000
00000000
00033000
,
00011000
01000000
00010000
00100000
,
01000000
00000000
00010000
00000000
00001000
00000000
00000010
00000001
,
00000010
00000000
00000000
00000000
00000100
00000000
00000000
00000000
00010000
00000000
00000000
00001000
00000000
00000000
00010000
00000000
,
00100000
00000000
01000000
00000000
00010000
00000000
10000000
00100000
,
10000000
00000000
00000000
00000000
01000000
00000000
00000000
00000000
00010000
00000000
00000000
00001000
00000000
00000000
00010000
00000000
,
00000100
00000000
00001000
00000010
00001000
00000000
00000000
00000000
,
00000001
00000000
00000000
00000000
00000010
00000000
00000000
00000100
00000000
00000000
00000010
00000000
00000010
00000000
00000000
00000000
,
00000200
00020300
00032000
00203000
,
00301000
00010000
00100000
00000000
02000000
00000000
00000000
00000000
,
03100000
00000000
10000000
00010000
10000000
00000000
02000000
00000000
,
03010000
00000000
00001000
00100000
00001000
00000000
00020000
00000000
,
00030100
00000000
00001000
00000010
00001000
00000000
00000200
00000000
,
00000310
00000000
00000000
00000000
00000001
00000000
00000000
00000000
00000100
00000000
00000000
00001000
00000000
00000000
00010000
00000000
,
00100000
00000000
00010000
00001000
00010000
00000000
00000020
00000000
,
00010030
00000000
00001000
01000000
00001000
00000000
00200000
00000000
,
01300000
00010000
00001000
00000010
,
00002001
00000100
00000001
00003010
,
00022000
00000000
00033000
00000000
,
00001000
00000000
00000000
01000000
00000000
00000000
00000000
00000000
00010000
00000000
00000000
00010000
00000000
00000000
10000000
00000000
,
01000000
00000000
00000000
00100000
00000000
00000000
01000000
00000000
00000000
00010000
00000000
00000000
00001000
00000000
00000000
00000000
,
00000000
00000000
00000000
00010000
00000000
00000000
00000100
00000000
00000000
00001000
00000000
00000000
00000001
00000000
00000000
00000000
,
00000100
00001000
00010000
00000000
00110000
00000000
01000000
00000000
,
00010000
00000000
10000000
01000000
10000000
00000000
00200000
00000000
,
01300000
00000000
00001000
00010000
00001000
00000000
00000020
00000000
,
00000130
00001000
00000100
00000000
00000010
00000000
00000001
00000000
,
00000100
00000010
00000100
00000000
00002000
00000000
00003000
00000000
,
00011000
00000000
00010000
00100000
00010000
00000000
00002000
00000000
,
00203000
02300000
23000000
30000000
,
20010000
30020000
02030000
03002000
,
00023000
00000100
00030100
00000100
,
00000100
00000000
00000000
00001000
00000000
00000000
00000100
00000000
00000000
00001000
00000000
00000000
00000000
00000000
00000000
00000000
,
00010000
00000000
00000000
01000000
00000000
00000000
00010000
00000000
00000000
01000000
00000000
00000000
00000000
00000000
00000000
00000000
,
00001000
00000000
00000000
01001000
00000000
00000000
00010000
00000000
00000000
00010100
00000000
00000000
00011000
00000000
00000000
00022000
,
00000000
00000000
00033000
00000000
;

//--------------- dance-double - forcednature ----------------
#NOTES:
     dance-double:
     forcednature:
     Medium:
     11:
     0,0,0,0,0:
00000000
00000000
00000000
00000000
,
00000000
00000000
00000000
00000000
,
00000000
00000000
00000000
00000000
,
00100000
00001000
00100000
00001000
00010000
00000100
00010000
00000100
,
00000020
00001000
00000100
00000031
,
00002002
00003003
00000000
00000000
,
00022000
00000000
00000000
00000000
,
00033000
00000000
00000000
00000000
,
00001000
00000000
00000000
00010000
00000000
00000000
00100000
00000000
00000000
01000000
00000000
00000000
00010000
00000000
10000000
00000000
,
01000000
00000000
01100000
00000000
00100000
00010000
01000000
00001000
,
00010000
00000000
00100000
00000000
01000000
00001000
00010000
00000100
,
00001000
00000000
00000010
00000000
00010000
00001000
00000010
00000000
,
00000100
00001000
00000100
00000000
00000010
00000001
00000010
00000000
,
00001001
00000000
00000000
00000000
00000001
00000000
00000100
00000000
00001000
00000000
00000000
00010000
00000000
00000000
00000000
00000000
,
00000010
00010000
00000010
00000000
00100000
00001000
00100000
00000000
,
00110000
00000000
11000000
00000000
10000000
00010000
01000000
00000000
,
00001000
00000000
00010000
00000000
00001000
00000000
00020000
00000000
00000000
00000000
00030100
00000000
00000000
00000100
00000000
00000000
,
00000100
00000000
00000110
00000000
00000010
00000001
00000100
00000000
,
00000010
00001000
00000010
00001000
00010000
00000000
01000000
00000000
,
00100000
10100000
01000000
01010000
,
00001000
00011000
00100000
00110000
,
00001000
00010000
00000100
00000000
00001000
00000100
00010000
00000000
,
00001000
00000000
00000100
00000000
00000001
00000000
00000000
00000010
00000000
00000000
00000100
00000000
00000000
00010000
00000000
00000000
,
00001000
01000000
00010000
00000000
00100000
00001000
00010000
00000000
,
00100000
00000000
01000000
00000000
00010000
00000000
00000000
00100000
00000000
00000000
01000000
00000000
00000000
00010000
00000000
00000000
,
00001000
00000000
00000000
00100000
00000000
00000000
00001000
00000000
00020000
00000000
00000000
00000000
00030200
00000000
00000000
00000000
,
00000310
00000000
00000000
00000001
00000000
00000000
00000100
00000000
00000020
00000000
00000000
00000000
00020030
00000000
00000000
00000000
,
02030000
00000000
10000000
00000000
00000000
00100000
00000000
00000000
00010000
00000000
00000000
03100000
00000000
00000000
01000000
00000000
,
00010000
00021000
00031000
01200000
,
10300000
20010000
30100000
00210000
,
00301000
00010000
00001000
00000100
00000010
00010000
00001000
00000010
,
00000002
00000100
00001000
00000013
,
00001001
00000000
00001001
00000000
00001000
00000100
00010000
00000000
,
00011000
00000000
00011000
00000000
00001000
01000000
00010000
00000000
,
01000000
00101000
00000100
00010010
,
00022000
00000000
00000000
00033000
,
00022000
00000000
00000000
00033000
,
00011000
02000000
03020000
00230000
,
02300000
00000000
00000000
00000000
13000000
00000000
00010000
00000000
02000000
00000000
00000000
00000000
03001000
00010000
00001000
00010000
,
00001000
00000000
00000000
00000000
00000100
00000000
00000000
00000000
00000001
00000000
00000000
00000010
00000000
00000000
00000100
00000000
,
00002000
00000000
00000000
00000000
00003010
00000000
00010000
00000000
00002000
00000000
00000000
00000000
00003010
00000001
00000010
00000001
,
00000010
00000000
00000000
00000000
00000100
00000000
00010000
00000000
00001000
00000000
00000000
01000000
00000000
00000000
00010000
00000000
,
00200000
00000000
01300000
00010000
00001000
00000000
00011000
00000000
,
00000020
00000000
00000000
00000000
00000000
00000000
00000000
00000000
00000130
00000000
00001000
00000000
00000000
00000000
00010000
00000000
00000000
00000000
00001000
00000000
00000000
00010000
00000000
00000000
00001000
00000000
00000000
00000000
00000000
00000000
00000000
00000000
,
00200000
00320000
02030000
03002000
,
00013000
00000000
00000000
00100000
10000000
00000000
00010000
00000000
00200000
00000000
00000000
00000000
00300000
00000000
00000000
00000000
,
01000000
00000000
00000000
00010000
00001000
00000000
00000010
00000000
00000100
00000000
00001000
00000000
00000002
00000000
00000000
00000000
,
00000103
00000000
00000000
00001000
00010000
00000000
00100000
00000000
01000000
00000000
00001000
00000000
00020000
00000000
00000000
00000000
,
01030000
00000000
00100000
00000000
00001000
00000000
00000000
00010000
00000000
00100000
00000000
10000000
00000000
00000000
01000000
00000000
,
00100000
00000000
01000000
00000000
00010000
00000000
00000000
00022000
00000000
00000000
00000000
00000000
00033000
00000000
00000000
00000000
,
00011000
00000000
00000000
00010000
00000100
00000000
00000010
00000000
00001000
00000000
00000010
00000000
00000002
00000000
00000000
00000000
,
00000103
00000000
00000000
00001000
00010000
00000000
00100000
00000000
01000000
00000000
00001000
00000000
00020000
00000000
00000000
00000000
,
01030000
00100000
00010000
10000000
00100000
00010000
00001000
00010000
,
02000000
10000000
00100000
03010000
,
00022000
00000000
00033000
00000000
,
00010100
00000000
00000000
00000100
00000000
00000000
00001000
00000000
00000001
00000100
00000000
00000100
00000000
00000000
00000010
00000000
,
00010000
00000000
00000000
00001000
00000000
00000000
00100000
00000000
00010000
01000000
00000000
01000000
00100000
00000000
00000000
00000000
,
10000000
00000000
00000000
01000000
00000000
00010000
00001000
00000000
00001000
00010000
00000000
00010000
00001000
00000000
00000000
00000000
,
00000100
00000000
00000001
00000000
00000010
00000000
00001000
00000000
00010000
00000100
00010000
00000000
00001000
00000000
00000000
00000000
,
02001000
00000000
03100000
00010000
00000010
00010000
00001000
00000000
,
00010200
00000000
00000310
00001000
00100000
00001000
00010000
00000000
,
00100000
00010000
00001000
00000000
00000010
00001000
00010000
00000000
,
01000000
00010000
00001000
00000100
00000001
00000000
00000000
00000000
,
00000011
00000000
00000000
00000001
00000100
00000000
00001000
00000000
00010000
00000000
00100000
00000000
20000000
00000000
00000000
00000000
,
32000000
00000000
03020000
00000000
00032000
00000000
01003000
00010000
,
00200000
00000000
00301000
00000010
00000100
00001000
00000001
00000100
,
00000020
00001030
00010000
01000000
,
00100000
10000000
00000000
00100000
10000000
00000000
00100000
10000000
00000000
00100000
10000000
00000000
00000000
00000000
00000000
00000000
,
00010000
00100000
00000000
00010000
00100000
00000000
00010000
00100000
00000000
00010000
00100000
00000000
00000000
00000000
00000000
00000000
,
00001000
00010000
00001000
00010000
00000000
00000000
00000010
00001000
00000010
00001000
00000000
00000000
00000001
00000010
00000100
00002000
,
00000000
00000000
00003000
00000000
;

//--------------- dance-double - forcednature ----------------
#NOTES:
     dance-double:
     forcednature:
     Hard:
     14:
     0,0,0,0,0:
00000000
00000000
00000000
00000000
,
00000000
00000000
00000000
00000000
,
00000000
00000000
00000000
00000000
,
00001000
00010000
00100000
10000000
01000000
00100000
00001000
00010000
,
00010100
01001000
00101000
00010010
,
00022000
00033000
00000000
00000000
,
02200000
00000000
00000000
03300000
,
00022000
00033000
00000000
00000000
,
00000100
00001000
00000000
00000100
00001000
00000000
00000001
00000010
00000000
00000001
00000010
00000000
00000001
00000100
00000001
00000000
,
00000010
00000000
00000000
00000000
00000110
00000000
00000000
00000000
00000100
00010000
00001000
00000000
00100000
00001000
00010000
00000000
,
00100000
00000000
10000000
00000000
00010000
00000000
00100000
01000000
20000000
00000000
30000000
00000000
20000000
00000000
30000000
00000000
,
10100000
00000000
00000000
00000000
01010000
00000000
00000000
00010000
00000000
01000000
00001000
00000000
00010000
00000000
00000000
00000010
,
00010000
00000000
00001000
00000000
00000010
00000000
00000001
00000000
00001000
00000001
00000100
00000000
00000001
00001000
00000100
00000000
,
00000110
00000000
00000010
00000000
00000001
00000000
00000100
00000000
00000010
00000000
00000000
00010000
00000000
00000000
00001000
00000000
,
01000000
00000000
00100000
00000000
10000000
00000000
01000000
00100000
00000000
00000000
00000000
00000000
00010000
00000000
01000000
00000000
,
01001000
00000000
00000000
00000000
00001000
00000000
00000000
00010000
00000000
00000000
00000100
00000000
00000010
00000000
00000000
00000000
,
00000001
00000000
00000100
00000000
00001000
00000000
00010000
00000000
00000000
00000000
00010100
00000000
00000000
00101000
00000000
00000000
,
00011000
00001000
01000000
00010000
00200000
00000000
02300000
00000000
,
03010000
00001000
00000010
00000100
00001000
00000000
00001001
00000000
,
00000001
00000100
00001000
00010000
00000100
00001000
00010000
00100000
,
00001000
00000000
00010000
00000000
01000000
00000000
10000000
00000000
00100000
00000000
00010000
00000000
00001000
00010000
00001000
00000000
,
00010000
01000000
00100000
00000000
00001000
00000100
00000010
00000000
,
00001000
00000000
00000001
00000000
00000100
00001000
00000000
00010000
00000000
00000000
00100000
00000000
10000000
00010000
00000000
00000000
,
10000000
00000000
01000000
00000000
00010000
00000000
00000000
00001000
00010000
00000000
00001000
00000000
00000010
00000000
00000000
00000000
,
00000001
00000000
00000100
00000000
00000010
00001000
00000000
00020000
00000000
00000000
01030000
00100000
01000000
00100000
00000000
00000000
,
10100000
00000000
00000000
10000000
01000000
00000000
00010000
00000000
00002000
00000000
00000000
00000000
00003010
00000000
00000000
00000000
,
00000011
00000000
00000000
00000001
00000100
00000000
00001000
00000000
00020000
00000000
00000000
00000000
00130000
00000000
00000000
00000000
,
00012000
00000000
00000010
00000000
00010000
00000000
01003000
00001000
,
00010000
00000000
00000100
00000000
00001000
00000001
00001000
00000000
00000010
00000000
00000100
00000000
00001000
00010000
00001000
00000000
,
00100000
00000000
00010000
00000000
10000000
00100000
10000000
00000000
01000000
00000000
00010000
00000000
00001000
00010000
00001000
00000000
,
00000100
00000000
00000000
00000001
00001000
00000000
00000000
00000100
00010000
00000000
00000000
00001000
01000000
00000000
00100000
00000000
,
10000000
01000000
00010000
00001000
01000000
00010000
00001000
00000010
,
00000100
00000000
00001000
00000000
00010000
00100000
00000000
00010000
00001000
00000000
01000000
00010000
01000000
00000000
00000000
00000000
,
00100000
00000000
10000000
00000000
01000000
00000000
00010000
00000000
00001000
00000000
00000100
00000000
00000001
00001000
00000001
00000000
,
00000100
00010000
01000000
00001000
,
00022000
00000000
00000000
00033000
,
00000220
00000000
00000000
00000330
,
00001001
00000002
00000203
00002300
,
00013000
00000000
00000000
00010000
00100000
00000000
00000000
00100000
10000000
00000000
00000000
10000000
01000000
00100000
00010000
01000000
,
00010000
00000000
00000000
00010000
00100000
00000000
00000000
00100000
00001000
00000000
00000000
00001000
00000010
00000000
00000000
00000000
,
00000110
00000000
00000000
00000100
00001000
00000000
00000000
00001000
00000001
00000000
00000000
00000001
00000100
00000010
00001000
00000001
,
00000010
00000000
00000000
00000010
00001000
00000000
00000000
00001000
00010000
00000000
00000000
00010000
01000000
00000000
00000000
00000000
,
01100000
00000000
00000000
00000000
10000000
00000000
01000000
00000000
00010000
00000000
00001000
00100000
00001000
00000000
00010000
00000000
,
00100000
00000000
00000000
00000000
00010000
00000000
00000000
00000000
00001000
00000000
00000100
00000000
00000000
00000000
00000001
00000000
00000000
00000000
00001000
00000000
00000000
00000100
00000000
00000000
00000001
00000000
00000000
00000000
00000100
00000000
00000000
00000000
,
00010100
00101000
00010010
01001000
,
00001000
00000000
00100000
00010000
00100000
00000000
00001000
00000000
00020000
00000000
00000000
00000000
00030000
00000000
00000000
00000000
,
00100000
00000000
00000000
10000000
00010000
00000000
00100000
00000000
01000000
00000000
00010000
00000000
00000100
00000000
00000000
00000000
,
00001000
00000000
00000000
00000001
00000100
00000000
00000010
00000000
00010000
00000000
01000000
00000000
00100000
00000000
00000000
00000000
,
00001000
00000000
00010000
00000000
00100000
00000000
10000000
00010000
00000000
00100000
00000000
00010000
01000000
00000000
00001000
00000000
,
00010000
00000000
00000100
00000000
00000010
00000000
00000001
00000000
00000100
00001000
00000000
00010000
00100000
00000000
10000000
00000000
,
10010000
00000000
00000000
10000000
01000000
00000000
00010000
00000000
00000010
00000000
00001000
00000000
00000001
00000000
00000000
00000000
,
00000100
00000000
00000000
00001000
00010000
00000000
01000000
00000000
00001000
00000000
01000000
00000000
10000000
00000000
00000000
00000000
,
10010000
10000000
00010000
00100000
00001000
00000100
00000001
00001000
,
00000200
00000001
00000010
00001300
,
00022000
00000000
00033000
00000000
,
01001000
00000000
00000000
00001000
00000000
00100000
00010000
00000000
01000000
00100000
00000000
10000000
00000000
01000000
00010000
00000000
,
00001000
00010000
00000000
00000100
00000000
00001000
00000001
00001000
00000001
00000100
00000000
00000010
00001000
00000000
00000000
00000000
,
00011000
00000000
00010000
00100000
00000000
00100000
01000000
00000000
01000000
00001000
00000000
00001000
00010000
00000000
00000100
00000000
,
00000010
00000000
00000001
00000000
00000100
00000010
00000000
00000010
00010000
00001000
00010000
00001000
00010000
00000000
01000000
00000000
,
10000000
00000000
00000000
10000000
00100000
00000000
00010000
00000000
00000100
00000000
00000010
00000000
00000001
00000000
00000000
00000000
,
00000001
00000000
00000000
00000001
00000010
00000000
00001000
00000000
01000000
00000000
00100000
00000000
10000000
00000000
00000000
00000000
,
01000000
00000000
00010000
00000000
00001000
00000000
00000010
00000001
00000000
00000001
00000000
00000001
00000100
00000000
00000010
00000000
,
00010000
00001000
00010000
00000000
00100000
00000000
10000000
00020000
00000000
00000000
00000000
00000000
00030000
00000000
00000000
00000000
,
00100000
00000000
00001000
00010000
00001000
00000000
00010000
00000100
00010000
00000000
00000100
00001000
00000100
00000000
00000000
00000000
,
00000010
00000000
00000001
00000100
00001000
00000000
00010000
00100000
00010000
00000000
00000000
00000000
00001000
00000000
00010000
00000000
,
00011000
00000000
00001000
01000000
00001000
00000000
01000000
00010000
01000000
00000000
00010000
10000000
00010000
00000000
00000000
00000000
,
00220000
00000000
00000000
00330000
00000000
00000000
00000000
00000000
,
00001000
00010000
00000000
00001000
00000100
00000000
00001000
00010000
00000000
00001000
00000010
00000000
00001000
00010000
00001000
00000000
,
00010000
00001000
00000000
00010000
01000000
00000000
00010000
00001000
00000000
00010000
00100000
00000000
00010000
00001000
00010000
00000000
,
00001000
00010000
00001000
01000000
00000000
00000000
00100000
10000000
00010000
01000000
00000000
00000000
00001000
00010000
00000100
00002000
,
00000000
00000000
00003000
00000000
;
