#VERSION:0.83;
#TITLE:Shy;
#SUBTITLE:;
#ARTIST:Andy Rowell;
#TITLETRANSLIT:;
#SUBTITLETRANSLIT:;
#ARTISTTRANSLIT:;
#GENRE:;
#CREDIT:;
#MUSIC:Shy.ogg;
#BANNER:Shy.png;
#BACKGROUND:Shy-bg.png;
#CDTITLE:Shy-jacket.png;
#SAMPLESTART:77.535;
#SAMPLELENGTH:15.500;
#SELECTABLE:YES;
#OFFSET:-0.035;
#BPMS:0.000=120.000
,240.000=60.000
,241.000=120.000
,271.000=60.000
,272.000=120.000
;
#STOPS:;
#DISPLAYBPM:120.000;
#BGCHANGES:-0.555=Shy.avi=1.000=0=0=0=StretchNoLoop====99999=-nosongbg-=1.000=0=0=0 // don't automatically add -songbackground-;
#FGCHANGES:;

//--------------- dance-single - NOWHERE Dance Club ----------------
#NOTEDATA:;
#STEPSTYPE:dance-single;
#DESCRIPTION:NOWHERE Dance Club;
#DIFFICULTY:Easy;
#METER:5;
#RADARVALUES:0,0,0,0,0;
#NOTES:
0000
0000
0000
0000
,
0000
0000
0000
0000
,
0000
0000
0010
0000
,
0010
0000
0001
0100
,
0001
1000
0010
0000
,
1000
0000
0100
0100
,
1000
0001
0010
0000
,
0001
0000
1000
0100
,
1000
0100
0100
0000
,
0100
0000
0100
0000
,
1000
0010
1000
0000
,
0001
0000
0000
1000
0001
0000
0010
0000
,
0100
1000
0100
0000
,
0100
0000
0100
0000
,
0010
0100
0010
0000
,
1001
0000
1000
0000
,
1010
0000
0001
1000
,
0010
1000
1000
0001
,
0100
0010
1000
0100
,
0010
0001
0101
0001
,
1000
0010
1000
0100
,
0100
1000
0001
0010
,
0010
0001
0002
0000
,
2003
0000
3001
0000
,
0010
0000
0100
0010
,
0100
0010
0001
0010
,
0001
0010
1002
0000
,
0000
0000
1003
1000
,
0001
0101
1000
1100
,
0000
0001
1000
0000
0100
0000
1000
0000
,
0100
1000
0100
1000
0000
0000
0000
0000
,
1000
0100
0010
0012
,
0000
1000
0000
0103
,
0000
1000
0010
1000
,
0100
1000
0001
1000
0010
0000
0100
0000
,
0010
1000
0001
0100
,
0010
1010
1000
0100
,
1000
0010
1000
0001
,
0100
0001
1000
1100
,
0000
0011
0000
0110
,
0000
1100
0001
0011
,
0000
0110
0000
1100
,
0000
2000
0000
0000
3001
0000
0001
0000
,
1000
0100
1000
0100
,
0010
0001
1000
0010
,
0100
0001
1000
0010
,
1000
0100
0010
0110
,
1000
0010
0100
0001
,
1000
0001
1000
0010
0100
0000
0000
0000
,
0010
0000
1000
0000
,
0100
0000
1000
0001
,
0010
0000
0100
0010
0100
0010
0100
0000
,
0010
0000
0001
0000
0100
0000
0001
1000
,
0001
1000
0001
0000
1000
0000
0001
0000
,
0020
0130
0010
0011
,
0000
1100
0000
0110
,
0000
0001
1000
0101
,
0000
1000
0010
0100
,
0110
0110
1000
0100
,
1000
0100
0010
0001
,
0002
0023
0000
0000
,
0031
0100
0001
0010
,
0001
1000
1100
0000
,
0011
0000
0101
1000
,
0100
0010
0000
0001
,
1000
1000
0001
1000
,
0100
2000
0000
0001
,
0000
3100
0000
2010
,
3200
0000
0300
1000
,
0020
0000
1030
0010
,
0100
0001
0010
0100
,
1000
0100
0010
0001
,
0200
0000
0310
0000
;

//--------------- dance-single - NOWHERE Dance Club ----------------
#NOTEDATA:;
#STEPSTYPE:dance-single;
#DESCRIPTION:NOWHERE Dance Club;
#DIFFICULTY:Medium;
#METER:7;
#RADARVALUES:0,0,0,0,0;
#NOTES:
0000
0000
0000
0000
,
0000
0000
0000
0000
,
0000
0000
0010
0000
,
0010
0000
0001
0100
,
0001
1000
0010
0000
,
1000
0000
0100
0010
,
0001
0000
1000
0000
0010
0000
0000
0100
,
0100
0001
1000
0100
,
1000
0000
0100
0010
0100
0000
0010
0000
,
0100
0010
0100
0010
,
0001
0100
0010
0100
,
0010
0000
1000
0100
0010
0000
0100
0000
,
0010
0000
0001
0100
0010
0000
0100
0000
,
0010
1000
0100
1000
,
0010
0100
0010
0100
0001
0000
0000
0000
,
1001
1000
1100
0000
,
1010
0000
0001
0100
,
0010
0000
1000
0001
0100
0000
0001
0000
,
0100
0010
1000
0100
,
0010
0000
0001
0100
0010
0000
1000
0000
,
0100
0010
0001
0100
,
0010
1000
0001
0010
,
0010
0001
0002
0000
,
2003
0000
3001
0000
,
0010
0000
0100
0010
,
0100
0010
0001
0010
,
0001
0100
0010
1000
0002
0000
0000
0000
,
0000
0000
1003
1000
,
0001
0101
1000
1100
,
0000
0001
1000
0000
0010
0000
1000
0000
,
0100
1000
0100
1000
0000
0000
0000
0001
,
1000
0100
0010
0012
,
0000
1000
0000
0103
,
0000
1000
0010
1000
,
0100
1000
0001
1000
0010
0000
0100
0000
,
0010
1000
0001
0100
,
0010
1010
1000
0100
,
1000
0010
1000
0001
,
0100
0010
0000
0100
0001
0000
1100
0000
,
0000
0001
0011
0011
,
1000
0100
0010
0011
,
0000
0110
0000
1100
,
0001
2000
0000
0000
3001
0000
0010
0000
,
0100
0000
1000
0000
0010
0100
0001
0000
,
0010
0000
0100
1000
0010
0000
0100
0010
,
0100
0001
1000
0010
,
1000
0100
0010
0100
,
1000
0010
0100
0001
,
1000
0100
0010
0001
2000
0000
0000
0000
,
3010
0010
1000
1000
,
0100
0020
0000
0000
0031
0000
0001
0000
,
0010
0000
0100
0010
0100
0010
0100
0000
,
0010
0000
0001
0000
0100
0000
0010
1000
,
0001
1000
0100
0000
1000
0001
1000
0001
,
0020
0130
0010
0001
,
1000
0100
1100
0001
,
0010
0001
0010
0001
0100
0000
0001
0000
,
1001
1000
0010
0100
,
1001
0110
1000
0100
,
1000
0100
0010
0001
,
0200
0320
0000
0000
,
0130
0100
0001
0010
,
0001
1000
1100
0001
,
0100
0010
1000
0100
,
0110
0002
0000
1003
,
0010
0100
0010
1000
,
0100
2000
0000
0001
,
0000
3100
0000
2001
,
3020
0000
1030
1000
,
0020
0000
1030
0010
,
0200
0000
0301
0100
,
0001
0100
0010
1000
,
0200
0000
1300
0000
;

//--------------- dance-single - NOWHERE Dance Club ----------------
#NOTEDATA:;
#STEPSTYPE:dance-single;
#DESCRIPTION:NOWHERE Dance Club;
#DIFFICULTY:Hard;
#METER:9;
#RADARVALUES:0,0,0,0,0;
#NOTES:
0000
0000
0000
0000
,
0000
0000
0000
0000
,
0000
0000
0010
0010
,
0010
0010
0001
0100
,
0001
0000
1000
0000
0010
0100
0010
0000
,
1000
0000
0100
0000
0010
0001
0100
0000
,
0001
0000
0010
0000
0001
0010
0100
0000
,
1000
0020
1030
0100
,
0010
0001
0100
0001
0020
0000
0130
0000
,
0020
0130
2000
3100
,
0020
0130
2000
3001
,
0020
0000
0031
0001
0010
0100
1000
0100
,
0010
0001
1000
0100
0010
0000
0001
0000
,
1000
0101
0010
1000
,
0100
0001
0100
1000
0200
0000
0000
0000
,
0320
0000
0000
0000
0031
0100
0010
1000
,
0002
0003
0101
1000
,
0010
1000
0100
0010
0110
0000
0010
0001
,
0100
0010
1000
0000
1010
0000
0101
0000
,
0011
0000
0001
0100
0010
0100
0001
1000
,
0100
0010
0001
1000
0100
0000
0010
0000
,
0011
1000
1100
0010
,
0001
0100
0010
1000
0020
0000
0000
0100
,
0230
0000
0000
0010
0320
0000
0000
0000
,
1030
0000
0001
0000
0100
0001
0010
0000
,
0100
1000
0010
0000
0100
0001
0010
0000
,
0100
1000
0010
0000
1002
0000
0000
0000
,
1000
1000
0100
0103
,
0001
0101
1000
1010
,
0000
0001
0010
0000
0100
0000
1000
0000
,
0100
0010
0001
0010
0001
0100
0000
0000
,
0001
0100
0010
2000
,
0001
0001
0100
3100
,
0000
0000
0001
0000
0010
0001
0100
0000
,
0001
1000
0001
0010
0100
0000
0100
0000
,
1000
0001
0010
0000
0001
0010
0100
0000
,
1000
0001
0010
0010
0001
1000
0100
0000
,
1000
0010
0100
0000
0001
0010
0001
1000
,
0001
0200
0000
0301
0001
0000
1100
0000
,
0001
0000
0011
0000
1000
0100
0010
0000
,
0010
0100
1000
0001
0100
0000
0011
0000
,
1000
1010
0001
0101
,
0010
0002
0000
0000
1003
0010
1000
0010
,
0100
0000
0001
0010
0001
0010
0100
0000
,
1000
0010
1000
0010
0100
0000
0001
0010
,
0001
0010
0100
0000
1000
0010
0100
0010
,
0100
0001
0010
0100
1000
0000
1001
0000
,
1000
1010
0200
0301
,
1000
0001
1000
0010
0200
0000
0000
0000
,
0320
0000
0000
0000
1030
0100
0010
0001
,
1000
2000
0000
0000
3001
0001
1000
0100
,
0020
0000
0130
0010
0100
0010
0002
0000
,
1003
0010
1000
0010
0200
0000
0301
1000
,
0001
1000
0020
0000
1030
0001
1000
0001
,
0020
0130
0010
0011
,
1000
0100
0010
0001
0010
0000
0110
0000
,
0001
0100
0010
1000
0001
0000
1000
0000
,
1100
0001
0101
1000
,
0010
0010
1000
1000
0100
0000
1010
0000
,
1000
0100
0010
0001
,
0102
0003
0020
0000
0000
0000
0000
0000
,
0031
0100
0020
0000
1030
0000
0001
0010
,
0100
1000
0001
0000
1100
0000
0001
0000
,
0011
0000
1000
0000
1010
0000
1000
0100
,
0010
0001
2000
0000
0000
0000
3002
0000
,
1003
1000
0100
1000
0001
0000
1000
0010
,
1000
0100
2000
0000
3020
0000
0230
0000
,
0302
0000
1003
0000
0100
0000
2010
3000
,
2200
0000
0000
0000
3300
0000
1000
0001
,
0020
0000
0000
0000
0031
0100
0010
1000
,
0001
0101
0100
1010
,
0001
0000
0101
0000
0001
0010
0001
0100
,
0020
0000
1030
0000
;

//--------------- dance-single - NOWHERE Dance Club ----------------
#NOTEDATA:;
#STEPSTYPE:dance-single;
#DESCRIPTION:NOWHERE Dance Club;
#DIFFICULTY:Challenge;
#METER:11;
#RADARVALUES:0,0,0,0,0;
#NOTES:
0000
0000
0000
0000
,
0000
0000
0000
0000
,
0000
0000
0000
0000
0010
0001
1000
0100
,
0010
0000
0001
0000
0010
0001
0000
0000
0001
0000
1000
0000
0001
0000
0010
0000
,
0100
0000
1000
0000
0100
0010
0000
0000
0010
0000
0001
0000
0100
0000
0010
0000
,
1000
0000
0010
0000
0100
0001
0000
0000
0001
0000
0100
0000
0010
0000
1000
0000
,
0001
0000
0100
0000
0001
0010
0000
0000
0010
0000
0001
0000
0100
0000
0010
0000
,
1000
0000
0100
0000
0010
0100
0000
0000
0010
0000
0100
0000
1000
0000
0001
0000
,
0100
0000
0002
0000
0013
0000
0001
0010
,
1000
0010
0001
0100
0010
0000
1000
0001
,
2000
0000
3002
0000
0103
0001
0100
0001
,
2000
0000
3010
0000
0110
0000
1000
0010
,
0100
0001
1000
0010
0100
0000
0101
0000
,
1100
0000
0001
0100
1000
0000
0100
0000
,
0001
1000
0100
1000
0020
0000
0000
0000
,
2000
0000
3030
0000
0001
0010
0100
1000
,
0001
0000
0002
0000
0013
0100
1000
0000
,
0010
1000
0001
0010
0110
0000
0010
0001
,
0001
0100
0010
0000
1010
0000
0100
0001
,
0011
0000
0001
0100
0010
1000
0001
0010
,
0200
0010
0310
0001
0100
0000
0002
0000
,
1003
0000
0010
1000
0100
0000
0010
0000
,
0001
0100
0001
0100
0020
0000
0000
1000
,
0230
0000
0000
0010
0302
0000
0000
0000
,
0103
0000
0001
0000
0100
0000
0001
0000
1000
0000
0000
0000
0001
0100
0010
0000
,
1000
0000
0001
0000
0010
0000
0000
0000
0100
0000
0000
0000
1000
0010
0100
0000
,
0001
1000
0010
0000
0201
0000
0000
0000
,
0001
0001
1000
1300
,
0001
0101
1000
1100
,
0000
0010
1000
0100
0020
0000
0031
0000
,
1000
0100
1000
0010
0200
0000
0000
0310
,
1000
1000
0100
0010
0001
0000
0002
0000
,
1000
0100
1000
0103
,
0000
0001
0010
0000
0010
0001
1000
0000
,
0001
0010
0100
1000
0010
0000
0110
0000
,
1000
0000
1001
0000
0001
1000
0100
0010
,
0001
0000
0012
0000
0103
0010
2000
0000
,
3100
0000
0010
0000
0002
0000
0000
0000
0103
0000
0010
0000
2000
0000
3000
0001
,
0010
0100
0010
0000
0100
0000
0010
0000
,
0001
0011
1000
1100
,
0010
0001
0001
0200
0301
0000
1001
0000
,
1000
0000
1100
0000
1000
0100
0010
0001
,
1000
0002
0000
0000
1003
0100
0001
0100
,
2000
0000
3010
0001
0010
1000
0002
0000
,
0013
0001
0100
0001
0020
0000
1030
0010
,
0001
0010
2000
0000
3010
0001
0100
0010
,
1000
0100
0010
0000
1100
0000
1001
0000
,
0100
0001
0010
0001
0200
0000
0310
0000
,
0010
1000
0010
1000
0200
0000
0010
0000
,
0320
0000
0001
0000
1030
0100
0010
0001
,
1000
0020
0000
0000
0130
0001
1000
0100
,
0020
0000
0130
0010
0100
0010
0002
0000
,
1003
0100
0010
0001
0200
0000
0301
1000
,
0001
1000
0020
0000
1030
0001
1000
0010
,
0100
0001
1000
1000
0001
0000
0101
0000
,
1000
1100
0100
0110
,
0001
1000
0010
0100
0002
0000
1003
0000
,
0100
1000
1000
0000
0001
0100
0200
0000
,
0310
0010
1000
1000
0100
0010
0001
1000
,
1000
0100
0010
0001
0100
0001
0010
0000
,
0102
0023
0000
0000
,
0031
0100
0001
0000
0020
0000
0000
0000
0000
0000
0000
0000
0031
0000
0010
0000
,
0100
1000
0002
0000
1003
0000
0010
0100
,
0001
0000
0001
0010
0100
0000
1000
1000
,
0100
0100
0020
0000
0000
0000
0031
0000
,
1000
0001
0100
0010
1000
0000
0002
1003
,
0000
0100
0010
0001
0200
0000
0320
1000
,
0032
0000
1003
0010
0100
0000
2010
3000
,
2200
0000
0000
0000
0000
0000
0000
0000
3300
0000
0000
0000
1000
0100
1000
0000
,
0020
0000
0000
0000
1000
0000
1030
0001
,
0100
0010
1000
0100
,
0010
0000
0011
0000
0001
0010
0001
0100
,
0020
0000
1030
0000
;
