#TITLE:就寝御礼;
#SUBTITLE:;
#ARTIST:PSYQUI;
#TITLETRANSLIT:;
#SUBTITLETRANSLIT:;
#ARTISTTRANSLIT:;
#GENRE:;
#CREDIT:;
#MUSIC:Shuushin orei.ogg;
#BANNER:Shuushin orei.png;
#BACKGROUND:Shuushin orei-bg.png;
#CDTITLE:;
#SAMPLESTART:31.765;
#SAMPLELENGTH:15.000;
#SELECTABLE:YES;
#OFFSET:2.352;
#BPMS:0.000=102.000;
#STOPS:;
#BGCHANGES:;
#FGCHANGES:;

//--------------- dance-single - chrononical ----------------
#NOTES:
     dance-single:
     chrononical:
     Beginner:
     2:
     0,0,0,0,0:
0000
0000
0000
0000
,
0000
0000
0000
0000
,
0000
0000
0000
0000
,
0001
0000
0100
0100
,
0100
0000
0010
0010
,
0010
0000
1000
1000
,
1000
0000
0001
0001
,
0001
0001
1000
0100
,
1000
0000
0100
1000
,
0100
0000
1000
0010
,
1000
0000
0001
0100
,
0001
1000
0000
0001
,
0010
0001
0000
0001
,
0100
0001
0000
1000
,
1001
0000
0000
0000
,
0001
0000
0100
0100
,
0100
0000
0010
0010
,
0010
0000
1000
1000
,
1000
1000
1000
1000
,
1000
0000
0001
0010
,
0001
0000
1000
0010
,
1000
0000
0010
1000
,
0010
1000
1000
1000
,
2000
3000
0020
0030
,
0200
0300
0020
0030
,
2000
3000
0100
0100
,
0100
0100
1000
1000
,
2000
3000
0002
0003
,
0020
0030
0200
0300
,
1000
1000
1000
0000
,
0001
0001
0001
0000
,
1000
0001
1000
0000
,
0001
1000
0001
0000
,
0100
0100
0200
0300
,
0020
0030
2000
3000
,
1001
0000
0001
0100
,
0001
0000
1000
0100
,
1000
0000
0001
1000
,
0001
0001
0001
0001
,
0001
0000
0100
0000
,
1000
0000
0100
0000
,
0001
0000
0010
0000
,
1000
0000
0010
0000
,
0001
0000
0010
0000
,
1000
0000
0100
0000
,
0001
0000
0100
0000
,
1000
0000
0010
0000
,
0001
0000
1000
0000
,
0010
0000
0100
0000
,
0001
0000
1000
0000
,
1000
0000
0001
0002
,
0003
0000
0000
0000
;

//--------------- dance-single - chrononical ----------------
#NOTES:
     dance-single:
     chrononical:
     Easy:
     4:
     0,0,0,0,0:
0000
0000
0000
0000
,
0000
0000
0000
0000
,
0000
0000
0000
0000
,
0001
0010
0100
1000
,
0001
0100
0010
1000
,
0001
0100
1000
0100
,
0001
0010
1000
0010
,
0001
0100
0010
0100
,
0001
0010
0100
0010
,
0001
0010
1000
0010
,
0001
0100
1000
0100
,
0001
1001
1000
0010
,
1000
1001
0001
0010
,
0100
0110
0100
1000
,
1001
0000
0000
1001
,
1000
0010
0100
0010
,
1000
0001
0010
0001
,
0010
1000
0001
0100
,
0000
1000
0000
1000
0000
1000
0000
1000
,
0000
0001
0010
0100
,
1000
0010
0100
0001
,
0100
1000
0001
0010
,
1000
1001
1001
1001
,
2000
3100
0200
0310
,
0020
0032
0103
0010
,
2000
3010
0100
0010
,
2000
3010
1000
0100
,
2000
3010
0020
0130
,
0200
0302
1003
0100
,
0020
0130
1000
0001
,
1000
0100
0002
0103
,
1000
0100
0001
0010
,
1000
0100
0001
0010
,
1000
0010
0200
0310
,
0020
0130
0200
0301
,
1001
1000
0010
0100
,
0001
0010
0100
1000
,
0001
0100
1000
0100
,
0001
1001
1001
1001
,
1000
0100
0001
0200
,
1300
0010
0001
0010
,
1000
0100
0010
0001
,
1000
0010
0100
0001
,
0001
0100
1000
0200
,
0301
0010
1000
0010
,
0001
0100
0010
1000
,
0002
1000
0100
1000
,
1003
0010
0010
1000
,
0001
0100
0100
0002
,
1003
0100
0100
1000
,
0001
1000
1000
0002
,
0003
0000
0000
0000
;

//--------------- dance-single - chrononical ----------------
#NOTES:
     dance-single:
     chrononical:
     Medium:
     6:
     0,0,0,0,0:
0000
0000
0000
0000
,
0000
0000
0000
0000
,
0000
0000
0000
0000
,
0001
0000
0011
0000
0010
0000
0001
0100
,
0001
0000
0101
0000
0100
0000
0010
1000
,
0010
0000
1010
0000
1000
0000
0010
1000
,
0001
0000
0100
0000
0201
0000
0301
0100
,
0001
0000
0101
0000
0100
0000
0010
1000
,
0001
0000
0011
0000
0010
0000
0100
1000
,
0001
0000
1001
0000
1000
0000
0010
0100
,
0001
0010
1000
0100
,
0001
0000
0011
0000
0001
0010
0001
0010
,
0001
0000
0101
0000
0100
0010
0100
0010
,
0100
0000
0101
0000
0001
0010
0001
0000
,
2002
0000
3003
0000
0001
0100
0001
0000
,
1001
0000
1010
0000
0010
0100
0010
0000
,
1010
0000
1100
0000
0100
0010
0100
0000
,
1000
0010
0100
0000
0100
0010
1000
0000
,
0000
1100
0000
0101
0000
1100
0000
0101
,
0000
0000
1001
0000
1000
0010
0100
0000
,
0110
0000
0101
0000
0001
0010
0100
0000
,
1000
0100
0010
0000
0010
0100
1000
0000
,
0001
0200
0000
0000
1000
0000
0001
0000
,
0320
1030
0200
1300
,
0020
0000
1030
0000
0001
0010
0001
0010
,
0002
0000
0103
0000
0010
1000
0010
0000
,
1000
0000
1100
0000
0100
0010
0100
0000
,
2100
3100
0210
0310
,
0021
0000
0031
0000
0001
0100
0001
0100
,
0002
0000
0103
0000
0010
1000
0001
0000
,
1000
1010
0020
0130
,
0001
0010
0001
0000
0011
0000
1010
0000
,
1000
0010
1000
0000
1100
0000
0101
0000
,
0001
0010
0001
0000
0201
0000
0301
0000
,
0120
0000
0130
0000
2010
0000
3010
0100
,
0002
1000
0010
1000
,
1003
0000
1010
0000
0010
0000
0100
0001
,
1000
0000
1100
0000
0100
0010
0100
0000
,
2000
0001
0010
0100
,
3001
0100
1000
0010
,
0001
0010
1000
0100
,
0001
0100
0010
0000
0010
0100
0001
0000
,
1000
0100
0001
0100
,
1000
0010
0001
0100
,
1000
0100
0001
0010
,
1000
0100
0010
0000
0010
0100
1000
0000
,
0001
0100
1000
0100
,
0001
0000
0010
0100
0010
0000
0200
0000
,
1300
0000
0010
0100
0010
0000
0200
0000
,
0301
0000
0010
0100
1000
0000
0002
0000
,
1003
0000
0010
0100
0001
0000
2000
0002
,
3003
0000
0000
0000
;

//--------------- dance-single - chrononical ----------------
#NOTES:
     dance-single:
     chrononical:
     Hard:
     10:
     0,0,0,0,0:
0000
0000
0000
0000
,
0000
0000
0000
0000
,
0000
0000
0000
0000
,
0001
1000
0010
0100
0001
0010
1000
0010
,
0001
0000
0011
0000
0001
0100
1000
0100
,
0001
0000
0101
0000
0001
0010
1000
0100
,
0001
0100
1000
0100
0001
0001
0010
0002
,
1003
0000
0100
0000
1000
0001
0100
0000
0010
0000
0100
0000
1000
0000
0100
0000
,
0010
0000
1010
0000
1000
0100
0001
0100
,
1000
0000
1100
0000
1000
0100
0001
0010
,
1000
0000
0010
0000
0001
0000
1000
0000
0100
0000
0001
0000
1000
0100
0000
0000
,
1100
0000
1100
0000
1000
0010
0001
0010
,
1000
0000
0101
0000
0001
0010
1000
0010
,
0001
0000
0000
0000
1100
0000
0000
0100
1000
0000
0010
0000
1000
0001
0000
0000
,
2002
0000
3003
0000
0001
0100
1000
0100
,
0002
0000
0000
0000
1003
0000
0000
1000
0010
0000
0010
0000
0200
0000
0000
0000
,
0302
0000
0000
0000
1003
0000
0000
1000
0100
0000
0100
0000
1000
0000
0010
0000
,
0001
1000
0100
0001
1000
0010
0001
0010
,
1000
0100
0001
0100
1000
0010
0001
0010
,
2000
0000
0000
0000
3100
0000
0000
0010
0100
0000
0100
0000
2000
0000
0000
0000
,
3002
0000
0000
0000
0103
0000
0000
0010
1000
0000
1000
0000
0100
0000
0001
0000
,
0100
1000
0001
0010
1000
0001
0100
1000
,
0001
0100
0010
0010
1000
1000
0001
0001
,
1000
0010
0100
0000
1000
0010
0100
0000
,
1000
0010
0200
0000
0301
0010
1000
0010
,
0002
0000
0103
1000
0100
0010
0001
0010
,
0100
0010
1000
0100
0010
0010
0001
0001
,
1000
0100
0010
0000
1000
0100
0010
0000
,
1000
0100
0020
0000
0031
0100
1000
0100
,
0002
0000
0013
0100
0001
0100
0010
0100
,
1000
0100
0010
0001
0200
0000
0310
1000
,
0001
0000
0010
0000
1000
0000
0100
0000
0001
0000
0000
0101
0000
0000
0100
0000
,
0001
0100
1000
0010
0001
0000
0011
0000
,
0001
0100
1000
0100
0020
0000
1030
0000
,
0200
0000
0000
0000
1300
0000
0000
0000
0020
0000
0000
2030
0000
0000
3002
0000
,
2003
0000
0000
0000
3100
0000
0000
1000
0010
0000
0100
0000
0001
0000
0010
0000
,
0200
0000
0000
0000
1300
0000
0000
0100
0010
0000
0001
0000
0100
0000
1000
0000
,
0100
0001
1000
0010
0001
1000
0100
0010
,
1000
0010
0100
0100
0001
0001
0010
0010
,
0001
0100
1000
0010
0100
0010
1000
0100
,
0001
0010
1000
0100
0010
0100
1000
0010
,
0001
0010
1000
0001
0100
1000
0100
0010
,
0001
0100
1000
0100
0001
0010
1000
0010
,
0001
0010
0100
0001
0100
0010
0001
0001
,
1000
0010
0100
1000
0100
0010
1000
1000
,
0100
0001
0100
0010
0100
1000
0010
0001
,
0010
0200
0001
0000
1000
0000
0301
1000
,
0001
0000
0010
0000
1000
0000
0010
0000
0001
0000
0000
0000
0100
0020
0000
0000
,
1030
0010
0001
0010
1000
0000
2100
0000
,
3100
0000
0010
0000
1000
0000
0010
0000
0100
0000
0000
0000
1000
0200
0000
0000
,
1300
0010
0001
0010
0100
0001
2000
0002
,
3003
0000
0000
0000
;
