#TITLE:Retrograde;
#ARTIST:Aleyna Tilki;
#BANNER:Retrograde.png;
#BACKGROUND:Retrograde-bg.png;
#JACKET:Retrograde-jacket.png;
#CDTITLE:./CDTITLES/NONE.PNG;
#MUSIC:Retrograde.ogg;
#SAMPLESTART:60.923;
#SAMPLELENGTH:15;
#BPMS:0=130;

//---------------dance-double - t7r----------------
#NOTES:
     dance-double:
     t7r:
     Easy:
     4:
     :
00000000
00000000
00000000
00000000
,
00000000
00000000
00000000
00000000
,
00000000
00000000
00000000
00000000
,
00000000
00000000
00000000
00000000
,
00000000
00000000
00000000
00000000
,
20000000
00000000
00000000
00000000
,
00000000
31000000
00000000
00000000
,
00020000
00000000
00000000
00000000
,
00000000
00031000
00000000
00000000
,
00010000
00000000
00001000
00000000
,
01000000
00000000
00100000
00000000
,
20000000
00000000
30000000
00000000
,
02000000
00000000
03000000
00000000
,
00010000
00000000
00001000
00000000
,
00010000
00000000
00000010
00000000
,
00000002
00000000
00000003
00000000
,
00000020
00000000
00000030
00000000
,
00010000
00001000
00010000
00000000
,
00001000
00001000
00001000
00000000
,
02000000
00000000
03100000
00000000
,
20000000
00000000
31000000
00000000
,
10000000
00010000
10000000
00000000
,
01000000
00010000
00001000
00000000
,
00022000
00000000
00000000
00033000
,
00000020
00000000
00000030
00000000
,
00000200
00000000
00000300
00000000
,
00000000
00000002
00000000
00000003
,
00000020
00000000
00000030
00000000
,
00000000
00002000
00000000
00003000
,
00010000
00000000
00022000
00033000
,
00000000
02000000
00000000
03000000
,
00100000
00000000
20020000
30030000
,
20000000
00000000
00000000
30000000
,
10000000
00000000
01000000
01000000
,
00010000
00000000
00000010
00000010
,
00000001
00000010
00001000
00000000
,
00010000
00100000
10000000
00000000
,
00100000
00000000
00011000
00000000
,
00000010
00000000
00011000
00000000
,
00001000
00000100
00000001
00000000
,
00001000
01000000
10000000
00000000
,
00100000
00100000
10000000
10000000
,
01000000
00010000
00001000
00000100
,
00000010
00000010
00001000
00001000
,
00000001
00000010
00001000
00020000
,
00030100
00000100
00010000
00010000
,
00001000
01000000
10000000
01000000
,
00100000
00100000
10000000
10000000
,
01000000
00010000
00000010
00000100
,
00000002
00000000
00000000
00000000
,
00000003
00000010
00001000
00001000
,
02000000
00000000
00000000
03000000
,
00000000
00100000
10000000
00010000
;

//---------------dance-double - t7r----------------
#NOTES:
     dance-double:
     t7r:
     Medium:
     7:
     :
00000000
00000000
00000000
00000000
,
00000000
00000000
00000000
00000000
,
00000000
00000000
00000000
00000000
,
00000000
00000000
00000000
00000000
,
00000000
00000000
00000000
00000000
,
20000000
00000000
00000000
00000000
,
00000000
32000000
00000000
00000000
,
03020000
00000000
00000000
00000000
,
00031000
02000000
00000000
00000000
,
03100000
00000000
00000000
10000000
00010000
00000000
00000000
10000000
,
00010000
00000000
00000000
10000000
01000000
00010000
00000000
00010000
,
00001000
00000000
00000100
00000000
,
00000001
00000000
00000000
00000000
00000010
00000100
00000000
00000100
,
00010000
00000000
00000000
00001000
01000000
00000000
00000000
00010000
,
01000000
00000000
00000000
00010000
10000000
00100000
00000000
00100000
,
02000000
00000000
03001000
00010000
00001000
00000000
00000000
00000000
,
00000200
00000000
00000310
00000100
00000001
00000010
00000000
00000010
,
00000001
00000000
00000010
00001000
00010000
00000000
00001000
00000000
,
01000000
00000000
00100000
10000000
00010000
00000000
10000000
00000000
,
01000000
00000000
00010000
00001000
00000100
00000000
00000100
00000000
,
00000010
00000000
00001000
00010000
00100000
00000000
00010000
00000000
,
10000000
00000000
00100000
00010000
00001000
00000000
00000100
00000000
,
00000010
00000000
00001000
00010000
00100000
00000000
00010000
00000000
,
20010000
00000000
00000000
31000000
00100000
00000000
00000000
00000000
,
00001000
00000000
00010000
00000000
00000010
00000100
00000100
00000100
,
00000002
00000000
00000000
00000000
,
00000013
00002000
00000000
00000000
,
02003000
00000000
00000000
00000000
,
03100000
20000000
00000000
00000000
,
31000000
00010000
00022000
00033000
,
00000010
00000200
00000001
00000300
,
00000010
00000100
00000001
00000001
,
00000010
00000000
00001000
00010000
00001000
00000000
00011000
00000000
,
01000000
00000000
00100000
10000000
00010000
00000000
00010000
00000000
,
10000000
00000000
01000000
00010000
00001000
00000000
00001000
00000000
,
00010000
00000000
00000010
00000001
00000010
00000000
00010000
00000000
,
00001000
00000000
00100000
10000000
00100000
00000000
00001000
00000000
,
00010000
00000000
00000010
00000100
00000001
00000000
00000001
00000000
,
00000010
00000000
00000200
00000000
00010300
00001000
00010000
00000000
,
00001000
00000000
00000100
00000001
00000100
00000000
00001000
00000000
,
00010000
00000000
01000000
10000000
01000000
00000000
00010000
00000000
,
00000010
00000000
00000110
00000000
00000100
00000001
00001000
00000000
,
00000100
00001000
00010000
00000000
00100000
01000000
10000000
00000000
,
00010000
00000000
01010000
00000000
00010000
00100000
10000000
00000000
,
00100000
00001000
00010000
00000000
00000010
00000100
00000200
00000000
,
00000301
00000000
00000011
00000000
00000001
00000100
00001000
00000000
,
00010000
00001000
00100000
00000000
00010000
01000000
00100000
10000000
,
01000000
00000000
11000000
00000000
10000000
00100000
00010000
00000000
,
00001000
00010000
00000020
00000000
00000130
00000001
00000010
00000000
,
00000002
00000100
00001000
00000013
,
00000001
00000100
00001000
00010000
,
00200000
10000000
00010000
01300000
,
00010000
00000100
00000001
00000010
;

//---------------dance-double - t7r----------------
#NOTES:
     dance-double:
     t7r:
     Hard:
     11:
     :
00000000
00000000
00000000
00000000
,
00000000
00000000
00000000
00000000
,
00000000
00000000
00000000
00000000
,
00000000
00000000
00000000
00000000
,
00000000
00000000
00000000
00000000
,
00000002
00000000
00000000
00000000
,
00000000
00000203
00000000
00000000
,
00002300
00000000
00000000
00000000
,
00013000
00002000
00000000
00003000
,
01000000
00000000
00000000
10000000
00000000
00000000
01000000
00000000
00100000
00000000
00000000
10000000
00000000
00000000
01000000
00000000
,
00010000
00000000
00000000
00000010
00000000
00000000
00000100
00000000
00000000
00000000
00000001
00000000
00000000
00000000
00001000
00000000
,
00000001
00000000
00000000
00000010
00000000
00000000
00000100
00000000
00010000
00000000
00000000
00001000
00000000
00000000
01000000
00000000
,
00100000
00000000
00000000
00010000
00000000
00000000
00100000
00000000
10000000
00000000
00010000
00000000
00000000
00000000
10000000
00000000
,
01000000
00000000
00000000
00010000
00000000
00000000
01000000
00000000
00100000
00000000
00000000
00010000
00000000
00000000
00000100
00000000
,
00000001
00000000
00000000
00000010
00000000
00000000
00000001
00000000
00000100
00000000
00000010
00000000
00000000
00000000
00010000
00000000
,
00000100
00000000
00000000
00010000
00000000
00000000
00001000
00000000
01000000
00000000
00000000
00100000
00000000
00000000
00010000
00000000
,
00100000
00000000
00000000
10000000
00000000
00000000
00010000
00000000
10000000
00000000
01000000
00000000
00000000
00000000
00010000
00000000
,
00001000
00000000
00000000
00001000
01000000
00000000
00000000
00000000
00100000
00000000
10000000
00000000
00010000
00000000
00000000
00000000
,
10000000
01000000
00100000
00000000
00001000
00010000
00000010
00000100
,
00000001
00000000
00000000
00000001
00000010
00000000
00000000
00000000
00000100
00000000
00010000
00000000
00001000
00000000
00000000
00000000
,
01000000
00000000
10000000
00000000
01000000
00000000
00010000
00000000
00100000
00000000
00001000
00010000
00000000
00010000
00000000
00000000
,
00000010
00000000
00000000
00001000
00000001
00000000
00000000
00000000
00000010
00000000
00001000
00000000
00010000
00000000
00000000
00000000
,
00100000
01000000
00010000
00000000
10000000
01000000
00010000
00001000
,
00000020
00000000
00000130
00001000
00000001
00000000
00000011
00000000
,
00000010
00001000
01000000
00010000
10000000
01000000
01000000
01000000
,
00200000
00000000
00000000
00000000
,
00301000
00020000
00000000
00000000
,
00030020
00000000
00000000
00000000
,
00000130
00000002
00000000
00000000
,
00000013
00000000
00000000
00001000
00010000
00000000
00000000
00000000
00022000
00000000
00000000
00000000
00033000
00000000
00000000
00000000
,
01000000
01200000
00010000
10300000
,
01000000
00000000
00000000
00010000
00001000
00000000
00000000
00000000
00011000
00000000
00000000
00000000
00010000
00000000
00000010
00000000
,
00000020
00000000
00000000
00000130
,
00000001
00000000
00000000
00000100
00000000
00000010
00000000
00010000
00001000
00000000
00000000
00000000
00011000
00000000
00000000
00000000
,
00001000
00000000
00000000
00100000
00000000
01000000
00000000
10000000
00010000
00000000
00000000
00000000
10010000
00000000
00000000
00000000
,
10000000
00100000
00010000
00000100
00000010
00000000
00000011
00000000
,
00000001
00000010
00001000
01000000
00100000
00000000
10100000
00000000
,
10000000
00000000
00000000
01000000
00000000
00010000
00000000
00001000
00010000
00000000
00000000
00000000
00011000
00000000
00000000
00000000
,
00000010
00000100
00000002
00000000
00000013
00001000
00020000
00000000
,
00031000
00000100
00000001
00000010
00001000
00000000
00011000
00000000
,
00010000
00100000
10000000
01000000
00010000
00000000
00011000
00000000
,
00000010
00000000
00000000
00000010
00000001
00000000
00000000
00000000
00000010
00000000
00001000
00000000
00100000
00000000
00000000
00000000
,
10000000
01000000
10000000
01000000
00010000
00001000
00000010
00000100
,
00001000
00000000
00000000
00001000
00000010
00000000
00000000
00000000
00000001
00000000
00000010
00000000
00001000
00000000
00000000
00000000
,
00100000
01000000
00010000
00000100
00000001
00000010
00001000
01000000
,
00100000
00000000
00000000
00100000
10000000
00000000
00000000
00000000
00100000
00000000
00010000
00000000
00000010
00000000
00000000
00000000
,
00001000
00000100
00001000
00000100
00000001
00000100
00010000
00001000
,
00100000
00000000
00000000
00100000
10000000
00000000
00000000
00000000
00100000
00000000
01000000
00000000
10000000
00000000
00000000
00000000
,
00100000
01000000
00010000
00000100
00000001
00000010
00000110
00000000
,
00000002
00000100
00001000
00000013
,
00000001
00000000
00000100
00000000
00010000
00000000
00000000
00000000
00100000
00000000
00000000
00100000
00010000
00000000
00000000
00000000
,
20000000
01000000
00010000
30100000
,
10000000
00000000
01000000
00000000
00010000
00000000
00000000
00000000
00001000
00000000
00010000
00001000
00000000
00001000
00000000
00000000
;
