#VERSION:0.83;
#TITLE:Nacho Cheese Sauce;
#SUBTITLE:;
#ARTIST:Karl with a K;
#TITLETRANSLIT:;
#SUBTITLETRANSLIT:;
#ARTISTTRANSLIT:;
#GENRE:;
#ORIGIN:;
#CREDIT:;
#BANNER:nacho_cheese.png;
#BACKGROUND:nacho_cheese-bg.png;
#PREVIEWVID:;
#JACKET:;
#CDIMAGE:;
#DISCIMAGE:;
#LYRICSPATH:;
#CDTITLE:anonymous.png;
#MUSIC:nacho_cheese.ogg;
#OFFSET:0.025000;
#SAMPLESTART:75.791023;
#SAMPLELENGTH:15.000000;
#SELECTABLE:YES;
#BPMS:0.000=114.000;
#STOPS:;
#DELAYS:;
#WARPS:;
#TIMESIGNATURES:0.000=4=4;
#TICKCOUNTS:0.000=4;
#COMBOS:0.000=1;
#SPEEDS:0.000=1.000=0.000=0;
#SCROLLS:0.000=1.000;
#FAKES:;
#LABELS:0.000=Song Start;
#BGCHANGES:;
#KEYSOUNDS:;
#ATTACKS:
;

//---------------dance-double - ----------------
#NOTEDATA:;
#CHARTNAME:;
#STEPSTYPE:dance-double;
#DESCRIPTION:;
#CHARTSTYLE:;
#DIFFICULTY:Hard;
#METER:13;
#RADARVALUES:0.502713,0.606627,0.116781,0.373698,0.404839,452.000000,437.000000,15.000000,48.000000,0.000000,0.000000,0.000000,0.000000,0.000000,0.502713,0.606627,0.116781,0.373698,0.404839,452.000000,437.000000,15.000000,48.000000,0.000000,0.000000,0.000000,0.000000,0.000000;
#CREDIT:;
#NOTES:
00000000
00000000
00000000
00000000
,
00000000
00000000
00000000
00000000
,
00000000
00000000
00000000
00000000
,
00000000
00000000
00000000
00000000
,
10000000
00100000
00000000
10000000
00100000
01000000
00000000
00001000
00010000
00000000
00001000
00000000
00010000
00000000
00000010
00000000
,
00001000
00000000
00000100
00000000
00001000
00000000
00000001
00000010
00000000
00000001
00000010
00000000
00000100
00000000
00010000
00000000
,
00001000
00000000
00010000
00000000
00001000
00000000
00100000
00000000
00010000
00000000
10000000
00000000
10000000
00100000
00000000
01000000
,
00010000
01000000
00000000
01000000
00001000
00000000
00010000
00000000
00000100
00000000
00000010
00000000
00001000
00000000
00000010
00000000
,
00000001
00000010
00000001
00000000
00000100
00000000
00000010
00001000
00000010
00000000
00000000
00000000
00001000
00000000
00000100
00000000
,
00010000
00001000
01000000
00001000
00010000
01000000
10000000
00100000
,
10000000
00100000
10000000
00000000
01000000
00000000
00100000
00010000
00100000
00000000
00000000
00000000
00001000
00000000
00010000
00000000
,
00000100
00000000
00001000
00000000
00000010
00000000
00000100
00000000
00000001
00000000
00000100
00000000
00000001
00001000
00000001
00000000
,
00001000
00000010
00001000
00000000
00000001
00000000
00000100
00000010
00000100
00000000
00000000
00000000
00000001
00000010
00000001
00000010
,
00000100
00000000
00001000
00000000
00000010
00000000
00010000
00000000
00001000
00010000
00001000
00000000
00100000
00000000
00010000
00000000
,
10000000
00100000
10000000
00000000
01000000
00000000
10000000
00010000
10000000
00000000
00000000
00000000
00010000
01000000
00010000
01000000
,
00001000
00000000
00100000
00000000
00001000
00000000
00100000
00000000
02000000
00000000
00100000
00000000
13000000
00100000
10000000
00000000
,
00010000
00100000
00000000
00010000
00100000
00010000
00000000
00000000
01000000
00000000
00001000
00000000
00010000
00000000
00000100
00000000
,
00000010
00000000
00000100
00000000
00001000
00000000
00000001
00000010
00000000
00000010
00000001
00000000
00000100
00000000
00000010
00000000
,
00010000
00000010
00010000
00000000
00001000
00000000
01000000
00100000
01000000
00000000
00000000
00000000
00010000
00100000
00000000
00010000
,
00100000
00010000
00000000
00000000
00100000
01000000
00100000
00000000
01000000
00000000
10000000
00000000
00100000
00000000
00010000
00000000
,
00100000
01000000
00000000
00100000
01000000
00000000
00000000
00000000
00011000
00000000
00000000
00000000
00000000
00000000
00000000
00000000
,
00010000
00000000
00000000
00000000
00000000
00000000
00000100
00000010
00000001
00000100
00000010
00000000
00000000
00000000
00000000
00000000
,
00001000
00000010
00001000
00000000
00000000
00000000
00000000
00000000
00011000
00000000
00000000
00000000
00100000
01000000
00000000
00100000
,
01000000
00000000
00000000
00000000
00100000
00000000
00000000
00000000
10010000
00000000
00001000
00010000
00001000
00010000
01000000
00000000
,
10000000
00100000
00000000
01000000
00010000
00000000
00000000
00000000
10000000
01000000
00000000
00100000
00010000
00000000
01000000
00000000
,
00001000
00010000
00010010
00001010
00000100
00000001
00000010
00001000
,
00000010
00001000
00000010
00000000
00001000
00000000
00010000
00000000
01000000
00000000
10000000
00000000
00010000
10000000
00000000
00010000
,
00100000
00010000
00000000
00011000
00000000
00000100
00000000
00010000
00001000
00010000
00000000
00001000
00010000
01000000
10000000
00000000
,
20010000
00000000
01000000
00000000
00000000
31000000
00100000
00000000
00000000
00000000
00200000
00000000
00000000
00000000
00302000
00000000
,
01003000
00000000
01000000
00000000
00001000
00000000
00010000
00000000
00000010
00000000
00001000
00000001
00000000
00001000
00000001
00000000
,
00000020
00000000
00000100
00000000
00000000
00000130
00010000
00000000
00000000
00000000
00001000
00000000
00000000
00000000
01000000
00000000
,
00010000
00010000
00100000
01000000
10000000
00100000
00010000
00001000
,
01000000
00200000
01000000
01000000
00000000
10000000
10300000
00010000
,
01000000
00000000
01000000
00000000
00001000
00000000
00000100
00000010
00001000
00000000
00000010
00001000
00000000
00000010
00000200
00000000
,
00000001
00000000
00000000
00000000
00000000
00000000
00000001
00000000
00000000
00000000
00000000
00000000
00000000
00000000
00000000
00000301
00000000
00000000
00000100
00000000
00000000
00000000
00000000
00000000
00000010
00000000
00000000
00000000
00000001
00000000
00000000
00000000
00000010
00000000
00000000
00000000
00000000
00000000
00000000
00000000
00020000
00000000
00000000
00000000
00000000
00000000
00000000
00000000
,
00030000
00000000
00002000
00000000
00000000
00000000
02003000
00000000
00001000
00000000
03001000
00010000
00000000
00010000
00001000
00000000
,
10010000
00000000
10000000
00000000
10200000
00000000
00310000
00002000
,
00100000
00000000
01003000
00000000
00012000
00000000
00003010
00000200
,
00000001
00000000
00000000
00000000
00001300
00000000
00000010
00010000
00000010
00000000
00010000
00000000
00001000
00000000
00100000
00000000
,
00000000
00000000
00020100
00000000
00000000
00000000
00031000
00100000
00010000
00100000
01000000
00000000
00010000
00000000
00001000
00000000
,
00000020
00000000
00000130
00000000
00000001
00000010
00001000
00020000
,
01000000
00000000
00031000
01000000
00010000
10000000
00100000
02000000
,
00100000
00000000
03010000
00100000
01000000
00100000
00001000
00010000
,
00000000
00000100
00000000
00010000
00000010
00001000
00000001
00000100
,
00000010
00000000
00010000
00000000
00000010
00000000
00010000
00000000
00000000
00000000
00000000
00000000
00001000
00000000
00000000
00100000
00000000
00000000
00000000
00000000
00000000
02000000
00000000
00000000
00000000
00000000
00000000
03100000
00000000
00000000
00000000
00000000
00000000
00000000
00000000
00000000
00010000
00000000
00000000
00000000
00000000
00000000
00100000
00000000
00000000
00000000
00000000
00000000
,
00002000
00000000
00000000
00000000
00000000
00000000
00000000
00000000
00000000
00023000
00000000
00000000
00000000
00000000
00000000
00000000
00000000
00000000
00030020
00000000
00000000
00000000
00000000
00000000
00000030
00000000
00000000
00000000
00000000
00000000
00000000
00000000
00000000
00000000
00000000
00000000
00000010
00000000
00000000
00000000
00001000
00000000
00000000
00000000
00000100
00000000
00000000
00000000
,
00000020
00000000
00000001
00000230
00001000
00000000
00020300
00000000
,
00032000
00000000
00000000
00203000
00000000
00000000
02300000
00000000
03000000
00000000
00000000
20000000
00000000
00000000
30100000
00000000
,
20000000
00000000
00010000
32000000
00100000
00000000
03020000
00000000
,
00001000
00030020
00001000
00000000
00002030
00000000
00003020
00000000
,
00000230
00000001
00000301
00000100
,
00001010
00000000
00010010
00000000
00011000
00000000
00001000
01000000
00010000
00100000
00000000
00100000
01000000
10000000
01000000
10000000
,
00100000
10000000
00000000
00100000
10000000
00000000
00010000
00000000
00100000
00001000
00000000
01000000
00001000
00000000
00200000
00000000
,
00301000
00000000
00010000
00000000
00001000
00000000
00000100
00000000
00000002
00000010
00000000
00000023
00000000
00000000
00000032
00000000
,
00000103
00000010
00000000
00010000
00000000
00001000
00100000
00000000
01000000
00000000
00000000
00000000
00110000
00000000
01000000
00000000
,
10000000
00000000
00010000
00000000
10000000
01000000
00000000
00000000
00010000
00000000
00000000
00001000
00010000
00000000
00000100
00000000
,
00002000
00000000
00000001
00003200
00000001
00000000
00000320
00000000
,
00001030
00020000
00030100
00000000
00001000
00000010
00000100
00000002
,
00000100
00000000
00000023
00000000
00001030
00020000
01000000
00000000
,
00032000
00000000
00000000
00000000
00103000
00000000
00010000
00000000
00000000
01000000
00000000
00000000
00001000
00010000
00001000
00010000
;

//---------------dance-double - ----------------
#NOTEDATA:;
#CHARTNAME:;
#STEPSTYPE:dance-double;
#DESCRIPTION:;
#CHARTSTYLE:;
#DIFFICULTY:Medium;
#METER:9;
#RADARVALUES:0.298069,0.372919,0.116781,0.217990,0.105103,268.000000,253.000000,15.000000,28.000000,0.000000,0.000000,0.000000,0.000000,0.000000,0.298069,0.372919,0.116781,0.217990,0.105103,268.000000,253.000000,15.000000,28.000000,0.000000,0.000000,0.000000,0.000000,0.000000;
#CREDIT:;
#NOTES:
00000000
00000000
00000000
00000000
,
00000000
00000000
00000000
00000000
,
00000000
00000000
00000000
00000000
,
00000000
00000000
00000000
00000000
,
10000000
00000000
00000000
10000000
00000000
01000000
00000000
00000000
00100000
00000000
00000000
00000000
00001000
00000000
00010000
00000000
,
00000100
00000000
00000000
00000000
00000010
00000000
00000001
00000000
00000000
00000001
00000000
00000100
00000000
00000000
00000000
00000000
,
00000010
00000000
00000000
00000000
00010000
00000000
00001000
00000000
01000000
00000000
00000000
00000000
00100000
00000000
00000000
00100000
,
00000000
10000000
00000000
00000000
01000000
00000000
00000000
00000000
00010000
00000000
00000000
00000000
00001000
00000000
00010000
00000000
,
00000010
00001000
00000100
00000010
,
00000001
00000100
00001000
00010000
,
00100000
10000000
01000000
00100000
,
00001000
00000000
00010000
00000000
00000100
00000000
00000010
00000001
,
00000010
00001001
00000100
00000010
,
00010000
00001000
01000000
00010000
,
00100000
10010000
01000000
00100000
,
10000000
00000000
01000000
00000000
00010000
00001000
00010000
00001000
,
00010000
00000000
00000000
00000010
00000000
00001000
00000000
00000000
00000001
00000000
00000000
00000000
00001000
00000000
00000000
00000000
,
00000100
00000000
00000000
00000000
00001000
00000000
00000001
00000000
00000000
00000010
00000000
00000000
00001000
00000000
00010000
00000000
,
01000000
00000000
00000000
00000000
10000000
00000000
00000000
00000000
00010000
00000000
00000000
00000000
10000000
00000000
00000000
00100000
,
00000000
01000000
00000000
00000000
00001000
00000000
00000000
00000000
00010000
00000000
00000000
00000000
00000010
00000000
00001000
00000000
,
00000001
00000010
00001100
00000000
,
00010000
00000000
00000000
00000000
00000000
00000000
00001000
00000000
00000000
00010000
00000000
00000000
01000000
00000000
00000000
00000000
,
10000000
00000000
00000000
00000000
00100000
00000000
00000000
00000000
01010000
00000000
00000000
00000000
00001000
00000000
00000000
00010000
,
00000000
00000000
00001000
00000000
00000000
00010000
00000000
00000000
00000100
00000000
00000100
00000000
00000100
00000000
00000100
00000000
,
00000010
00000000
00000000
00000000
00000001
00000000
00000000
00000000
00000100
00000000
00000000
00000110
00000000
00000000
00000000
00000000
,
00010000
00000000
00011000
00011000
00000000
00000000
01010000
00000000
,
00000000
10100000
00000000
00000000
11000000
00000000
00000000
00000000
01000000
00000000
00000000
00000000
00110000
00000000
00000000
00000000
,
00000000
00001000
00000000
00001000
00000000
00010000
00000000
00010000
00000000
00000100
00000000
00000010
00000000
00000001
00000000
00000100
,
00000010
00000000
00010000
00001000
00000000
00000000
00100000
00000000
,
01000000
00100000
00010000
10000000
,
00100000
00000000
01000000
00001000
00000000
00000000
00010000
00000000
,
00000100
00000000
00000000
00000000
00000010
00000000
00000000
00000000
00000011
00000000
00000000
00001001
00000000
00000000
00001010
00000000
,
00000010
00000000
00010000
00001000
00000000
00000000
00100000
00000000
,
01000000
10000000
00100000
00010000
,
00001000
00000000
00000100
00000001
00000000
00000000
00000010
00000000
,
00001000
00000000
00010000
00000000
01000000
00000000
10010000
10000000
,
02000000
00100000
00010000
03001000
,
00002000
00000100
00000010
00003001
,
00000200
00000010
00001000
00010300
,
00020000
00100000
01000000
10030000
,
20000000
00000000
01000000
00000000
00100000
00000000
30010000
00100000
,
00002000
00000010
00010000
00003100
,
00000002
00000000
00000010
00000000
00000100
00000000
00001003
00000100
,
00020000
00100000
00001000
01030000
,
00010000
01000000
10000000
00000000
10000000
00000000
01000000
00000000
,
00010000
00001000
00000010
00000001
,
00000020
00000000
00000000
00000032
00000000
00000000
00000203
00000000
,
00000000
00000320
00000000
00000000
00010030
00000000
00001000
00000000
,
00200000
00000000
00000000
00320000
00000000
00000000
02030000
00000000
,
00000000
03200000
00000000
00000000
10300000
00000000
00100000
00000000
,
01000000
00001000
00010000
00000100
,
00000010
00000010
00000001
00000001
00000100
00000100
00001000
00001000
,
00010000
00001000
00100000
00010000
,
01000000
00010000
00000000
10000000
01000000
00000000
00100000
00000000
,
00001000
00000000
00010000
00000000
00000100
00000000
00000010
00000001
,
00000000
00000000
00001000
00000000
00000000
00000100
00000000
00000000
00010000
00000000
00000000
00001000
00000000
00000000
01000000
00000000
,
00020000
20030000
32000000
03200000
,
00302000
00023000
00030020
00002030
,
00003200
00000320
00000032
00000203
,
00000310
00000000
00001000
00000000
00000010
00000000
00010000
00001000
;

//---------------dance-double - ----------------
#NOTEDATA:;
#CHARTNAME:;
#STEPSTYPE:dance-double;
#DESCRIPTION:;
#CHARTSTYLE:;
#DIFFICULTY:Easy;
#METER:6;
#RADARVALUES:0.210205,0.255847,0.054498,0.163493,0.011678,189.000000,182.000000,7.000000,21.000000,0.000000,0.000000,0.000000,0.000000,0.000000,0.210205,0.255847,0.054498,0.163493,0.011678,189.000000,182.000000,7.000000,21.000000,0.000000,0.000000,0.000000,0.000000,0.000000;
#CREDIT:;
#NOTES:
00000000
00000000
00000000
00000000
,
00000000
00000000
00000000
00000000
,
00000000
00000000
00000000
00000000
,
00000000
00000000
00000000
00000000
,
10010000
10000000
01000000
00100000
,
01000000
00010000
00001000
00000100
,
00000001
00000010
00000001
00001000
,
00000010
00010000
00001000
00100000
,
00010000
00000000
01000000
00001000
,
00010000
00000010
00001000
00000100
,
00001000
00000000
00000100
00010000
,
00001000
00100000
01000000
10000000
,
00100000
00000000
00010000
00001000
,
00000100
00000001
00001000
00000001
,
00000010
00000000
00001000
00010000
,
01000000
10000000
01000000
10000000
,
00100000
00100000
01000000
00001000
,
00010000
00000100
00000010
00000010
,
00000001
00000100
00001000
00100000
,
00100000
01000000
10000000
00010000
,
00100000
00000000
00011000
00000000
,
00010000
00000000
00001100
00001000
,
00000010
00000000
00011000
00000000
,
00001000
00000000
01010000
01000000
,
10000000
00000000
00000000
00000000
00100000
00000000
00000000
00000000
01000000
00000000
00000000
00001000
00000000
00000000
00000000
00000000
,
00010000
00000010
00000100
00000001
,
00000000
00000010
00000000
00000000
00000100
00000000
00000000
00000000
00010000
00000000
00000000
00000000
00001000
00000000
00000000
00000000
,
00000000
00100000
00000000
00000000
01000000
00000000
00000000
00000000
10000000
00000000
00000000
00000000
00010000
00000000
00000000
00000000
,
00200000
00000000
00301000
00000020
,
00000031
00000000
00000010
00000010
,
00002000
00000000
00003000
00010000
,
01000000
00100000
00010000
00001000
,
00000000
00000020
00000000
00000000
00000000
00000000
00000031
00000000
,
00000100
00000000
00000010
00000010
,
00020000
00000000
00031000
00000000
,
00010000
00000000
00011000
00011000
,
01000000
00010000
00100000
00010000
,
10000000
01000000
00100000
00001000
,
00010000
00000010
00000100
00000010
,
00000001
00000010
00000100
00000001
,
00000010
00001000
00010000
01000000
,
10000000
10000000
01000000
00100000
,
00001000
00010000
00001000
00100000
,
00001000
00010000
00000100
00001000
,
00000010
00010000
00001000
01000000
,
00010000
10000000
00100000
10000000
,
00200000
00000000
02300000
00000000
,
03002000
00000000
00003000
00010000
,
00020000
00000000
00030200
00000000
,
00002300
00000000
00003020
00000000
,
00000032
00000000
00000000
00000000
,
00000023
00000000
00000000
00000000
,
00010030
00001000
00100000
01000000
,
00010000
00001000
00000010
00000001
,
00001000
00000100
00010000
00001000
,
01000000
00010000
01000000
00001000
,
00200000
00000000
00302000
00000000
,
00003020
00000000
00000032
00000000
,
00000203
00000000
00002300
00000000
,
00023000
00000000
00000000
00031000
;
