#TITLE:Mist Tek;
#SUBTITLE:;
#ARTIST:you;
#TITLETRANSLIT:;
#SUBTITLETRANSLIT:;
#ARTISTTRANSLIT:;
#GENRE:;
#CREDIT:;
#MUSIC:Mist Tek.ogg;
#BANNER:Mist Tek.png;
#BACKGROUND:Mist Tek-bg.png;
#CDTITLE:;
#SAMPLESTART:12.414;
#SAMPLELENGTH:15.000;
#SELECTABLE:YES;
#OFFSET:0.724;
#BPMS:0.000=200.000;
#STOPS:;
#BGCHANGES:;
#FGCHANGES:;

//--------------- dance-single - forcednature ----------------
#NOTES:
     dance-single:
     forcednature:
     Beginner:
     4:
     0,0,0,0,0:
0000
0000
0000
0000
,
0000
0000
0000
0000
,
0000
0000
0000
0000
,
0000
0000
0000
0000
,
0000
0000
0000
0000
,
0000
0000
0000
0000
,
0001
0000
0000
0000
,
1000
0000
0000
0000
,
0010
0000
0000
0000
,
0100
0000
0000
0000
,
0010
0010
0010
0000
,
1000
0000
0000
0000
,
0100
0000
0000
0000
,
0010
0000
0000
0000
,
0001
0000
0100
0000
,
0001
0000
0000
0000
,
1000
0000
0000
0000
,
0010
0000
0000
0000
,
0100
0100
0100
0000
,
0001
0000
0000
0000
,
1000
0000
0000
0000
,
0100
0000
0000
0000
,
0010
0000
0010
0000
,
0010
0000
0000
0000
,
0001
0000
0000
0000
,
1000
0000
1000
0000
,
0001
0000
0000
0000
,
0100
0000
0000
0000
,
1001
0000
0000
0000
,
0010
0010
0010
0000
,
0000
1000
0000
1000
,
0000
0001
0000
0001
,
0000
1000
0000
0001
,
0000
1000
0000
0001
,
0000
0010
0000
0010
,
0000
0100
0000
0100
,
0000
0010
0000
0100
,
0000
0000
0000
0010
,
0000
0001
0000
0001
,
0000
0001
0000
0001
,
0000
1000
0000
1000
,
0000
1000
0000
1000
,
0000
0010
0000
0100
,
0000
0010
0000
0100
,
0000
0001
0000
1000
,
0000
0000
0000
0000
,
2002
0000
0000
0000
,
0000
0000
0000
0000
,
0000
0000
0000
0000
,
3003
0000
0000
0000
,
1000
0000
1000
0000
,
0001
0000
0001
0000
,
0100
0000
0100
0000
,
0100
0000
0100
0000
,
0010
0010
0010
0000
,
0100
0100
0100
0000
,
0001
0000
1000
0000
,
0100
0000
0000
0000
,
2002
0000
0000
0000
,
0000
0000
0000
0000
,
0000
0000
0000
0000
,
0000
0000
0000
0000
,
0000
0000
0000
0000
,
0000
0000
0000
0000
,
0000
0000
0000
0000
,
3003
0000
0000
0000
,
1001
0000
0000
0000
,
0110
0000
0000
0000
,
1001
0000
0000
0000
,
0110
0000
0000
0000
,
0000
0100
0000
0010
,
0000
0100
0000
0010
,
0000
0000
0000
0000
,
2002
0000
0000
0000
,
3003
0000
0000
0000
,
1000
0000
0010
0000
,
1000
0000
0000
0000
,
0001
0000
0100
0000
,
0001
0000
0001
0000
,
1000
0000
0100
0000
,
1000
0000
0000
0000
,
0001
0000
0010
0000
,
0001
0000
0001
0000
,
0100
0000
0010
0000
,
0100
0000
0000
0000
,
0001
0000
1000
0000
,
0001
0000
0001
0000
,
1000
0000
1000
0000
,
0001
0000
0001
0000
,
0010
0000
0100
0000
,
1000
0000
0001
0000
,
0100
0000
0010
0000
,
0200
0000
0000
0000
,
0300
0000
0000
0000
;

//--------------- dance-single - forcednature ----------------
#NOTES:
     dance-single:
     forcednature:
     Easy:
     8:
     0,0,0,0,0:
0000
0000
0000
0000
,
0000
0000
0000
0000
,
0000
0000
0000
0000
,
0000
0000
0000
0000
,
0000
0000
0000
0000
,
0000
0000
0000
0000
,
0001
0100
0001
0000
,
1000
0010
1000
0000
,
0100
0010
0001
1000
,
0200
0000
0000
0000
,
0310
0010
0010
0000
,
1001
0000
0001
0100
,
0001
1000
0010
1000
,
0100
0010
0100
1000
,
0000
0010
0010
0000
,
1001
0000
0001
0100
,
0001
0010
0100
0010
,
0001
0100
0010
0000
,
1000
1000
1000
0000
,
1001
0000
0001
0100
,
0001
1000
0100
0010
,
0100
1000
0010
0100
,
0000
0000
0000
0000
0010
0000
0000
0000
1000
0000
0000
0001
0000
0000
1000
0000
,
0001
0001
1000
1000
,
0010
0010
0100
0100
,
0001
0000
0000
0001
0000
0000
0000
0000
1000
0000
0000
1000
0000
0000
0000
0000
,
0200
0010
0010
0010
,
0020
0000
0000
0330
,
1001
0000
0000
0000
0000
0000
0000
0000
0100
0000
0000
0010
0000
0000
0100
0000
,
0010
0100
0110
0000
,
0001
0100
0010
1000
,
0100
0010
0100
0000
,
1000
0001
0010
0001
,
0100
0010
1000
0000
,
0100
0010
0001
0100
,
0010
1000
0001
0000
,
0010
0100
1000
0010
,
0000
0100
0000
0010
0100
0000
0000
0000
,
0001
0100
0001
0100
,
1000
0100
0001
0100
,
1000
0100
1000
0100
,
0001
0100
1000
0100
,
0010
0010
0010
1000
,
0010
0010
0010
0001
,
0010
0100
0001
1000
,
0200
0010
0010
0300
,
2002
0000
0000
3003
,
2000
0000
3020
0000
,
0230
0000
0302
0000
,
0023
0000
0230
0300
,
1000
1000
1000
0001
,
0100
0100
0100
1000
,
0100
0100
0100
0001
,
0010
0100
0010
0100
,
1001
1001
1001
0000
,
0110
0110
0110
0000
,
1000
0000
0000
0000
0001
0000
0000
0000
0100
0000
0000
0100
0000
0000
0000
0000
,
0020
0000
0000
0130
,
2002
0000
0000
0000
,
0000
0000
3003
0000
,
0002
0000
0203
0000
,
0320
0000
2030
0000
,
3200
0000
0000
0000
,
0320
0000
0032
0000
,
0203
0000
0320
0000
,
2030
0000
0000
3000
,
0101
0000
0010
0000
,
1100
0000
0010
0000
,
1001
0000
0100
0000
,
1001
0000
0010
0000
,
1000
0100
0000
0000
1000
0001
0000
0000
,
0001
0100
0000
0000
0001
1000
0000
0000
,
0010
0100
0010
0100
,
0020
0000
0000
0000
,
0200
0000
0000
0330
,
1000
0100
0010
0001
,
0100
0010
0100
0001
,
0010
0100
1000
0001
,
0000
0100
0010
0000
0100
0000
0000
0000
,
0001
1000
0100
1000
,
0001
0100
0010
1000
,
0001
0010
0001
0100
,
0110
0110
0110
0000
,
0001
1000
0100
1000
,
0001
0010
0001
1000
,
0010
0100
0001
0010
,
0000
0000
0100
0000
1000
0000
0000
0000
0010
0000
0000
0010
0000
0000
0010
0000
,
0100
0001
0100
1000
,
0100
1000
0100
0001
,
0010
0000
0000
0010
0000
0000
0000
0000
0100
0000
0000
0100
0000
0000
0000
0000
,
1000
0000
0000
1000
0000
0000
0000
0000
0001
0000
0000
0001
0000
0000
0000
0000
,
0100
0000
0000
0100
0000
0000
0000
0000
0010
0000
0000
0010
0000
0000
0000
0000
,
2002
0000
0000
0000
,
3003
0000
0000
0000
;

//--------------- dance-single - forcednature ----------------
#NOTES:
     dance-single:
     forcednature:
     Medium:
     12:
     0,0,0,0,0:
0000
0000
0000
0000
,
0000
0000
0000
0000
,
0000
0000
0000
0000
,
0000
0000
0000
0000
,
0000
0000
0000
0000
,
0000
0000
0000
0000
,
0001
0100
0010
1000
,
0000
0001
0000
0000
1000
0000
0100
0000
,
0010
0000
0001
0000
0200
0000
0000
0020
,
0000
0000
0000
0330
,
1001
1001
1001
0000
,
0001
0100
0001
0100
0010
0000
1000
0001
,
0000
1000
0100
0000
0010
0001
0010
0000
,
0100
0000
1000
0001
0000
0100
0000
0010
,
0000
1000
0001
0000
0010
0000
1001
0000
,
1000
0100
1000
0100
0010
0000
0100
1000
,
0000
0001
0100
0000
0010
1000
0010
0000
,
0100
0000
0001
0000
0010
0100
0010
0100
,
0010
0110
0110
1001
,
1000
0010
1000
0010
0100
0000
0001
0010
,
0000
0100
1000
0000
0001
0100
0001
0000
,
1000
0000
0010
1000
0000
0100
0000
0010
,
0000
0000
0001
0000
0100
0000
0000
0000
0010
0000
0000
0010
0000
0000
0010
0000
,
1000
0001
1000
0001
1000
0001
0010
0100
,
1000
0001
1000
0001
1000
0001
0100
0010
,
1000
0000
0000
1000
0000
0000
1000
0000
0001
0000
0000
0001
0000
0000
0001
0000
,
0200
1000
0010
0001
,
0020
0000
0000
0330
,
1001
0000
0000
0000
0000
0000
0000
0000
0100
0000
0000
0010
0000
0000
0100
0000
,
0010
0110
1001
0000
,
1000
0100
1000
0100
1000
0000
0010
0000
,
1010
1010
0101
0101
,
0001
0100
0001
0100
0001
0000
0010
0000
,
0011
0011
1100
1100
,
1000
0001
1000
0001
1000
0000
0010
0000
,
0110
1100
0110
0101
,
0001
1000
0001
1000
0001
0000
0010
0100
,
0000
1001
0000
0100
0010
0000
1001
0000
,
0001
0100
1000
0000
0100
0000
0110
0000
,
1000
1100
0001
0101
,
1000
0100
0001
0000
0100
0000
0110
0000
,
0001
0101
1000
1100
,
0001
0010
0100
1000
0010
0000
1001
0000
,
1000
0010
0100
0001
0010
0000
1001
0000
,
0001
0100
0001
0100
1000
0100
1000
0100
,
0020
0001
0100
1030
,
0220
0000
0000
0330
,
0002
2003
3002
0203
,
0320
2030
3200
0320
,
0230
0000
0000
1300
0002
0000
0003
0000
,
0100
0100
0100
0010
0100
0000
1001
0000
,
1000
0100
1000
0010
0100
0000
1001
0000
,
0001
0010
0001
0100
0001
0000
1001
0000
,
1000
0100
1000
0000
0001
0100
0001
0000
,
0101
1010
1001
0000
,
1100
0011
1001
0000
,
1000
0000
0001
0000
1000
0000
0000
0000
0010
0100
0000
0010
0000
0000
0000
0000
,
2000
0100
0001
3010
,
2002
0000
0000
0000
,
0000
0000
0000
3003
,
0002
0000
0203
0000
,
0320
0000
2030
0000
,
3200
0320
0230
2300
,
3020
0230
0302
0023
,
0230
0000
0320
0000
0031
1000
0002
0000
,
0203
0000
0000
0300
,
0110
1000
0001
0010
,
0110
0001
1000
0010
,
1001
0100
1000
0010
,
1001
0000
0000
0100
0001
0000
0110
0000
,
1000
1000
0100
0000
0001
0001
0100
0000
,
1000
1000
0010
0000
0001
0001
0010
0000
,
0110
1100
0101
0110
,
2002
0000
0000
3003
,
0220
0000
0000
0330
,
1000
0100
1000
0100
0010
0000
0001
1000
,
0000
0001
0100
0000
0010
1000
0010
0000
,
0100
0000
0001
0010
0000
0100
0000
1000
,
0000
0010
0100
0000
0010
0000
1001
0000
,
0001
0100
0001
0100
0010
0000
1000
0001
,
0000
1000
0100
0000
0010
0001
0010
0000
,
0100
0000
1000
0000
0001
0100
0001
0100
,
0001
1001
0110
1000
,
0001
0010
0001
0010
0100
0000
1000
0010
,
0000
0100
0001
0000
1000
0100
1000
0000
,
0110
0000
1000
0001
0000
0100
0000
0010
,
0000
0000
1000
0000
0001
0000
0000
0000
0010
0000
0000
0010
0000
0000
0010
0000
,
0100
1000
0100
1000
0100
1000
0100
0000
,
0010
0001
0010
0001
0010
0001
0010
0000
,
0001
0000
0000
1000
0000
0000
0001
0000
1000
0000
0000
0001
0000
0000
1000
0000
,
0010
0000
0000
0100
0000
0000
0010
0000
0100
0000
0000
0010
0000
0000
0100
0000
,
0001
0000
0000
1000
0000
0000
0100
0000
1000
0000
0000
0001
0000
0000
0100
0000
,
0020
0000
0000
0030
,
1001
0000
0000
0000
;

//--------------- dance-single - forcednature ----------------
#NOTES:
     dance-single:
     forcednature:
     Hard:
     14:
     0,0,0,0,0:
0000
0000
0000
0000
,
0000
0000
0000
0000
,
0000
0000
0000
0000
,
0000
0000
0000
0000
,
0000
0000
0000
0000
,
0000
0000
0000
0000
,
0001
0100
0010
1000
0001
0000
1000
0100
,
0000
0001
0100
0000
0010
0001
1000
0000
,
0010
0000
0001
0000
0010
0100
0000
0001
,
2000
0000
0000
3000
,
1100
0101
1001
0110
,
1000
0001
0100
0001
0010
0000
0100
0001
,
0000
0100
1000
0000
0010
0100
1000
0000
,
0100
0000
0001
1000
0000
0100
0000
0001
,
0000
0100
0010
0000
0011
0000
1100
0000
,
1000
0010
0001
0010
0100
0000
0001
1000
,
0000
0100
0010
0000
1000
0010
0100
0000
,
1000
0000
0001
0000
0100
1000
0100
0001
,
0100
0101
1010
0110
,
0001
0010
0001
0100
1000
0000
0100
0010
,
0000
1000
0100
0000
0010
1000
0010
0000
,
0110
0000
0100
1000
0000
0001
0000
0100
,
0000
0000
0010
0000
0001
0000
0000
0000
0010
0000
0000
0010
0000
0000
0010
0000
,
0100
0000
0001
0000
0100
0000
0001
0000
1000
0000
0100
0000
1000
0000
0100
1000
,
0100
0000
0010
0000
0001
0000
0010
0000
0001
0000
1000
0000
0010
1000
0010
0000
,
1000
0000
0000
0100
0000
0000
1100
0000
0001
0000
0000
0100
0000
0000
0101
0000
,
1000
0000
0010
0000
0100
0000
0001
0000
1000
0100
1000
0000
0001
0010
0001
0000
,
0200
0000
0000
0300
,
0110
0000
0000
0000
0000
0000
0000
0000
1000
0000
0000
0001
0000
0000
0100
0000
,
0010
0110
2002
3003
,
0001
0100
1000
0100
0001
1000
0010
1000
,
0100
0001
0100
0010
0001
1000
0010
0000
,
1000
0100
0001
0100
1000
0010
0100
0001
,
1000
0000
0010
0000
0001
0000
0010
0000
0100
0001
0100
0000
0010
0000
0000
0000
,
1000
0010
0100
1000
0100
0010
1000
0001
,
1000
0100
0010
1000
0010
0001
1000
0000
,
0010
0100
0001
0010
1000
0000
0010
0100
,
0000
0000
0110
0000
0000
0000
1000
0000
0002
0000
0000
0000
0013
0000
0100
1000
,
0100
0001
0100
0010
0100
1000
0100
0001
,
0100
1000
0010
0001
0010
0100
0001
0000
,
0100
1000
0100
0010
0100
0001
0100
0010
,
1000
0100
0010
0001
1000
0010
0100
0000
,
0001
0001
0001
0010
0100
0000
1001
0000
,
1000
1000
1000
0010
0100
0000
1001
0000
,
1000
0100
1000
0100
0001
0100
0001
0100
,
1000
0000
0010
0000
0100
0001
0010
0000
,
0100
0001
0100
0010
0100
0000
1000
0000
,
0001
0000
1000
0000
0010
0001
0010
0000
,
0100
0000
0001
0000
1000
0010
0100
0000
,
1000
0000
0000
0100
0001
0000
0020
0000
,
0130
0000
0001
0000
0100
0000
1000
0000
0001
0000
0000
1000
0000
0000
0010
0000
,
0100
0000
1000
0000
0100
0000
0001
0000
0010
0000
0000
0100
0000
0000
0001
0000
,
0100
0000
1000
0000
0010
0000
1000
0000
0001
0000
0000
0010
0000
0000
0100
0000
,
0001
0100
1000
0100
0001
0100
1000
0001
,
0101
1100
1001
0000
,
1100
0101
1001
0000
,
1000
0000
0010
0000
0100
0000
0000
0000
0001
0010
0000
0001
0000
0000
0100
0000
,
0020
0000
0001
0000
1030
0010
0001
0000
,
0220
0000
0000
0000
,
0000
0000
0000
0330
,
0002
0000
2003
0000
,
3200
0000
0000
0310
0002
0000
0000
0000
,
0103
1000
0100
0001
0200
0000
0320
0000
,
2030
0000
3002
0000
0013
0100
2000
0000
,
3020
0000
0032
0000
0013
0100
0002
0000
,
0023
0000
0000
0030
,
0110
0100
1000
0001
0200
0000
0310
0000
,
2010
0000
3200
0000
0301
0100
1000
0000
,
0012
0000
0203
0000
1300
0100
0001
0000
,
2002
0000
3003
0100
0010
0000
1001
0000
,
1000
0100
1100
0000
0001
0100
0101
0000
,
1000
0010
1010
0000
0001
0010
0011
0000
,
1000
0000
0001
0100
0001
0000
1000
0010
1000
0000
0001
0010
0001
0000
1000
0100
,
2000
0000
0000
0000
,
0002
0000
0000
3003
,
0001
0100
1000
0100
0010
0000
0001
0010
,
0000
1000
0001
0000
1000
0100
0010
0000
,
1000
0000
0010
0001
0000
1000
0000
0010
,
0000
0100
1000
0000
0110
0000
1001
0000
,
1000
0100
0001
0100
0010
0000
0001
0100
,
0000
0010
0001
0000
0010
1000
0100
0000
,
0010
0000
1000
0000
0010
0001
1000
0010
,
0110
0101
1100
0110
,
1000
0001
0100
1000
0001
0000
0010
1000
,
0000
0001
1000
0000
0100
0001
1000
0000
,
0110
0000
0001
1000
0000
0010
0000
0001
,
0000
0000
0010
0000
0100
0000
0000
0000
0101
0000
0000
1010
0000
0000
0101
0000
,
0001
0000
0010
0000
0001
0000
0100
0000
0010
0000
1000
0000
0100
0000
1000
0001
,
1000
0000
0010
0000
1000
0000
0100
0000
0010
0000
0001
0000
0100
0001
0100
0001
,
0100
0000
0000
0010
0000
0000
0110
0000
0001
0000
0000
1000
0000
0000
1001
0000
,
0010
0000
0000
0100
0000
0000
0110
0000
1000
0000
0000
0001
0000
0000
1001
0000
,
1000
0000
0000
0100
0000
0000
0011
0000
0001
0000
0000
0100
0000
0000
1010
0000
,
0200
0000
0000
0000
,
0310
0000
0000
0000
;

//--------------- dance-double - forcednature ----------------
#NOTES:
     dance-double:
     forcednature:
     Easy:
     8:
     0,0,0,0,0:
00000000
00000000
00000000
00000000
,
00000000
00000000
00000000
00000000
,
00000000
00000000
00000000
00000000
,
00000000
00000000
00000000
00000000
,
00000000
00000000
00000000
00000000
,
00000000
00000000
00000000
00000000
,
00001000
00000000
00000000
00000000
,
01000000
00000000
00010000
00000000
,
10000000
00000000
01000000
00000000
,
00200000
00000000
00300000
00000000
,
00011000
00011000
00011000
00000000
,
00010000
00000100
00001000
00000001
,
00000100
00000010
00001000
00000100
,
00010000
00001000
01000000
00010000
,
00000000
10000000
01000000
00000000
00100000
00000000
00100000
00000000
,
00010000
01000000
00001000
00010000
,
00000100
00010000
00001000
00000100
,
00000010
00001000
00000100
00000010
,
00000110
00000110
00000110
00000000
,
00000001
00000100
00000010
00010000
,
00001000
00100000
00010000
10000000
,
00010000
01000000
00001000
00010000
,
00000100
00000000
00000000
00000000
00001000
00000000
00000000
00000000
00000001
00000000
00000000
00000100
00000000
00000000
00000001
00000000
,
00000100
00000010
00001000
00010000
,
01000000
00100000
10000000
00010000
,
00100000
00000000
00000000
00100000
00000000
00000000
00000000
00000000
00001000
00000000
00000000
00001000
00000000
00000000
00000000
00000000
,
00022000
00000000
00033000
00000000
,
00002200
00000000
00003300
00000000
,
00000011
00000000
00000000
00000000
00000000
00000000
00000000
00000000
00000001
00000000
00000000
00000100
00000000
00000000
00000001
00000000
,
00000100
00001000
00010000
00000000
,
00100000
01000000
00010000
10000000
,
01000000
00100000
00001000
00000000
,
00010000
00100000
01000000
00001000
,
00010000
00000100
00001000
00000000
,
00000010
00010000
00001000
00000010
,
00000100
00001000
00000001
00000000
,
00000100
00001000
00010000
00000100
,
00000000
00000010
00000000
00000001
00000010
00000000
00000000
00000000
,
00000100
00001000
00000010
00010000
,
00001000
00100000
00010000
01000000
,
00100000
10000000
00010000
00100000
,
01000000
00010000
00001000
01000000
,
00010000
10000000
00010000
00100000
,
00001000
00010000
00001000
00000100
,
00000010
00000010
00001000
00001000
,
00000200
00000000
00000000
00000310
,
00000220
00000000
00000330
00000000
,
00000100
00000000
00010000
00000000
,
00001000
00000000
01000000
00000000
,
00010000
00000000
00100000
00000000
,
01000000
10000000
00000000
10000000
,
00100000
00010000
00000000
00010000
,
00001000
00000100
00000000
00000100
,
00000001
00000010
00000001
00000100
,
00000101
00000101
00000101
00000000
,
00001010
00001010
00001010
00000000
,
00010000
00001000
00010000
00000000
,
00002000
00000000
00000000
01003000
,
02002000
00000000
00000000
00000000
,
00000000
00000000
03003000
00000000
,
20000000
00000000
30020000
00000000
,
00230000
00000000
00300000
00000000
,
00002000
00000000
00000000
00000000
,
00000000
00000000
00003000
00000000
,
00020000
00000000
00030020
00000000
,
00002030
00000000
00003000
00000000
,
00001001
00000000
00000000
00000000
,
00001100
00000000
00000000
00000000
,
00011000
00000000
00000000
00000000
,
01010000
00000000
00000000
00000000
,
10000000
00010000
00000000
00000000
00010000
01000000
00000000
00000000
,
01000000
00001000
00000000
00000000
00001000
00010000
00000000
00000000
,
00000100
00001000
00000100
00000001
,
00000200
00000000
00000000
00000000
,
00000320
00000000
00000000
00000030
,
00000100
00001000
00000001
00000100
,
00000010
00010000
00001000
00100000
,
00001000
00010000
00100000
01000000
,
00000000
00010000
10000000
00000000
00010000
00000000
00010000
00000000
,
10000000
01000000
00100000
00001000
,
00010000
00100000
01000000
00001000
,
00010000
00000100
00001000
00000010
,
00000110
00000110
00000110
00000000
,
00000001
00001000
00000100
00010000
,
00001000
00000100
00001000
00010000
,
00100000
00010000
00001000
00010000
,
01000000
00000000
00000000
00000000
10000000
00000000
00000000
00000000
00010000
00000000
00000000
01000000
00000000
00000000
00010000
00000000
,
01000000
01000000
00001000
00001000
,
00010000
00010000
00000100
00000100
,
00000010
00000000
00000000
00000010
00000000
00000000
00000000
00000000
00000001
00000000
00000000
00000001
00000000
00000000
00000000
00000000
,
00000100
00000000
00000000
00000100
00000000
00000000
00000000
00000000
00000010
00000000
00000000
00000010
00000000
00000000
00000000
00000000
,
00010000
00000000
00000000
00010000
00000000
00000000
00000000
00000000
00001000
00000000
00000000
00001000
00000000
00000000
00000000
00000000
,
00022000
00000000
00000000
00000000
,
00033000
00000000
00000000
00000000
;

//--------------- dance-double - forcednature ----------------
#NOTES:
     dance-double:
     forcednature:
     Medium:
     11:
     0,0,0,0,0:
00000000
00000000
00000000
00000000
,
00000000
00000000
00000000
00000000
,
00000000
00000000
00000000
00000000
,
00000000
00000000
00000000
00000000
,
00000000
00000000
00000000
00000000
,
00000000
00000000
00000000
00000000
,
00001000
00000000
00010000
00000000
00001000
00000000
00000000
01000000
,
00000000
00010000
00100000
01000000
,
00010000
00000000
00001000
00000000
00000020
00000000
00000000
00000200
,
00000000
00000000
00000000
00000330
,
00001001
00001001
00001001
00000000
,
00010000
00000010
00010000
00000010
00010000
00000000
00001000
00000000
,
00100000
00000000
00001000
00000000
00010000
00100000
00010000
00000000
,
00001000
01000000
00010000
10000000
,
01000000
00100000
00010000
00000000
01000000
00000000
01001000
00000000
,
00001000
00010000
00001000
00010000
00001000
00000000
00000100
00000000
,
00000010
00000000
00001000
00000000
00000001
00000010
00000001
00000000
,
00000100
00000000
00000010
00000000
00010000
00001000
00000000
00001000
,
00010000
01001000
01001000
00001000
,
01000000
00010000
01000000
00010000
01000000
00000000
00100000
00000000
,
10000000
00000000
01000000
00000000
00010000
00001000
00010000
00000000
,
00001010
00000000
00000001
00000010
00000000
00000100
00000000
00001000
,
00000000
00000000
00000010
00000000
00010000
00000000
00000000
00000000
00001000
00000000
00000000
00010000
00000000
00000000
00001000
00000000
,
01000000
00001000
01000000
00001000
01000000
00000000
00010000
00000000
,
01100000
00000000
10000000
00000000
00010000
01000000
00010000
00000000
,
00100000
00000000
00000000
00010000
00000000
00000000
00100000
00000000
00001000
00000000
00000000
00010000
00000000
00000000
00000100
00000000
,
00002000
00000100
00000100
00000100
,
00000020
00000000
00000000
00003030
,
00001001
00000000
00000000
00000000
00000000
00000000
00000000
00000000
00001000
00000000
00000000
00000100
00000000
00000000
00010000
00000000
,
00001000
01001000
01010000
00000000
,
01000000
00000000
01010000
00000000
10000000
00000000
00010000
00100000
,
00000000
01000000
00100000
00000000
00001000
00010000
00001000
00000000
,
00000100
00000000
00000110
00000000
00000001
00000000
00001000
00000010
,
00000000
00000100
00000001
00000000
00000010
00000100
00000010
00000000
,
00000100
00000000
00011000
00000000
01000000
00000000
00001000
00010000
,
00000000
00001000
00100000
00000000
00010000
00000000
01000000
00000000
,
00100000
00000000
10010000
00000000
10000000
00000000
01000000
00010000
,
00000000
00011000
00000000
00001000
00000200
00000000
00000301
00000000
,
00000010
00000010
00000010
00000000
00000100
00000000
00001100
00000000
,
00001000
00001010
00000010
00010010
,
00010000
00010000
00010000
00000000
00001000
00000000
01001000
00000000
,
01000000
01010000
00010000
10010000
,
10000000
10000000
10000000
00000000
01000000
00000000
00110000
00000000
,
00001000
00001000
00001000
00000000
00010000
00000000
00001100
00000000
,
00000001
00000001
00000001
00000000
00001000
00001000
00001000
00000000
,
00000010
00010000
00001000
00100000
,
00002000
00000000
00023000
00000000
,
00230000
02300000
03200000
00000000
,
20300000
32000000
03020000
00000000
,
00032000
00000000
00003020
00000032
,
00000103
00000001
00000100
00000001
00000100
00000000
00001000
00000000
,
00010000
00001000
00010000
00001000
00010000
00000000
01000000
00000000
,
00100000
00010000
00100000
00010000
00100000
00000000
01000000
00000000
,
10000000
00010000
10000000
00010000
10000000
00010000
10000000
00000000
,
01010000
01001000
00011000
00000000
,
00001100
00010100
00011000
00000000
,
01000000
00000000
00010000
00000000
01000000
00000000
00000000
00000000
00001000
00010000
00000000
00001000
00000000
00000000
00000000
00000000
,
00000200
00000302
00000023
00000030
,
00000200
00000000
00000000
00000000
,
00000000
00000000
00000000
00000000
00000000
00000000
00000000
00000000
00000000
00000000
00000000
00000000
00000000
00000000
00000000
00000000
00000000
00000000
00000000
00000000
00000000
00000000
00000000
00000000
00000000
00000000
00000000
00000000
00000000
00000000
00000000
00000000
00000000
00000000
00000000
00000000
00000000
00000000
00000000
00000000
00000000
00000000
00000000
00000000
00000000
00000000
00000000
00000000
00000000
00000000
00000000
00000000
00000000
00000000
00000000
00000000
00000000
00000000
00000000
00000000
00000000
00000000
00000000
00000300
,
00020000
00000000
00032000
00000000
,
00203000
00000000
00000000
00000000
,
02300000
00000000
00000000
00000000
,
00000000
00000000
00000000
00000000
,
23000000
00000000
30020000
00000000
,
02030000
00000000
03000000
00000000
,
00011000
00000100
00010000
00000000
,
00011000
01000000
00001000
00000000
,
00011000
00000010
00010000
00000000
,
00011000
00100000
00010000
01000000
,
00100000
00100000
00000000
00000000
10000000
10000000
00000000
00000000
,
01000000
01000000
00000000
00000000
00010000
00010000
00000000
00000000
,
00001000
00000010
00000001
00000100
,
00002000
00000000
00000000
00000000
,
00020000
00000000
00000000
00033000
,
00000100
00001000
00000100
00001000
00000100
00000000
00000010
00000001
,
00000000
00001000
00000001
00000000
00000100
00000000
00000010
00000000
,
00010000
00000000
00001000
00100000
00000000
00001000
00000000
00010000
,
00000000
00100000
01000000
00000000
00010000
00000000
10010000
00000000
,
10000000
01000000
10000000
01000000
10000000
00000000
00100000
01000000
,
00000000
00010000
01000000
00000000
00001000
00000000
00010000
00000000
,
00000100
00000000
00001000
00000000
00000001
00000100
00000000
00000010
,
00001000
00001100
00001100
00000010
,
00010000
00001000
00010000
00001000
00010000
00000000
00000100
00010000
,
00000000
00001000
01000000
00000000
00010000
00000000
10000000
00000000
,
11000000
00000000
01000000
00100000
00000000
00010000
00000000
00100000
,
00000000
00000000
00001000
00000000
00010000
00000000
00000000
00000000
00000010
00000000
00000000
00001000
00000000
00000000
00000010
00000000
,
00000100
00000001
00000100
00000001
00000100
00000001
00000100
00000000
,
00000010
00001000
00000010
00001000
00000010
00001000
00000010
00000000
,
00010000
00000000
00000000
00001000
00000000
00000000
00010000
00000000
00001000
00000000
00000000
00010000
00000000
00000000
00001000
00000000
,
01000000
00000000
00000000
00010000
00000000
00000000
01000000
00000000
00010000
00000000
00000000
01000000
00000000
00000000
00010000
00000000
,
10000000
00000000
00000000
01000000
00000000
00000000
10000000
00000000
01000000
00000000
00000000
10000000
00000000
00000000
01000000
00000000
,
00020000
00000000
00000000
00000000
,
00031000
00000000
00000000
00000000
;

//--------------- dance-double - forcednature ----------------
#NOTES:
     dance-double:
     forcednature:
     Hard:
     13:
     0,0,0,0,0:
00000000
00000000
00000000
00000000
,
00000000
00000000
00000000
00000000
,
00000000
00000000
00000000
00000000
,
00000000
00000000
00000000
00000000
,
00000000
00000000
00000000
00000000
,
00000000
00000000
00000000
00000000
,
00001000
00000000
00100000
00000000
00010000
00000000
01000000
00010000
,
00000000
00010000
10000000
00000000
01000000
00000000
00010000
00000000
,
00001000
00000000
00000100
00000000
00000001
00000010
00000000
00000010
,
00000200
00000000
00000000
00000300
,
00000110
00001001
00000110
00001000
,
00000001
00000100
00001000
00010000
00100000
00000000
00010000
00001000
,
00000000
01000000
00010000
00000000
00100000
01000000
00010000
00000000
,
00001000
00000000
00100000
00001000
00000000
00010000
00000000
00100000
,
00000000
01000000
00001000
00000000
00010000
00000000
01100000
00000000
,
10000000
01000000
00010000
00001000
00000010
00000000
00000100
00001000
,
00000000
00000001
00000100
00000000
00000010
00010000
00001000
00000000
,
00000010
00000000
00000001
00000000
00000100
00000010
00010000
00000010
,
00001000
00001100
00000101
00001000
,
00000001
00000100
00001000
00010000
00100000
00000000
01000000
00010000
,
00000000
00100000
00001000
00000000
00010000
00100000
01000000
00000000
,
10010000
00000000
00010000
00100000
00000000
01000000
00000000
00010000
,
00000000
00000000
00001000
00000000
01000000
00000000
00000000
00000000
00010000
00000000
00000000
00100000
00000000
00000000
00010000
00000000
,
10000000
01000000
00010000
00001000
00000010
00000000
00000100
00001000
,
00000001
00000100
00000010
00010000
00001000
00000000
00000010
00000100
,
00000010
00000000
00000000
00000001
00000000
00000000
00000100
00000000
00000010
00000000
00000000
00010000
00000000
00000000
00001000
00000000
,
00200000
00001000
00010000
01000000
,
00002000
00000000
00000000
00303000
,
00011000
00000000
00000000
00000000
00000000
00000000
00000000
00000000
00000100
00000000
00000000
00001000
00000000
00000000
00000010
00000000
,
00000100
00000101
00001100
00000010
,
00010000
00001000
00100000
00001000
00010000
00000000
00100000
01000000
,
00000000
00010000
10000000
00000000
01000000
00100000
00010000
00000000
,
01000000
00001000
00010000
00000100
00010000
00000000
00001000
00000100
,
00000000
00000010
00010000
00000000
00001000
00000010
00000001
00000000
,
00000100
00000010
00001000
00000001
00000010
00000000
00000100
00010000
,
00000000
00001000
00000100
00000000
00001000
00010000
01000000
00000000
,
00100000
00001000
00010000
00100000
10000000
00000000
01000000
00100000
,
00000000
01100000
00000000
00010000
00001000
00000000
00010100
00000000
,
00000010
00000010
00001010
00000000
00000100
00000000
00000101
00000000
,
00000001
00000010
00000100
00001000
00000010
00010000
00001000
00000000
,
00100000
00100000
00101000
00000000
00010000
00000000
01010000
00000000
,
10000000
01000000
00100000
00010000
01000000
00001000
00010000
00000000
,
00100000
10000000
01000000
00010000
00001000
00000000
00010000
00001000
,
00000010
00000001
00000100
00001000
00010000
00000000
00001000
00010000
,
01000000
00100000
01000000
00100000
00001000
00010000
00001000
00010000
,
00000010
00000000
00000100
00000000
00000001
00001000
00000100
00000000
,
00000010
00000100
00001000
00000010
00020000
00000000
00032000
00000000
,
00203000
00000000
00302000
00000000
00013000
00100000
20000000
00000000
,
32000000
00000000
03020000
00000000
00031000
00100000
00002000
00000000
,
00023000
00000000
00000000
00030010
00000200
00000000
00000302
00000000
,
00000013
00000001
00000100
00001000
00010000
00000000
00011000
00000000
,
00100000
10000000
01000000
00010000
00001000
00000000
00011000
00000000
,
00000010
00000001
00000100
00001000
00010000
00000000
00011000
00000000
,
00100000
10000000
01000000
10000000
00100000
10000000
01000000
10000000
,
00100000
01010000
00011000
00000000
,
00000011
00001100
00011000
00000000
,
01000000
00000000
00001000
00000000
00010000
00000000
00000000
00000000
00000100
00010000
00000000
00000100
00000000
00000000
00000010
00000000
,
00000001
00000000
00000100
00000000
00001000
00010000
00001000
00000000
,
00021000
00000000
01000000
00000000
,
00000000
00000000
01000000
00000000
,
00032000
00000000
02003000
00000000
,
03020000
00000000
10000000
00000000
,
00230000
00000000
01000000
00000000
,
00000000
00000000
01000000
00000000
,
00302000
00000000
00003020
00000000
,
00000032
00000000
00000100
00000003
,
00001001
00000000
00001000
00000100
00010000
00000000
00001000
00000000
,
00011000
00000000
00001000
00000000
01000000
00010000
00100000
00000000
,
01100000
00000000
01000000
00000000
10000000
00010000
01000000
00000000
,
01001000
00000000
00000000
00001000
00010000
00000000
00010100
00000000
,
00000100
00001000
00000010
00000000
01000000
00010000
00100000
00000000
,
00000010
00001000
00000100
00000000
00100000
00010000
01000000
00000000
,
01010000
00101000
00010010
00001100
,
00022000
00000000
00003000
00000000
,
02000000
00000000
00030000
13000000
,
10000000
01000000
00010000
00001000
00000010
00000000
00000001
00001000
,
00000000
00000100
00010000
00000000
00000010
00000100
00001000
00000000
,
00010000
00000000
01000000
00100000
00000000
00001000
00000000
00010000
,
00000000
00000100
00000010
00000000
00000101
00000000
00001100
00000000
,
00000001
00000100
00001000
00010000
00100000
00000000
01000000
00001000
,
00000000
00010000
01000000
00000000
00100000
00001000
00010000
00000000
,
00100000
00000000
10000000
00000000
00010000
00100000
01000000
00010000
,
00001000
00010100
01001000
00010000
,
10000000
01000000
00010000
00001000
00000010
00000000
00000100
00010000
,
00000000
00001000
00000100
00000000
00000001
00001000
00000100
00000000
,
00000110
00000000
00000010
00000001
00000000
00001000
00000000
00000010
,
00000000
00000000
00010000
00000000
00001000
00000000
00000000
00000000
00000010
00000000
00000000
00000100
00000000
00000000
00000010
00000000
,
00000001
00000100
00001000
00010000
00100000
00000000
01000000
00001000
,
00010000
01000000
00100000
00001000
00010000
00000000
00100000
10000000
,
00010000
00000000
00000000
00100000
00000000
00000000
01000000
00000000
00010000
00000000
00000000
00001000
00000000
00000000
00010000
00000000
,
00000100
00000000
00000000
00001000
00000000
00000000
00000010
00000000
00010000
00000000
00000000
00001000
00000000
00000000
00000010
00000000
,
00000100
00000000
00000000
00001000
00000000
00000000
00000001
00000000
00000100
00000000
00000000
00001000
00000000
00000000
00010000
00000000
,
02000000
00000000
00000000
00000000
,
03100000
00000000
00000000
00000000
;
